  0
SECTION
  2
HEADER
  9
$ACADVER
  1
AC1015
  9
$ACADMAINTVER
 70
    20
  9
$DWGCODEPAGE
  3
ANSI_1252
  9
$INSBASE
 10
0.0
 20
0.0
 30
0.0
  9
$EXTMIN
 10
37.62334266826073
 20
16.14363828893904
 30
0.0
  9
$EXTMAX
 10
379.6232348710944
 20
266.5260764467606
 30
0.0
  9
$LIMMIN
 10
0.0
 20
0.0
  9
$LIMMAX
 10
12.0
 20
9.0
  9
$ORTHOMODE
 70
     0
  9
$REGENMODE
 70
     1
  9
$FILLMODE
 70
     1
  9
$QTEXTMODE
 70
     0
  9
$MIRRTEXT
 70
     0
  9
$LTSCALE
 40
1.0
  9
$ATTMODE
 70
     1
  9
$TEXTSIZE
 40
0.2
  9
$TRACEWID
 40
0.05
  9
$TEXTSTYLE
  7
Standard
  9
$CLAYER
  8
0
  9
$CELTYPE
  6
ByLayer
  9
$CECOLOR
 62
   256
  9
$CELTSCALE
 40
1.0
  9
$DISPSILH
 70
     0
  9
$DIMSCALE
 40
1.0
  9
$DIMASZ
 40
0.18
  9
$DIMEXO
 40
0.0625
  9
$DIMDLI
 40
0.38
  9
$DIMRND
 40
0.0
  9
$DIMDLE
 40
0.0
  9
$DIMEXE
 40
0.18
  9
$DIMTP
 40
0.0
  9
$DIMTM
 40
0.0
  9
$DIMTXT
 40
0.18
  9
$DIMCEN
 40
0.09
  9
$DIMTSZ
 40
0.0
  9
$DIMTOL
 70
     0
  9
$DIMLIM
 70
     0
  9
$DIMTIH
 70
     1
  9
$DIMTOH
 70
     1
  9
$DIMSE1
 70
     0
  9
$DIMSE2
 70
     0
  9
$DIMTAD
 70
     0
  9
$DIMZIN
 70
     0
  9
$DIMBLK
  1

  9
$DIMASO
 70
     1
  9
$DIMSHO
 70
     1
  9
$DIMPOST
  1

  9
$DIMAPOST
  1

  9
$DIMALT
 70
     0
  9
$DIMALTD
 70
     2
  9
$DIMALTF
 40
25.4
  9
$DIMLFAC
 40
1.0
  9
$DIMTOFL
 70
     0
  9
$DIMTVP
 40
0.0
  9
$DIMTIX
 70
     0
  9
$DIMSOXD
 70
     0
  9
$DIMSAH
 70
     0
  9
$DIMBLK1
  1

  9
$DIMBLK2
  1

  9
$DIMSTYLE
  2
Standard
  9
$DIMCLRD
 70
     0
  9
$DIMCLRE
 70
     0
  9
$DIMCLRT
 70
     0
  9
$DIMTFAC
 40
1.0
  9
$DIMGAP
 40
0.09
  9
$DIMJUST
 70
     0
  9
$DIMSD1
 70
     0
  9
$DIMSD2
 70
     0
  9
$DIMTOLJ
 70
     1
  9
$DIMTZIN
 70
     0
  9
$DIMALTZ
 70
     0
  9
$DIMALTTZ
 70
     0
  9
$DIMUPT
 70
     0
  9
$DIMDEC
 70
     4
  9
$DIMTDEC
 70
     4
  9
$DIMALTU
 70
     2
  9
$DIMALTTD
 70
     2
  9
$DIMTXSTY
  7
Standard
  9
$DIMAUNIT
 70
     0
  9
$DIMADEC
 70
     0
  9
$DIMALTRND
 40
0.0
  9
$DIMAZIN
 70
     0
  9
$DIMDSEP
 70
    46
  9
$DIMATFIT
 70
     3
  9
$DIMFRAC
 70
     0
  9
$DIMLDRBLK
  1

  9
$DIMLUNIT
 70
     2
  9
$DIMLWD
 70
    -2
  9
$DIMLWE
 70
    -2
  9
$DIMTMOVE
 70
     0
  9
$LUNITS
 70
     2
  9
$LUPREC
 70
     4
  9
$SKETCHINC
 40
0.1
  9
$FILLETRAD
 40
0.0
  9
$AUNITS
 70
     0
  9
$AUPREC
 70
     0
  9
$MENU
  1
.
  9
$ELEVATION
 40
0.0
  9
$PELEVATION
 40
0.0
  9
$THICKNESS
 40
0.0
  9
$LIMCHECK
 70
     0
  9
$CHAMFERA
 40
0.0
  9
$CHAMFERB
 40
0.0
  9
$CHAMFERC
 40
0.0
  9
$CHAMFERD
 40
0.0
  9
$SKPOLY
 70
     0
  9
$TDCREATE
 40
2458472.373715382
  9
$TDUCREATE
 40
2458472.082048715
  9
$TDUPDATE
 40
2458472.374333125
  9
$TDUUPDATE
 40
2458472.082666459
  9
$TDINDWG
 40
0.0006268287
  9
$TDUSRTIMER
 40
0.0006267824
  9
$USRTIMER
 70
     1
  9
$ANGBASE
 50
0.0
  9
$ANGDIR
 70
     0
  9
$PDMODE
 70
     0
  9
$PDSIZE
 40
0.0
  9
$PLINEWID
 40
0.0
  9
$SPLFRAME
 70
     0
  9
$SPLINETYPE
 70
     6
  9
$SPLINESEGS
 70
     8
  9
$HANDSEED
  5
25A
  9
$SURFTAB1
 70
     6
  9
$SURFTAB2
 70
     6
  9
$SURFTYPE
 70
     6
  9
$SURFU
 70
     6
  9
$SURFV
 70
     6
  9
$UCSBASE
  2

  9
$UCSNAME
  2

  9
$UCSORG
 10
0.0
 20
0.0
 30
0.0
  9
$UCSXDIR
 10
1.0
 20
0.0
 30
0.0
  9
$UCSYDIR
 10
0.0
 20
1.0
 30
0.0
  9
$UCSORTHOREF
  2

  9
$UCSORTHOVIEW
 70
     0
  9
$UCSORGTOP
 10
0.0
 20
0.0
 30
0.0
  9
$UCSORGBOTTOM
 10
0.0
 20
0.0
 30
0.0
  9
$UCSORGLEFT
 10
0.0
 20
0.0
 30
0.0
  9
$UCSORGRIGHT
 10
0.0
 20
0.0
 30
0.0
  9
$UCSORGFRONT
 10
0.0
 20
0.0
 30
0.0
  9
$UCSORGBACK
 10
0.0
 20
0.0
 30
0.0
  9
$PUCSBASE
  2

  9
$PUCSNAME
  2

  9
$PUCSORG
 10
0.0
 20
0.0
 30
0.0
  9
$PUCSXDIR
 10
1.0
 20
0.0
 30
0.0
  9
$PUCSYDIR
 10
0.0
 20
1.0
 30
0.0
  9
$PUCSORTHOREF
  2

  9
$PUCSORTHOVIEW
 70
     0
  9
$PUCSORGTOP
 10
0.0
 20
0.0
 30
0.0
  9
$PUCSORGBOTTOM
 10
0.0
 20
0.0
 30
0.0
  9
$PUCSORGLEFT
 10
0.0
 20
0.0
 30
0.0
  9
$PUCSORGRIGHT
 10
0.0
 20
0.0
 30
0.0
  9
$PUCSORGFRONT
 10
0.0
 20
0.0
 30
0.0
  9
$PUCSORGBACK
 10
0.0
 20
0.0
 30
0.0
  9
$USERI1
 70
     0
  9
$USERI2
 70
     0
  9
$USERI3
 70
     0
  9
$USERI4
 70
     0
  9
$USERI5
 70
     0
  9
$USERR1
 40
0.0
  9
$USERR2
 40
0.0
  9
$USERR3
 40
0.0
  9
$USERR4
 40
0.0
  9
$USERR5
 40
0.0
  9
$WORLDVIEW
 70
     1
  9
$SHADEDGE
 70
     3
  9
$SHADEDIF
 70
    70
  9
$TILEMODE
 70
     1
  9
$MAXACTVP
 70
    64
  9
$PINSBASE
 10
0.0
 20
0.0
 30
0.0
  9
$PLIMCHECK
 70
     0
  9
$PEXTMIN
 10
0.0
 20
0.0
 30
0.0
  9
$PEXTMAX
 10
0.0
 20
0.0
 30
0.0
  9
$PLIMMIN
 10
0.0
 20
0.0
  9
$PLIMMAX
 10
12.0
 20
9.0
  9
$UNITMODE
 70
     0
  9
$VISRETAIN
 70
     1
  9
$PLINEGEN
 70
     0
  9
$PSLTSCALE
 70
     1
  9
$TREEDEPTH
 70
  3020
  9
$CMLSTYLE
  2
Standard
  9
$CMLJUST
 70
     0
  9
$CMLSCALE
 40
1.0
  9
$PROXYGRAPHICS
 70
     1
  9
$MEASUREMENT
 70
     0
  9
$CELWEIGHT
370
    -1
  9
$ENDCAPS
280
     0
  9
$JOINSTYLE
280
     0
  9
$LWDISPLAY
290
     0
  9
$INSUNITS
 70
     1
  9
$HYPERLINKBASE
  1

  9
$STYLESHEET
  1

  9
$XEDIT
290
     1
  9
$CEPSNTYPE
380
     0
  9
$PSTYLEMODE
290
     1
  9
$FINGERPRINTGUID
  2
{27C5B775-AFFA-4135-9B6E-0B1B9A24AEE4}
  9
$VERSIONGUID
  2
{2DF989FE-D341-4EFB-8A69-2450007C7B77}
  9
$EXTNAMES
290
     1
  9
$PSVPSCALE
 40
0.0
  9
$OLESTARTUP
290
     0
  0
ENDSEC
  0
SECTION
  2
CLASSES
  0
CLASS
  1
ACDBDICTIONARYWDFLT
  2
AcDbDictionaryWithDefault
  3
ObjectDBX Classes
 90
        0
280
     0
281
     0
  0
CLASS
  1
ACDBPLACEHOLDER
  2
AcDbPlaceHolder
  3
ObjectDBX Classes
 90
        0
280
     0
281
     0
  0
CLASS
  1
LAYOUT
  2
AcDbLayout
  3
ObjectDBX Classes
 90
        0
280
     0
281
     0
  0
CLASS
  1
DICTIONARYVAR
  2
AcDbDictionaryVar
  3
ObjectDBX Classes
 90
        0
280
     0
281
     0
  0
CLASS
  1
TABLESTYLE
  2
AcDbTableStyle
  3
ObjectDBX Classes
 90
     4095
280
     0
281
     0
  0
CLASS
  1
MATERIAL
  2
AcDbMaterial
  3
ObjectDBX Classes
 90
     1153
280
     0
281
     0
  0
CLASS
  1
VISUALSTYLE
  2
AcDbVisualStyle
  3
ObjectDBX Classes
 90
     4095
280
     0
281
     0
  0
CLASS
  1
DIMASSOC
  2
AcDbDimAssoc
  3
"AcDbDimAssoc|Product Desc:     AcDim ARX App For Dimension|Company:          Autodesk, Inc.|WEB Address:      www.autodesk.com"
 90
        0
280
     0
281
     0
  0
CLASS
  1
SORTENTSTABLE
  2
AcDbSortentsTable
  3
ObjectDBX Classes
 90
        0
280
     0
281
     0
  0
ENDSEC
  0
SECTION
  2
TABLES
  0
TABLE
  2
VPORT
  5
8
330
0
100
AcDbSymbolTable
 70
     1
  0
VPORT
  5
94
330
8
100
AcDbSymbolTableRecord
100
AcDbViewportTableRecord
  2
*Active
 70
     0
 10
0.0
 20
0.0
 11
1.0
 21
1.0
 12
188.2404169721243
 22
77.16668758351898
 13
0.0
 23
0.0
 14
0.5
 24
0.5
 15
0.5
 25
0.5
 16
0.0
 26
0.0
 36
1.0
 17
0.0
 27
0.0
 37
0.0
 40
331.7977745511496
 41
2.189852700490998
 42
50.0
 43
0.0
 44
0.0
 50
0.0
 51
0.0
 71
     0
 72
  1000
 73
     1
 74
     3
 75
     0
 76
     0
 77
     0
 78
     0
281
     0
 65
     1
110
0.0
120
0.0
130
0.0
111
1.0
121
0.0
131
0.0
112
0.0
122
1.0
132
0.0
 79
     0
146
0.0
  0
ENDTAB
  0
TABLE
  2
LTYPE
  5
5
330
0
100
AcDbSymbolTable
 70
     1
  0
LTYPE
  5
14
330
5
100
AcDbSymbolTableRecord
100
AcDbLinetypeTableRecord
  2
ByBlock
 70
     0
  3

 72
    65
 73
     0
 40
0.0
  0
LTYPE
  5
15
330
5
100
AcDbSymbolTableRecord
100
AcDbLinetypeTableRecord
  2
ByLayer
 70
     0
  3

 72
    65
 73
     0
 40
0.0
  0
LTYPE
  5
16
330
5
100
AcDbSymbolTableRecord
100
AcDbLinetypeTableRecord
  2
Continuous
 70
     0
  3
Solid line
 72
    65
 73
     0
 40
0.0
  0
ENDTAB
  0
TABLE
  2
LAYER
  5
2
102
{ACAD_XDICTIONARY
360
116
102
}
330
0
100
AcDbSymbolTable
 70
     2
  0
LAYER
  5
10
330
2
100
AcDbSymbolTableRecord
100
AcDbLayerTableRecord
  2
0
 70
     0
 62
     7
  6
Continuous
370
    -3
390
F
  0
LAYER
  5
111
330
2
100
AcDbSymbolTableRecord
100
AcDbLayerTableRecord
  2
Defpoints
 70
     0
 62
     7
  6
Continuous
290
     0
370
    -3
390
F
  0
ENDTAB
  0
TABLE
  2
STYLE
  5
3
330
0
100
AcDbSymbolTable
 70
     2
  0
STYLE
  5
11
330
3
100
AcDbSymbolTableRecord
100
AcDbTextStyleTableRecord
  2
Standard
 70
     0
 40
0.0
 41
1.0
 50
0.0
 71
     0
 42
0.2
  3
txt
  4

  0
STYLE
  5
112
330
3
100
AcDbSymbolTableRecord
100
AcDbTextStyleTableRecord
  2
Binh
 70
     0
 40
0.0
 41
1.0
 50
0.0
 71
     0
 42
25.0
  3

  4

1001
ACAD
1000
VNI-Helve-Condense
1071
        2
  0
ENDTAB
  0
TABLE
  2
VIEW
  5
6
330
0
100
AcDbSymbolTable
 70
     0
  0
ENDTAB
  0
TABLE
  2
UCS
  5
7
330
0
100
AcDbSymbolTable
 70
     0
  0
ENDTAB
  0
TABLE
  2
APPID
  5
9
330
0
100
AcDbSymbolTable
 70
     2
  0
APPID
  5
12
330
9
100
AcDbSymbolTableRecord
100
AcDbRegAppTableRecord
  2
ACAD
 70
     0
  0
APPID
  5
115
330
9
100
AcDbSymbolTableRecord
100
AcDbRegAppTableRecord
  2
ACAD_PSEXT
 70
     0
  0
ENDTAB
  0
TABLE
  2
DIMSTYLE
  5
A
330
0
100
AcDbSymbolTable
 70
     3
100
AcDbDimStyleTable
 71
     0
  0
DIMSTYLE
105
27
330
A
100
AcDbSymbolTableRecord
100
AcDbDimStyleTableRecord
  2
Standard
 70
     0
340
11
  0
DIMSTYLE
105
113
330
A
100
AcDbSymbolTableRecord
100
AcDbDimStyleTableRecord
  2
SS
 70
     0
 40
1.5
 41
3.0
 42
2.0
 43
1.0
 44
2.0
 73
     0
 74
     0
 77
     1
140
3.0
147
0.5
176
     1
177
     1
178
     7
340
11
  0
DIMSTYLE
105
114
102
{ACAD_REACTORS
330
16C
330
16D
330
170
330
173
330
176
330
179
330
17C
330
1D9
330
1DA
330
1DD
330
1E0
330
1E3
330
1E6
330
1E9
102
}
330
A
100
AcDbSymbolTableRecord
100
AcDbDimStyleTableRecord
  2
TRIEU
 70
     0
 40
0.5
 41
30.0
 42
0.0
 43
0.0
 44
20.0
 73
     0
 77
     3
 78
     8
140
30.0
141
0.0
146
0.0000052631578947
147
10.0
172
     1
174
     1
176
     8
177
     8
178
     3
271
     0
272
     0
275
     1
279
     2
284
     8
340
112
342
B9
  0
ENDTAB
  0
TABLE
  2
BLOCK_RECORD
  5
1
330
0
100
AcDbSymbolTable
 70
    17
  0
BLOCK_RECORD
  5
1F
330
1
100
AcDbSymbolTableRecord
100
AcDbBlockTableRecord
  2
*Model_Space
340
22
  0
BLOCK_RECORD
  5
58
330
1
100
AcDbSymbolTableRecord
100
AcDbBlockTableRecord
  2
*Paper_Space
340
59
  0
BLOCK_RECORD
  5
5D
330
1
100
AcDbSymbolTableRecord
100
AcDbBlockTableRecord
  2
*Paper_Space0
340
5E
  0
BLOCK_RECORD
  5
B9
330
1
100
AcDbSymbolTableRecord
100
AcDbBlockTableRecord
  2
_Oblique
340
0
102
{BLKREFS
331
C2
331
C3
331
CE
331
CF
331
DA
331
DB
331
E6
331
E7
331
F2
331
F3
331
FE
331
FF
331
10A
331
10B
331
1FB
331
1FC
331
205
331
206
331
211
331
212
331
21D
331
21E
331
229
331
22A
331
235
331
236
331
241
331
242
102
}
  0
BLOCK_RECORD
  5
BD
330
1
100
AcDbSymbolTableRecord
100
AcDbBlockTableRecord
  2
*D2
340
0
  0
BLOCK_RECORD
  5
C9
330
1
100
AcDbSymbolTableRecord
100
AcDbBlockTableRecord
  2
*D3
340
0
  0
BLOCK_RECORD
  5
D5
330
1
100
AcDbSymbolTableRecord
100
AcDbBlockTableRecord
  2
*D4
340
0
  0
BLOCK_RECORD
  5
E1
330
1
100
AcDbSymbolTableRecord
100
AcDbBlockTableRecord
  2
*D5
340
0
  0
BLOCK_RECORD
  5
ED
330
1
100
AcDbSymbolTableRecord
100
AcDbBlockTableRecord
  2
*D6
340
0
  0
BLOCK_RECORD
  5
F9
330
1
100
AcDbSymbolTableRecord
100
AcDbBlockTableRecord
  2
*D7
340
0
  0
BLOCK_RECORD
  5
105
330
1
100
AcDbSymbolTableRecord
100
AcDbBlockTableRecord
  2
*D8
340
0
  0
BLOCK_RECORD
  5
1EC
330
1
100
AcDbSymbolTableRecord
100
AcDbBlockTableRecord
  2
*D10
340
0
  0
BLOCK_RECORD
  5
201
330
1
100
AcDbSymbolTableRecord
100
AcDbBlockTableRecord
  2
*D11
340
0
  0
BLOCK_RECORD
  5
20D
330
1
100
AcDbSymbolTableRecord
100
AcDbBlockTableRecord
  2
*D12
340
0
  0
BLOCK_RECORD
  5
219
330
1
100
AcDbSymbolTableRecord
100
AcDbBlockTableRecord
  2
*D13
340
0
  0
BLOCK_RECORD
  5
225
330
1
100
AcDbSymbolTableRecord
100
AcDbBlockTableRecord
  2
*D14
340
0
  0
BLOCK_RECORD
  5
231
330
1
100
AcDbSymbolTableRecord
100
AcDbBlockTableRecord
  2
*D15
340
0
  0
BLOCK_RECORD
  5
23D
330
1
100
AcDbSymbolTableRecord
100
AcDbBlockTableRecord
  2
*D16
340
0
  0
ENDTAB
  0
ENDSEC
  0
SECTION
  2
BLOCKS
  0
BLOCK
  5
20
330
1F
100
AcDbEntity
  8
0
100
AcDbBlockBegin
  2
*Model_Space
 70
     0
 10
0.0
 20
0.0
 30
0.0
  3
*Model_Space
  1

  0
ENDBLK
  5
21
330
1F
100
AcDbEntity
  8
0
100
AcDbBlockEnd
  0
BLOCK
  5
5A
330
58
100
AcDbEntity
 67
     1
  8
0
100
AcDbBlockBegin
  2
*Paper_Space
 70
     0
 10
0.0
 20
0.0
 30
0.0
  3
*Paper_Space
  1

  0
ENDBLK
  5
5B
330
58
100
AcDbEntity
 67
     1
  8
0
100
AcDbBlockEnd
  0
BLOCK
  5
5F
330
5D
100
AcDbEntity
 67
     1
  8
0
100
AcDbBlockBegin
  2
*Paper_Space0
 70
     0
 10
0.0
 20
0.0
 30
0.0
  3
*Paper_Space0
  1

  0
ENDBLK
  5
60
330
5D
100
AcDbEntity
 67
     1
  8
0
100
AcDbBlockEnd
  0
BLOCK
  5
BA
330
B9
100
AcDbEntity
  8
0
100
AcDbBlockBegin
  2
_Oblique
 70
     0
 10
0.0
 20
0.0
 30
0.0
  3
_Oblique
  1

  0
LINE
  5
BB
330
B9
100
AcDbEntity
  8
0
  6
ByBlock
 62
     0
370
    -2
100
AcDbLine
 10
-0.5
 20
-0.5
 30
0.0
 11
0.5
 21
0.5
 31
0.0
  0
ENDBLK
  5
BC
330
B9
100
AcDbEntity
  8
0
100
AcDbBlockEnd
  0
BLOCK
  5
BE
330
BD
100
AcDbEntity
  8
0
370
    40
100
AcDbBlockBegin
  2
*D2
 70
     1
 10
0.0
 20
0.0
 30
0.0
  3
*D2
  1

  0
LINE
  5
BF
330
BD
100
AcDbEntity
  8
0
 62
     8
370
    -2
100
AcDbLine
 10
-469.0364013315441
 20
-1123.748675686845
 30
0.0
 11
-440.6071890453758
 21
-1123.748675686845
 31
0.0
  0
LINE
  5
C0
330
BD
100
AcDbEntity
  8
0
 62
     8
370
    -2
100
AcDbLine
 10
-473.0364013315441
 20
-1173.748675686846
 30
0.0
 11
-440.6071890453758
 21
-1173.748675686846
 31
0.0
  0
LINE
  5
C1
330
BD
100
AcDbEntity
  8
0
 62
     8
370
    -2
100
AcDbLine
 10
-450.6071890453759
 20
-1123.748675686845
 30
0.0
 11
-450.6071890453759
 21
-1173.748675686846
 31
0.0
  0
INSERT
  5
C2
330
BD
100
AcDbEntity
  8
0
 62
     8
370
    -2
100
AcDbBlockReference
  2
_Oblique
 10
-450.6071890453759
 20
-1123.748675686845
 30
0.0
 41
15.0
 42
15.0
 43
15.0
 50
90.0
  0
INSERT
  5
C3
330
BD
100
AcDbEntity
  8
0
 62
     8
370
    -2
100
AcDbBlockReference
  2
_Oblique
 10
-450.6071890453759
 20
-1173.748675686846
 30
0.0
 41
15.0
 42
15.0
 43
15.0
 50
270.0
  0
MTEXT
  5
C4
330
BD
100
AcDbEntity
  8
0
 62
     3
370
    40
100
AcDbMText
 10
-461.3574390453757
 20
-1148.748675686845
 30
0.0
 40
15.0
 41
0.0
 71
     5
 72
     1
  1
\A1;{\H0.7667x;\C256;50}
  7
Binh
 11
0.0000000000000001
 21
1.0
 31
0.0
 73
     1
 44
1.0
1001
ACAD
1000
MTEXTBEGIN
1070
    73
1070
     1
1070
    44
1040
1.0
1070
    74
1070
     0
1000
MTEXTEND
  0
POINT
  5
C5
330
BD
100
AcDbEntity
  8
Defpoints
 62
     0
370
    40
100
AcDbPoint
 10
-469.0364013315441
 20
-1123.748675686845
 30
0.0
  0
POINT
  5
C6
330
BD
100
AcDbEntity
  8
Defpoints
 62
     0
370
    40
100
AcDbPoint
 10
-473.0364013315441
 20
-1173.748675686846
 30
0.0
  0
POINT
  5
C7
330
BD
100
AcDbEntity
  8
Defpoints
 62
     0
370
    40
100
AcDbPoint
 10
-450.6071890453759
 20
-1173.748675686846
 30
0.0
  0
ENDBLK
  5
C8
330
BD
100
AcDbEntity
  8
0
370
    40
100
AcDbBlockEnd
  0
BLOCK
  5
CA
330
C9
100
AcDbEntity
  8
0
370
    40
100
AcDbBlockBegin
  2
*D3
 70
     1
 10
0.0
 20
0.0
 30
0.0
  3
*D3
  1

  0
LINE
  5
CB
330
C9
100
AcDbEntity
  8
0
 62
     8
370
    -2
100
AcDbLine
 10
-565.0364013315441
 20
-1127.748675686846
 30
0.0
 11
-565.0364013315441
 21
-1102.194641457674
 31
0.0
  0
LINE
  5
CC
330
C9
100
AcDbEntity
  8
0
 62
     8
370
    -2
100
AcDbLine
 10
-473.0364013315441
 20
-1127.748675686846
 30
0.0
 11
-473.0364013315441
 21
-1102.194641457674
 31
0.0
  0
LINE
  5
CD
330
C9
100
AcDbEntity
  8
0
 62
     8
370
    -2
100
AcDbLine
 10
-565.0364013315441
 20
-1112.194641457674
 30
0.0
 11
-473.0364013315441
 21
-1112.194641457674
 31
0.0
  0
INSERT
  5
CE
330
C9
100
AcDbEntity
  8
0
 62
     8
370
    -2
100
AcDbBlockReference
  2
_Oblique
 10
-565.0364013315441
 20
-1112.194641457674
 30
0.0
 41
15.0
 42
15.0
 43
15.0
 50
180.0
  0
INSERT
  5
CF
330
C9
100
AcDbEntity
  8
0
 62
     8
370
    -2
100
AcDbBlockReference
  2
_Oblique
 10
-473.0364013315441
 20
-1112.194641457674
 30
0.0
 41
15.0
 42
15.0
 43
15.0
  0
MTEXT
  5
D0
330
C9
100
AcDbEntity
  8
0
 62
     3
370
    40
100
AcDbMText
 10
-519.0364013315441
 20
-1101.444391457674
 30
0.0
 40
15.0
 41
0.0
 71
     5
 72
     1
  1
\A1;{\H0.7667x;\C256;92}
  7
Binh
 73
     1
 44
1.0
1001
ACAD
1000
MTEXTBEGIN
1070
    73
1070
     1
1070
    44
1040
1.0
1070
    74
1070
     0
1000
MTEXTEND
  0
POINT
  5
D1
330
C9
100
AcDbEntity
  8
Defpoints
 62
     0
370
    40
100
AcDbPoint
 10
-565.0364013315441
 20
-1127.748675686846
 30
0.0
  0
POINT
  5
D2
330
C9
100
AcDbEntity
  8
Defpoints
 62
     0
370
    40
100
AcDbPoint
 10
-473.0364013315441
 20
-1127.748675686846
 30
0.0
  0
POINT
  5
D3
330
C9
100
AcDbEntity
  8
Defpoints
 62
     0
370
    40
100
AcDbPoint
 10
-473.0364013315441
 20
-1112.194641457674
 30
0.0
  0
ENDBLK
  5
D4
330
C9
100
AcDbEntity
  8
0
370
    40
100
AcDbBlockEnd
  0
BLOCK
  5
D6
330
D5
100
AcDbEntity
  8
0
370
    40
100
AcDbBlockBegin
  2
*D4
 70
     1
 10
0.0
 20
0.0
 30
0.0
  3
*D4
  1

  0
LINE
  5
D7
330
D5
100
AcDbEntity
  8
0
 62
     8
370
    -2
100
AcDbLine
 10
-569.0364013315441
 20
-1123.748675686845
 30
0.0
 11
-569.0364013315441
 21
-1083.162682801321
 31
0.0
  0
LINE
  5
D8
330
D5
100
AcDbEntity
  8
0
 62
     8
370
    -2
100
AcDbLine
 10
-469.0364013315441
 20
-1123.748675686845
 30
0.0
 11
-469.0364013315441
 21
-1083.162682801321
 31
0.0
  0
LINE
  5
D9
330
D5
100
AcDbEntity
  8
0
 62
     8
370
    -2
100
AcDbLine
 10
-569.0364013315441
 20
-1093.162682801321
 30
0.0
 11
-469.0364013315441
 21
-1093.162682801321
 31
0.0
  0
INSERT
  5
DA
330
D5
100
AcDbEntity
  8
0
 62
     8
370
    -2
100
AcDbBlockReference
  2
_Oblique
 10
-569.0364013315441
 20
-1093.162682801321
 30
0.0
 41
15.0
 42
15.0
 43
15.0
 50
180.0
  0
INSERT
  5
DB
330
D5
100
AcDbEntity
  8
0
 62
     8
370
    -2
100
AcDbBlockReference
  2
_Oblique
 10
-469.0364013315441
 20
-1093.162682801321
 30
0.0
 41
15.0
 42
15.0
 43
15.0
  0
MTEXT
  5
DC
330
D5
100
AcDbEntity
  8
0
 62
     3
370
    40
100
AcDbMText
 10
-519.0364013315441
 20
-1082.412432801321
 30
0.0
 40
15.0
 41
0.0
 71
     5
 72
     1
  1
\A1;{\H0.7667x;\C256;100}
  7
Binh
 73
     1
 44
1.0
1001
ACAD
1000
MTEXTBEGIN
1070
    73
1070
     1
1070
    44
1040
1.0
1070
    74
1070
     0
1000
MTEXTEND
  0
POINT
  5
DD
330
D5
100
AcDbEntity
  8
Defpoints
 62
     0
370
    40
100
AcDbPoint
 10
-569.0364013315441
 20
-1123.748675686845
 30
0.0
  0
POINT
  5
DE
330
D5
100
AcDbEntity
  8
Defpoints
 62
     0
370
    40
100
AcDbPoint
 10
-469.0364013315441
 20
-1123.748675686845
 30
0.0
  0
POINT
  5
DF
330
D5
100
AcDbEntity
  8
Defpoints
 62
     0
370
    40
100
AcDbPoint
 10
-469.0364013315441
 20
-1093.162682801321
 30
0.0
  0
ENDBLK
  5
E0
330
D5
100
AcDbEntity
  8
0
370
    40
100
AcDbBlockEnd
  0
BLOCK
  5
E2
330
E1
100
AcDbEntity
  8
0
370
    40
100
AcDbBlockBegin
  2
*D5
 70
     1
 10
0.0
 20
0.0
 30
0.0
  3
*D5
  1

  0
LINE
  5
E3
330
E1
100
AcDbEntity
  8
0
 62
     8
370
    -2
100
AcDbLine
 10
-752.5887335064883
 20
-959.3856961475424
 30
0.0
 11
-752.5887335064883
 21
-937.3667375290242
 31
0.0
  0
LINE
  5
E4
330
E1
100
AcDbEntity
  8
0
 62
     8
370
    -2
100
AcDbLine
 10
-588.5887335064883
 20
-959.3856961475424
 30
0.0
 11
-588.5887335064883
 21
-937.3667375290242
 31
0.0
  0
LINE
  5
E5
330
E1
100
AcDbEntity
  8
0
 62
     8
370
    -2
100
AcDbLine
 10
-752.5887335064883
 20
-947.3667375290242
 30
0.0
 11
-588.5887335064883
 21
-947.3667375290242
 31
0.0
  0
INSERT
  5
E6
330
E1
100
AcDbEntity
  8
0
 62
     8
370
    -2
100
AcDbBlockReference
  2
_Oblique
 10
-752.5887335064883
 20
-947.3667375290242
 30
0.0
 41
15.0
 42
15.0
 43
15.0
 50
180.0
  0
INSERT
  5
E7
330
E1
100
AcDbEntity
  8
0
 62
     8
370
    -2
100
AcDbBlockReference
  2
_Oblique
 10
-588.5887335064883
 20
-947.3667375290242
 30
0.0
 41
15.0
 42
15.0
 43
15.0
  0
MTEXT
  5
E8
330
E1
100
AcDbEntity
  8
0
 62
     3
370
    40
100
AcDbMText
 10
-670.5887335064883
 20
-936.6164875290241
 30
0.0
 40
15.0
 41
0.0
 71
     5
 72
     1
  1
\A1;{\H0.7667x;\C256;164}
  7
Binh
 73
     1
 44
1.0
1001
ACAD
1000
MTEXTBEGIN
1070
    73
1070
     1
1070
    44
1040
1.0
1070
    74
1070
     0
1000
MTEXTEND
  0
POINT
  5
E9
330
E1
100
AcDbEntity
  8
Defpoints
 62
     0
370
    40
100
AcDbPoint
 10
-752.5887335064883
 20
-959.3856961475424
 30
0.0
  0
POINT
  5
EA
330
E1
100
AcDbEntity
  8
Defpoints
 62
     0
370
    40
100
AcDbPoint
 10
-588.5887335064883
 20
-959.3856961475424
 30
0.0
  0
POINT
  5
EB
330
E1
100
AcDbEntity
  8
Defpoints
 62
     0
370
    40
100
AcDbPoint
 10
-588.5887335064883
 20
-947.3667375290242
 30
0.0
  0
ENDBLK
  5
EC
330
E1
100
AcDbEntity
  8
0
370
    40
100
AcDbBlockEnd
  0
BLOCK
  5
EE
330
ED
100
AcDbEntity
  8
0
370
    40
100
AcDbBlockBegin
  2
*D6
 70
     1
 10
0.0
 20
0.0
 30
0.0
  3
*D6
  1

  0
LINE
  5
EF
330
ED
100
AcDbEntity
  8
0
 62
     8
370
    -2
100
AcDbLine
 10
-752.5887335064882
 20
-959.3856961475424
 30
0.0
 11
-776.1065812482094
 21
-959.3856961475422
 31
0.0
  0
LINE
  5
F0
330
ED
100
AcDbEntity
  8
0
 62
     8
370
    -2
100
AcDbLine
 10
-752.5887335064883
 20
-1059.385696147542
 30
0.0
 11
-776.1065812482095
 21
-1059.385696147542
 31
0.0
  0
LINE
  5
F1
330
ED
100
AcDbEntity
  8
0
 62
     8
370
    -2
100
AcDbLine
 10
-766.1065812482093
 20
-959.3856961475424
 30
0.0
 11
-766.1065812482095
 21
-1059.385696147542
 31
0.0
  0
INSERT
  5
F2
330
ED
100
AcDbEntity
  8
0
 62
     8
370
    -2
100
AcDbBlockReference
  2
_Oblique
 10
-766.1065812482093
 20
-959.3856961475424
 30
0.0
 41
15.0
 42
15.0
 43
15.0
 50
90.0
  0
INSERT
  5
F3
330
ED
100
AcDbEntity
  8
0
 62
     8
370
    -2
100
AcDbBlockReference
  2
_Oblique
 10
-766.1065812482095
 20
-1059.385696147542
 30
0.0
 41
15.0
 42
15.0
 43
15.0
 50
270.0
  0
MTEXT
  5
F4
330
ED
100
AcDbEntity
  8
0
 62
     3
370
    40
100
AcDbMText
 10
-776.8568312482094
 20
-1009.385696147542
 30
0.0
 40
15.0
 41
0.0
 71
     5
 72
     1
  1
\A1;{\H0.7667x;\C256;100}
  7
Binh
 11
0.0000000000000001
 21
1.0
 31
0.0
 73
     1
 44
1.0
1001
ACAD
1000
MTEXTBEGIN
1070
    73
1070
     1
1070
    44
1040
1.0
1070
    74
1070
     0
1000
MTEXTEND
  0
POINT
  5
F5
330
ED
100
AcDbEntity
  8
Defpoints
 62
     0
370
    40
100
AcDbPoint
 10
-752.5887335064882
 20
-959.3856961475424
 30
0.0
  0
POINT
  5
F6
330
ED
100
AcDbEntity
  8
Defpoints
 62
     0
370
    40
100
AcDbPoint
 10
-752.5887335064883
 20
-1059.385696147542
 30
0.0
  0
POINT
  5
F7
330
ED
100
AcDbEntity
  8
Defpoints
 62
     0
370
    40
100
AcDbPoint
 10
-766.1065812482095
 20
-1059.385696147542
 30
0.0
  0
ENDBLK
  5
F8
330
ED
100
AcDbEntity
  8
0
370
    40
100
AcDbBlockEnd
  0
BLOCK
  5
FA
330
F9
100
AcDbEntity
  8
0
370
    40
100
AcDbBlockBegin
  2
*D7
 70
     1
 10
0.0
 20
0.0
 30
0.0
  3
*D7
  1

  0
LINE
  5
FB
330
F9
100
AcDbEntity
  8
0
 62
     8
370
    -2
100
AcDbLine
 10
-748.5887335064883
 20
-1127.748675686846
 30
0.0
 11
-748.5887335064883
 21
-1103.688082209777
 31
0.0
  0
LINE
  5
FC
330
F9
100
AcDbEntity
  8
0
 62
     8
370
    -2
100
AcDbLine
 10
-592.5887335064883
 20
-1127.748675686846
 30
0.0
 11
-592.5887335064883
 21
-1103.688082209777
 31
0.0
  0
LINE
  5
FD
330
F9
100
AcDbEntity
  8
0
 62
     8
370
    -2
100
AcDbLine
 10
-748.5887335064883
 20
-1113.688082209777
 30
0.0
 11
-592.5887335064883
 21
-1113.688082209777
 31
0.0
  0
INSERT
  5
FE
330
F9
100
AcDbEntity
  8
0
 62
     8
370
    -2
100
AcDbBlockReference
  2
_Oblique
 10
-748.5887335064883
 20
-1113.688082209777
 30
0.0
 41
15.0
 42
15.0
 43
15.0
 50
180.0
  0
INSERT
  5
FF
330
F9
100
AcDbEntity
  8
0
 62
     8
370
    -2
100
AcDbBlockReference
  2
_Oblique
 10
-592.5887335064883
 20
-1113.688082209777
 30
0.0
 41
15.0
 42
15.0
 43
15.0
  0
MTEXT
  5
100
330
F9
100
AcDbEntity
  8
0
 62
     3
370
    40
100
AcDbMText
 10
-670.5887335064883
 20
-1102.937832209777
 30
0.0
 40
15.0
 41
0.0
 71
     5
 72
     1
  1
\A1;{\H0.7667x;\C256;156}
  7
Binh
 73
     1
 44
1.0
1001
ACAD
1000
MTEXTBEGIN
1070
    73
1070
     1
1070
    44
1040
1.0
1070
    74
1070
     0
1000
MTEXTEND
  0
POINT
  5
101
330
F9
100
AcDbEntity
  8
Defpoints
 62
     0
370
    40
100
AcDbPoint
 10
-748.5887335064883
 20
-1127.748675686846
 30
0.0
  0
POINT
  5
102
330
F9
100
AcDbEntity
  8
Defpoints
 62
     0
370
    40
100
AcDbPoint
 10
-592.5887335064883
 20
-1127.748675686846
 30
0.0
  0
POINT
  5
103
330
F9
100
AcDbEntity
  8
Defpoints
 62
     0
370
    40
100
AcDbPoint
 10
-592.5887335064883
 20
-1113.688082209777
 30
0.0
  0
ENDBLK
  5
104
330
F9
100
AcDbEntity
  8
0
370
    40
100
AcDbBlockEnd
  0
BLOCK
  5
106
330
105
100
AcDbEntity
  8
0
370
    40
100
AcDbBlockBegin
  2
*D8
 70
     1
 10
0.0
 20
0.0
 30
0.0
  3
*D8
  1

  0
LINE
  5
107
330
105
100
AcDbEntity
  8
0
 62
     8
370
    -2
100
AcDbLine
 10
-752.5887335064883
 20
-1123.748675686845
 30
0.0
 11
-752.5887335064883
 21
-1084.02385595243
 31
0.0
  0
LINE
  5
108
330
105
100
AcDbEntity
  8
0
 62
     8
370
    -2
100
AcDbLine
 10
-588.5887335064883
 20
-1123.748675686845
 30
0.0
 11
-588.5887335064883
 21
-1084.02385595243
 31
0.0
  0
LINE
  5
109
330
105
100
AcDbEntity
  8
0
 62
     8
370
    -2
100
AcDbLine
 10
-752.5887335064883
 20
-1094.02385595243
 30
0.0
 11
-588.5887335064883
 21
-1094.02385595243
 31
0.0
  0
INSERT
  5
10A
330
105
100
AcDbEntity
  8
0
 62
     8
370
    -2
100
AcDbBlockReference
  2
_Oblique
 10
-752.5887335064883
 20
-1094.02385595243
 30
0.0
 41
15.0
 42
15.0
 43
15.0
 50
180.0
  0
INSERT
  5
10B
330
105
100
AcDbEntity
  8
0
 62
     8
370
    -2
100
AcDbBlockReference
  2
_Oblique
 10
-588.5887335064883
 20
-1094.02385595243
 30
0.0
 41
15.0
 42
15.0
 43
15.0
  0
MTEXT
  5
10C
330
105
100
AcDbEntity
  8
0
 62
     3
370
    40
100
AcDbMText
 10
-670.5887335064883
 20
-1083.27360595243
 30
0.0
 40
15.0
 41
0.0
 71
     5
 72
     1
  1
\A1;{\H0.7667x;\C256;164}
  7
Binh
 73
     1
 44
1.0
1001
ACAD
1000
MTEXTBEGIN
1070
    73
1070
     1
1070
    44
1040
1.0
1070
    74
1070
     0
1000
MTEXTEND
  0
POINT
  5
10D
330
105
100
AcDbEntity
  8
Defpoints
 62
     0
370
    40
100
AcDbPoint
 10
-752.5887335064883
 20
-1123.748675686845
 30
0.0
  0
POINT
  5
10E
330
105
100
AcDbEntity
  8
Defpoints
 62
     0
370
    40
100
AcDbPoint
 10
-588.5887335064883
 20
-1123.748675686845
 30
0.0
  0
POINT
  5
10F
330
105
100
AcDbEntity
  8
Defpoints
 62
     0
370
    40
100
AcDbPoint
 10
-588.5887335064883
 20
-1094.02385595243
 30
0.0
  0
ENDBLK
  5
110
330
105
100
AcDbEntity
  8
0
370
    40
100
AcDbBlockEnd
  0
BLOCK
  5
1F6
330
1EC
100
AcDbEntity
  8
0
100
AcDbBlockBegin
  2
*D10
 70
     1
 10
0.0
 20
0.0
 30
0.0
  3
*D10
  1

  0
LINE
  5
1F8
330
1EC
100
AcDbEntity
  8
0
 62
     8
370
    -2
100
AcDbLine
 10
351.1940225849261
 20
73.64363828893904
 30
0.0
 11
379.6232348710944
 21
73.64363828893903
 31
0.0
  0
LINE
  5
1F9
330
1EC
100
AcDbEntity
  8
0
 62
     8
370
    -2
100
AcDbLine
 10
347.1940225849261
 20
23.64363828893905
 30
0.0
 11
379.6232348710944
 21
23.64363828893903
 31
0.0
  0
LINE
  5
1FA
330
1EC
100
AcDbEntity
  8
0
 62
     8
370
    -2
100
AcDbLine
 10
369.6232348710944
 20
73.64363828893903
 30
0.0
 11
369.6232348710944
 21
23.64363828893904
 31
0.0
  0
INSERT
  5
1FB
330
1EC
100
AcDbEntity
  8
0
 62
     8
370
    -2
100
AcDbBlockReference
  2
_Oblique
 10
369.6232348710944
 20
73.64363828893903
 30
0.0
 41
15.0
 42
15.0
 43
15.0
 50
90.0
  0
INSERT
  5
1FC
330
1EC
100
AcDbEntity
  8
0
 62
     8
370
    -2
100
AcDbBlockReference
  2
_Oblique
 10
369.6232348710944
 20
23.64363828893904
 30
0.0
 41
15.0
 42
15.0
 43
15.0
 50
270.0
  0
MTEXT
  5
1FD
330
1EC
100
AcDbEntity
  8
0
 62
     3
370
    40
100
AcDbMText
 10
358.8729848710944
 20
48.64363828893909
 30
0.0
 40
15.0
 41
0.0
 71
     5
 72
     1
  1
\A1;{\H0.7667x;\C256;50}
  7
Binh
 11
0.0000000000000001
 21
1.0
 31
0.0
 73
     1
 44
1.0
1001
ACAD
1000
MTEXTBEGIN
1070
    73
1070
     1
1070
    44
1040
1.0
1070
    74
1070
     0
1000
MTEXTEND
  0
POINT
  5
1FE
330
1EC
100
AcDbEntity
  8
Defpoints
 62
     0
100
AcDbPoint
 10
351.1940225849261
 20
73.64363828893904
 30
0.0
  0
POINT
  5
1FF
330
1EC
100
AcDbEntity
  8
Defpoints
 62
     0
100
AcDbPoint
 10
347.1940225849261
 20
23.64363828893905
 30
0.0
  0
POINT
  5
200
330
1EC
100
AcDbEntity
  8
Defpoints
 62
     0
100
AcDbPoint
 10
369.6232348710944
 20
23.64363828893904
 30
0.0
  0
ENDBLK
  5
1F7
330
1EC
100
AcDbEntity
  8
0
100
AcDbBlockEnd
  0
BLOCK
  5
20B
330
201
100
AcDbEntity
  8
0
100
AcDbBlockBegin
  2
*D11
 70
     1
 10
0.0
 20
0.0
 30
0.0
  3
*D11
  1

  0
LINE
  5
202
330
201
100
AcDbEntity
  8
0
 62
     8
370
    -2
100
AcDbLine
 10
255.1940225849261
 20
69.64363828893906
 30
0.0
 11
255.1940225849261
 21
95.19767251811035
 31
0.0
  0
LINE
  5
203
330
201
100
AcDbEntity
  8
0
 62
     8
370
    -2
100
AcDbLine
 10
347.1940225849261
 20
69.64363828893906
 30
0.0
 11
347.1940225849261
 21
95.19767251811035
 31
0.0
  0
LINE
  5
204
330
201
100
AcDbEntity
  8
0
 62
     8
370
    -2
100
AcDbLine
 10
255.1940225849261
 20
85.19767251811035
 30
0.0
 11
347.1940225849261
 21
85.19767251811035
 31
0.0
  0
INSERT
  5
205
330
201
100
AcDbEntity
  8
0
 62
     8
370
    -2
100
AcDbBlockReference
  2
_Oblique
 10
255.1940225849261
 20
85.19767251811035
 30
0.0
 41
15.0
 42
15.0
 43
15.0
 50
180.0
  0
INSERT
  5
206
330
201
100
AcDbEntity
  8
0
 62
     8
370
    -2
100
AcDbBlockReference
  2
_Oblique
 10
347.1940225849261
 20
85.19767251811035
 30
0.0
 41
15.0
 42
15.0
 43
15.0
  0
MTEXT
  5
207
330
201
100
AcDbEntity
  8
0
 62
     3
370
    40
100
AcDbMText
 10
301.1940225849261
 20
95.94792251811036
 30
0.0
 40
15.0
 41
0.0
 71
     5
 72
     1
  1
\A1;{\H0.7667x;\C256;92}
  7
Binh
 73
     1
 44
1.0
1001
ACAD
1000
MTEXTBEGIN
1070
    73
1070
     1
1070
    44
1040
1.0
1070
    74
1070
     0
1000
MTEXTEND
  0
POINT
  5
208
330
201
100
AcDbEntity
  8
Defpoints
 62
     0
100
AcDbPoint
 10
255.1940225849261
 20
69.64363828893906
 30
0.0
  0
POINT
  5
209
330
201
100
AcDbEntity
  8
Defpoints
 62
     0
100
AcDbPoint
 10
347.1940225849261
 20
69.64363828893906
 30
0.0
  0
POINT
  5
20A
330
201
100
AcDbEntity
  8
Defpoints
 62
     0
100
AcDbPoint
 10
347.1940225849261
 20
85.19767251811035
 30
0.0
  0
ENDBLK
  5
20C
330
201
100
AcDbEntity
  8
0
100
AcDbBlockEnd
  0
BLOCK
  5
217
330
20D
100
AcDbEntity
  8
0
100
AcDbBlockBegin
  2
*D12
 70
     1
 10
0.0
 20
0.0
 30
0.0
  3
*D12
  1

  0
LINE
  5
20E
330
20D
100
AcDbEntity
  8
0
 62
     8
370
    -2
100
AcDbLine
 10
251.1940225849261
 20
73.64363828893906
 30
0.0
 11
251.1940225849261
 21
114.2296311744631
 31
0.0
  0
LINE
  5
20F
330
20D
100
AcDbEntity
  8
0
 62
     8
370
    -2
100
AcDbLine
 10
351.1940225849261
 20
73.64363828893906
 30
0.0
 11
351.1940225849261
 21
114.2296311744631
 31
0.0
  0
LINE
  5
210
330
20D
100
AcDbEntity
  8
0
 62
     8
370
    -2
100
AcDbLine
 10
251.1940225849261
 20
104.2296311744631
 30
0.0
 11
351.1940225849261
 21
104.2296311744631
 31
0.0
  0
INSERT
  5
211
330
20D
100
AcDbEntity
  8
0
 62
     8
370
    -2
100
AcDbBlockReference
  2
_Oblique
 10
251.1940225849261
 20
104.2296311744631
 30
0.0
 41
15.0
 42
15.0
 43
15.0
 50
180.0
  0
INSERT
  5
212
330
20D
100
AcDbEntity
  8
0
 62
     8
370
    -2
100
AcDbBlockReference
  2
_Oblique
 10
351.1940225849261
 20
104.2296311744631
 30
0.0
 41
15.0
 42
15.0
 43
15.0
  0
MTEXT
  5
213
330
20D
100
AcDbEntity
  8
0
 62
     3
370
    40
100
AcDbMText
 10
301.1940225849261
 20
114.9798811744631
 30
0.0
 40
15.0
 41
0.0
 71
     5
 72
     1
  1
\A1;{\H0.7667x;\C256;100}
  7
Binh
 73
     1
 44
1.0
1001
ACAD
1000
MTEXTBEGIN
1070
    73
1070
     1
1070
    44
1040
1.0
1070
    74
1070
     0
1000
MTEXTEND
  0
POINT
  5
214
330
20D
100
AcDbEntity
  8
Defpoints
 62
     0
100
AcDbPoint
 10
251.1940225849261
 20
73.64363828893906
 30
0.0
  0
POINT
  5
215
330
20D
100
AcDbEntity
  8
Defpoints
 62
     0
100
AcDbPoint
 10
351.1940225849261
 20
73.64363828893906
 30
0.0
  0
POINT
  5
216
330
20D
100
AcDbEntity
  8
Defpoints
 62
     0
100
AcDbPoint
 10
351.1940225849261
 20
104.2296311744631
 30
0.0
  0
ENDBLK
  5
218
330
20D
100
AcDbEntity
  8
0
100
AcDbBlockEnd
  0
BLOCK
  5
223
330
219
100
AcDbEntity
  8
0
100
AcDbBlockBegin
  2
*D13
 70
     1
 10
0.0
 20
0.0
 30
0.0
  3
*D13
  1

  0
LINE
  5
21A
330
219
100
AcDbEntity
  8
0
 62
     8
370
    -2
100
AcDbLine
 10
67.64169040998194
 20
238.0066178282424
 30
0.0
 11
67.64169040998194
 21
260.0255764467605
 31
0.0
  0
LINE
  5
21B
330
219
100
AcDbEntity
  8
0
 62
     8
370
    -2
100
AcDbLine
 10
231.641690409982
 20
238.0066178282424
 30
0.0
 11
231.641690409982
 21
260.0255764467605
 31
0.0
  0
LINE
  5
21C
330
219
100
AcDbEntity
  8
0
 62
     8
370
    -2
100
AcDbLine
 10
67.64169040998194
 20
250.0255764467605
 30
0.0
 11
231.641690409982
 21
250.0255764467605
 31
0.0
  0
INSERT
  5
21D
330
219
100
AcDbEntity
  8
0
 62
     8
370
    -2
100
AcDbBlockReference
  2
_Oblique
 10
67.64169040998194
 20
250.0255764467605
 30
0.0
 41
15.0
 42
15.0
 43
15.0
 50
180.0
  0
INSERT
  5
21E
330
219
100
AcDbEntity
  8
0
 62
     8
370
    -2
100
AcDbBlockReference
  2
_Oblique
 10
231.641690409982
 20
250.0255764467605
 30
0.0
 41
15.0
 42
15.0
 43
15.0
  0
MTEXT
  5
21F
330
219
100
AcDbEntity
  8
0
 62
     3
370
    40
100
AcDbMText
 10
149.6416904099819
 20
260.7758264467605
 30
0.0
 40
15.0
 41
0.0
 71
     5
 72
     1
  1
\A1;{\H0.7667x;\C256;164}
  7
Binh
 73
     1
 44
1.0
1001
ACAD
1000
MTEXTBEGIN
1070
    73
1070
     1
1070
    44
1040
1.0
1070
    74
1070
     0
1000
MTEXTEND
  0
POINT
  5
220
330
219
100
AcDbEntity
  8
Defpoints
 62
     0
100
AcDbPoint
 10
67.64169040998194
 20
238.0066178282424
 30
0.0
  0
POINT
  5
221
330
219
100
AcDbEntity
  8
Defpoints
 62
     0
100
AcDbPoint
 10
231.641690409982
 20
238.0066178282424
 30
0.0
  0
POINT
  5
222
330
219
100
AcDbEntity
  8
Defpoints
 62
     0
100
AcDbPoint
 10
231.641690409982
 20
250.0255764467605
 30
0.0
  0
ENDBLK
  5
224
330
219
100
AcDbEntity
  8
0
100
AcDbBlockEnd
  0
BLOCK
  5
22F
330
225
100
AcDbEntity
  8
0
100
AcDbBlockBegin
  2
*D14
 70
     1
 10
0.0
 20
0.0
 30
0.0
  3
*D14
  1

  0
LINE
  5
226
330
225
100
AcDbEntity
  8
0
 62
     8
370
    -2
100
AcDbLine
 10
67.64169040998192
 20
238.0066178282423
 30
0.0
 11
44.12384266826075
 21
238.0066178282424
 31
0.0
  0
LINE
  5
227
330
225
100
AcDbEntity
  8
0
 62
     8
370
    -2
100
AcDbLine
 10
67.64169040998194
 20
138.0066178282423
 30
0.0
 11
44.12384266826072
 21
138.0066178282423
 31
0.0
  0
LINE
  5
228
330
225
100
AcDbEntity
  8
0
 62
     8
370
    -2
100
AcDbLine
 10
54.12384266826075
 20
238.0066178282424
 30
0.0
 11
54.12384266826073
 21
138.0066178282423
 31
0.0
  0
INSERT
  5
229
330
225
100
AcDbEntity
  8
0
 62
     8
370
    -2
100
AcDbBlockReference
  2
_Oblique
 10
54.12384266826075
 20
238.0066178282424
 30
0.0
 41
15.0
 42
15.0
 43
15.0
 50
90.0
  0
INSERT
  5
22A
330
225
100
AcDbEntity
  8
0
 62
     8
370
    -2
100
AcDbBlockReference
  2
_Oblique
 10
54.12384266826073
 20
138.0066178282423
 30
0.0
 41
15.0
 42
15.0
 43
15.0
 50
270.0
  0
MTEXT
  5
22B
330
225
100
AcDbEntity
  8
0
 62
     3
370
    40
100
AcDbMText
 10
43.37359266826072
 20
188.0066178282423
 30
0.0
 40
15.0
 41
0.0
 71
     5
 72
     1
  1
\A1;{\H0.7667x;\C256;100}
  7
Binh
 11
0.0000000000000001
 21
1.0
 31
0.0
 73
     1
 44
1.0
1001
ACAD
1000
MTEXTBEGIN
1070
    73
1070
     1
1070
    44
1040
1.0
1070
    74
1070
     0
1000
MTEXTEND
  0
POINT
  5
22C
330
225
100
AcDbEntity
  8
Defpoints
 62
     0
100
AcDbPoint
 10
67.64169040998192
 20
238.0066178282423
 30
0.0
  0
POINT
  5
22D
330
225
100
AcDbEntity
  8
Defpoints
 62
     0
100
AcDbPoint
 10
67.64169040998194
 20
138.0066178282423
 30
0.0
  0
POINT
  5
22E
330
225
100
AcDbEntity
  8
Defpoints
 62
     0
100
AcDbPoint
 10
54.12384266826073
 20
138.0066178282423
 30
0.0
  0
ENDBLK
  5
230
330
225
100
AcDbEntity
  8
0
100
AcDbBlockEnd
  0
BLOCK
  5
23B
330
231
100
AcDbEntity
  8
0
100
AcDbBlockBegin
  2
*D15
 70
     1
 10
0.0
 20
0.0
 30
0.0
  3
*D15
  1

  0
LINE
  5
232
330
231
100
AcDbEntity
  8
0
 62
     8
370
    -2
100
AcDbLine
 10
71.64169040998193
 20
69.64363828893906
 30
0.0
 11
71.64169040998193
 21
93.70423176600738
 31
0.0
  0
LINE
  5
233
330
231
100
AcDbEntity
  8
0
 62
     8
370
    -2
100
AcDbLine
 10
227.641690409982
 20
69.64363828893906
 30
0.0
 11
227.641690409982
 21
93.70423176600738
 31
0.0
  0
LINE
  5
234
330
231
100
AcDbEntity
  8
0
 62
     8
370
    -2
100
AcDbLine
 10
71.64169040998193
 20
83.70423176600738
 30
0.0
 11
227.641690409982
 21
83.70423176600738
 31
0.0
  0
INSERT
  5
235
330
231
100
AcDbEntity
  8
0
 62
     8
370
    -2
100
AcDbBlockReference
  2
_Oblique
 10
71.64169040998193
 20
83.70423176600738
 30
0.0
 41
15.0
 42
15.0
 43
15.0
 50
180.0
  0
INSERT
  5
236
330
231
100
AcDbEntity
  8
0
 62
     8
370
    -2
100
AcDbBlockReference
  2
_Oblique
 10
227.641690409982
 20
83.70423176600738
 30
0.0
 41
15.0
 42
15.0
 43
15.0
  0
MTEXT
  5
237
330
231
100
AcDbEntity
  8
0
 62
     3
370
    40
100
AcDbMText
 10
149.6416904099819
 20
94.45448176600738
 30
0.0
 40
15.0
 41
0.0
 71
     5
 72
     1
  1
\A1;{\H0.7667x;\C256;156}
  7
Binh
 73
     1
 44
1.0
1001
ACAD
1000
MTEXTBEGIN
1070
    73
1070
     1
1070
    44
1040
1.0
1070
    74
1070
     0
1000
MTEXTEND
  0
POINT
  5
238
330
231
100
AcDbEntity
  8
Defpoints
 62
     0
100
AcDbPoint
 10
71.64169040998193
 20
69.64363828893906
 30
0.0
  0
POINT
  5
239
330
231
100
AcDbEntity
  8
Defpoints
 62
     0
100
AcDbPoint
 10
227.641690409982
 20
69.64363828893906
 30
0.0
  0
POINT
  5
23A
330
231
100
AcDbEntity
  8
Defpoints
 62
     0
100
AcDbPoint
 10
227.641690409982
 20
83.70423176600738
 30
0.0
  0
ENDBLK
  5
23C
330
231
100
AcDbEntity
  8
0
100
AcDbBlockEnd
  0
BLOCK
  5
247
330
23D
100
AcDbEntity
  8
0
100
AcDbBlockBegin
  2
*D16
 70
     1
 10
0.0
 20
0.0
 30
0.0
  3
*D16
  1

  0
LINE
  5
23E
330
23D
100
AcDbEntity
  8
0
 62
     8
370
    -2
100
AcDbLine
 10
67.64169040998194
 20
73.64363828893906
 30
0.0
 11
67.64169040998194
 21
113.3684580233542
 31
0.0
  0
LINE
  5
23F
330
23D
100
AcDbEntity
  8
0
 62
     8
370
    -2
100
AcDbLine
 10
231.641690409982
 20
73.64363828893906
 30
0.0
 11
231.641690409982
 21
113.3684580233542
 31
0.0
  0
LINE
  5
240
330
23D
100
AcDbEntity
  8
0
 62
     8
370
    -2
100
AcDbLine
 10
67.64169040998194
 20
103.3684580233542
 30
0.0
 11
231.641690409982
 21
103.3684580233542
 31
0.0
  0
INSERT
  5
241
330
23D
100
AcDbEntity
  8
0
 62
     8
370
    -2
100
AcDbBlockReference
  2
_Oblique
 10
67.64169040998194
 20
103.3684580233542
 30
0.0
 41
15.0
 42
15.0
 43
15.0
 50
180.0
  0
INSERT
  5
242
330
23D
100
AcDbEntity
  8
0
 62
     8
370
    -2
100
AcDbBlockReference
  2
_Oblique
 10
231.641690409982
 20
103.3684580233542
 30
0.0
 41
15.0
 42
15.0
 43
15.0
  0
MTEXT
  5
243
330
23D
100
AcDbEntity
  8
0
 62
     3
370
    40
100
AcDbMText
 10
149.6416904099819
 20
114.1187080233542
 30
0.0
 40
15.0
 41
0.0
 71
     5
 72
     1
  1
\A1;{\H0.7667x;\C256;164}
  7
Binh
 73
     1
 44
1.0
1001
ACAD
1000
MTEXTBEGIN
1070
    73
1070
     1
1070
    44
1040
1.0
1070
    74
1070
     0
1000
MTEXTEND
  0
POINT
  5
244
330
23D
100
AcDbEntity
  8
Defpoints
 62
     0
100
AcDbPoint
 10
67.64169040998194
 20
73.64363828893906
 30
0.0
  0
POINT
  5
245
330
23D
100
AcDbEntity
  8
Defpoints
 62
     0
100
AcDbPoint
 10
231.641690409982
 20
73.64363828893906
 30
0.0
  0
POINT
  5
246
330
23D
100
AcDbEntity
  8
Defpoints
 62
     0
100
AcDbPoint
 10
231.641690409982
 20
103.3684580233542
 30
0.0
  0
ENDBLK
  5
248
330
23D
100
AcDbEntity
  8
0
100
AcDbBlockEnd
  0
ENDSEC
  0
SECTION
  2
ENTITIES
  0
LWPOLYLINE
  5
186
330
1F
100
AcDbEntity
  8
0
100
AcDbPolyline
 90
        4
 70
     1
 43
0.0
 10
71.64169040998193
 20
234.0066178282424
 10
227.641690409982
 20
234.0066178282424
 10
227.641690409982
 20
142.0066178282423
 10
71.64169040998193
 20
142.0066178282423
  0
LWPOLYLINE
  5
187
102
{ACAD_REACTORS
330
1E2
330
1E5
102
}
330
1F
100
AcDbEntity
  8
0
100
AcDbPolyline
 90
        4
 70
     1
 43
0.0
 10
67.64169040998194
 20
238.0066178282424
 10
231.641690409982
 20
238.0066178282424
 10
231.641690409982
 20
138.0066178282423
 10
67.64169040998194
 20
138.0066178282423
  0
LWPOLYLINE
  5
188
330
1F
100
AcDbEntity
  8
0
 62
     5
100
AcDbPolyline
 90
        4
 70
     1
 43
0.0
 10
74.64169040998193
 20
231.0066178282423
 10
224.6416904099819
 20
231.0066178282423
 10
224.6416904099819
 20
145.0066178282423
 10
74.64169040998193
 20
145.0066178282423
  0
LWPOLYLINE
  5
189
330
1F
100
AcDbEntity
  8
0
100
AcDbPolyline
 90
        4
 70
     1
 43
0.0
 10
201.6416904099819
 20
148.0066178282423
 10
218.6416904099819
 20
148.0066178282423
 10
218.6416904099819
 20
165.0066178282423
 10
201.6416904099819
 20
165.0066178282423
  0
LWPOLYLINE
  5
18A
330
1F
100
AcDbEntity
  8
0
100
AcDbPolyline
 90
        4
 70
     1
 43
0.0
 10
181.6416904099819
 20
148.0066178282423
 10
198.6416904099819
 20
148.0066178282423
 10
198.6416904099819
 20
165.0066178282423
 10
181.6416904099819
 20
165.0066178282423
  0
LWPOLYLINE
  5
18B
330
1F
100
AcDbEntity
  8
0
100
AcDbPolyline
 90
        4
 70
     1
 43
0.0
 10
161.6416904099819
 20
148.0066178282423
 10
178.6416904099819
 20
148.0066178282423
 10
178.6416904099819
 20
165.0066178282423
 10
161.6416904099819
 20
165.0066178282423
  0
LWPOLYLINE
  5
18C
330
1F
100
AcDbEntity
  8
0
100
AcDbPolyline
 90
        4
 70
     1
 43
0.0
 10
141.6416904099819
 20
148.0066178282423
 10
158.6416904099819
 20
148.0066178282423
 10
158.6416904099819
 20
165.0066178282423
 10
141.6416904099819
 20
165.0066178282423
  0
LWPOLYLINE
  5
18D
330
1F
100
AcDbEntity
  8
0
100
AcDbPolyline
 90
        4
 70
     1
 43
0.0
 10
121.6416904099819
 20
148.0066178282423
 10
138.6416904099819
 20
148.0066178282423
 10
138.6416904099819
 20
165.0066178282423
 10
121.6416904099819
 20
165.0066178282423
  0
LWPOLYLINE
  5
18E
330
1F
100
AcDbEntity
  8
0
100
AcDbPolyline
 90
        4
 70
     1
 43
0.0
 10
101.6416904099819
 20
148.0066178282423
 10
118.6416904099819
 20
148.0066178282423
 10
118.6416904099819
 20
165.0066178282423
 10
101.6416904099819
 20
165.0066178282423
  0
LWPOLYLINE
  5
18F
330
1F
100
AcDbEntity
  8
0
100
AcDbPolyline
 90
        4
 70
     1
 43
0.0
 10
81.64169040998194
 20
148.0066178282423
 10
98.64169040998193
 20
148.0066178282423
 10
98.64169040998193
 20
165.0066178282423
 10
81.64169040998194
 20
165.0066178282423
  0
MTEXT
  5
190
330
1F
100
AcDbEntity
  8
0
100
AcDbMText
 10
86.61995771973804
 20
162.9615300688918
 30
0.0
 40
3.0
 41
11.53228549681171
 71
     1
 72
     5
  1
{\fTimes New Roman|b0|i0|c0|p18;ENT}
 73
     1
 44
1.0
1001
ACAD
1000
MTEXTBEGIN
1070
    73
1070
     1
1070
    44
1040
1.0
1070
    74
1070
     0
1000
MTEXTEND
  0
MTEXT
  5
191
330
1F
100
AcDbEntity
  8
0
100
AcDbMText
 10
107.2212513990343
 20
162.9615300688918
 30
0.0
 40
3.0
 41
13.86216225870657
 71
     1
 72
     5
  1
{\fTimes New Roman|b0|i0|c0|p18;UP}
 73
     1
 44
1.0
1001
ACAD
1000
MTEXTBEGIN
1070
    73
1070
     1
1070
    44
1040
1.0
1070
    74
1070
     0
1000
MTEXTEND
  0
MTEXT
  5
192
330
1F
100
AcDbEntity
  8
0
100
AcDbMText
 10
124.2900809578432
 20
162.9615300688918
 30
0.0
 40
3.0
 41
13.86216225870657
 71
     1
 72
     5
  1
{\fTimes New Roman|b0|i0|c0|p18;DOWN}
 73
     1
 44
1.0
1001
ACAD
1000
MTEXTBEGIN
1070
    73
1070
     1
1070
    44
1040
1.0
1070
    74
1070
     0
1000
MTEXTEND
  0
MTEXT
  5
193
330
1F
100
AcDbEntity
  8
0
100
AcDbMText
 10
145.2113126973127
 20
162.9615300688918
 30
0.0
 40
3.0
 41
13.86216225870657
 71
     1
 72
     5
  1
{\fTimes New Roman|b0|i0|c0|p18;TRK}
 73
     1
 44
1.0
1001
ACAD
1000
MTEXTBEGIN
1070
    73
1070
     1
1070
    44
1040
1.0
1070
    74
1070
     0
1000
MTEXTEND
  0
MTEXT
  5
194
330
1F
100
AcDbEntity
  8
0
100
AcDbMText
 10
164.2900809578432
 20
162.9615300688918
 30
0.0
 40
3.0
 41
13.86216225870657
 71
     1
 72
     5
  1
{\fTimes New Roman|b0|i0|c0|p18;LEFT}
 73
     1
 44
1.0
1001
ACAD
1000
MTEXTBEGIN
1070
    73
1070
     1
1070
    44
1040
1.0
1070
    74
1070
     0
1000
MTEXTEND
  0
MTEXT
  5
195
330
1F
100
AcDbEntity
  8
0
100
AcDbMText
 10
184.2900809578432
 20
162.9615300688918
 30
0.0
 40
3.0
 41
13.86216225870657
 71
     1
 72
     5
  1
{\fTimes New Roman|b0|i0|c0|p18;RIGHT}
 73
     1
 44
1.0
1001
ACAD
1000
MTEXTBEGIN
1070
    73
1070
     1
1070
    44
1040
1.0
1070
    74
1070
     0
1000
MTEXTEND
  0
MTEXT
  5
196
330
1F
100
AcDbEntity
  8
0
100
AcDbMText
 10
205.4737237651416
 20
162.9615300688918
 30
0.0
 40
3.0
 41
13.86216225870657
 71
     1
 72
     5
  1
{\fTimes New Roman|b0|i0|c0|p18;ESC}
 73
     1
 44
1.0
1001
ACAD
1000
MTEXTBEGIN
1070
    73
1070
     1
1070
    44
1040
1.0
1070
    74
1070
     0
1000
MTEXTEND
  0
LWPOLYLINE
  5
197
330
1F
100
AcDbEntity
  8
0
100
AcDbPolyline
 90
        4
 70
     1
 43
0.0
 10
95.64169040998192
 20
216.0066178282423
 10
201.6416904099819
 20
216.0066178282423
 10
201.6416904099819
 20
177.0066178282423
 10
95.64169040998192
 20
177.0066178282423
  0
MTEXT
  5
198
330
1F
100
AcDbEntity
  8
0
100
AcDbMText
 10
134.0770000769058
 20
204.3970115458122
 30
0.0
 40
5.0
 41
44.79584331544697
 71
     1
 72
     5
  1
{\fTimes New Roman|b0|i0|c0|p18;RS01-BN}
 73
     1
 44
1.0
1001
ACAD
1000
MTEXTBEGIN
1070
    73
1070
     1
1070
    44
1040
1.0
1070
    74
1070
     0
1000
MTEXTEND
  0
MTEXT
  5
199
330
1F
100
AcDbEntity
  8
0
100
AcDbMText
 10
133.7747785574636
 20
192.2472337003367
 30
0.0
 40
2.0
 41
58.17921187641059
 71
     1
 72
     5
  1
{\fTimes New Roman|b0|i0|c0|p18;Remote screen for DDC Controller}
 73
     1
 44
1.0
1001
ACAD
1000
MTEXTBEGIN
1070
    73
1070
     1
1070
    44
1040
1.0
1070
    74
1070
     0
1000
MTEXTEND
  0
LINE
  5
19A
330
1F
100
AcDbEntity
  8
0
100
AcDbLine
 10
67.64169040998194
 20
73.64363828893906
 30
0.0
 11
67.64169040998194
 21
69.64363828893906
 31
0.0
  0
LINE
  5
19B
330
1F
100
AcDbEntity
  8
0
100
AcDbLine
 10
71.64169040998193
 20
23.64363828893906
 30
0.0
 11
227.641690409982
 21
23.64363828893906
 31
0.0
  0
LINE
  5
19C
330
1F
100
AcDbEntity
  8
0
100
AcDbLine
 10
231.641690409982
 20
69.64363828893906
 30
0.0
 11
231.641690409982
 21
73.64363828893906
 31
0.0
  0
LINE
  5
19D
102
{ACAD_REACTORS
330
1EB
102
}
330
1F
100
AcDbEntity
  8
0
100
AcDbLine
 10
231.641690409982
 20
73.64363828893906
 30
0.0
 11
67.64169040998194
 21
73.64363828893906
 31
0.0
  0
LINE
  5
19E
102
{ACAD_REACTORS
330
1E8
102
}
330
1F
100
AcDbEntity
  8
0
100
AcDbLine
 10
71.64169040998193
 20
69.64363828893906
 30
0.0
 11
71.64169040998193
 21
23.64363828893906
 31
0.0
  0
LINE
  5
19F
102
{ACAD_REACTORS
330
1E8
102
}
330
1F
100
AcDbEntity
  8
0
100
AcDbLine
 10
227.641690409982
 20
69.64363828893906
 30
0.0
 11
227.641690409982
 21
23.64363828893906
 31
0.0
  0
LINE
  5
1A0
330
1F
100
AcDbEntity
  8
0
100
AcDbLine
 10
67.64169040998194
 20
69.64363828893906
 30
0.0
 11
231.641690409982
 21
69.64363828893906
 31
0.0
  0
LINE
  5
1A1
330
1F
100
AcDbEntity
  8
0
100
AcDbLine
 10
151.6416904099819
 20
48.64363828893906
 30
0.0
 11
151.6416904099819
 21
23.64363828893906
 31
0.0
  0
LWPOLYLINE
  5
1A2
330
1F
100
AcDbEntity
  8
0
100
AcDbPolyline
 90
        4
 70
     1
 43
0.0
 10
95.96946898122951
 20
27.04010435399218
 10
96.9694689812295
 20
27.04010435399218
 10
96.9694689812295
 20
37.04010435399218
 10
95.96946898122951
 20
37.04010435399218
  0
LWPOLYLINE
  5
1A3
330
1F
100
AcDbEntity
  8
0
100
AcDbPolyline
 90
        4
 70
     1
 43
0.0
 10
97.9694689812295
 20
27.04010435399218
 10
98.9694689812295
 20
27.04010435399218
 10
98.9694689812295
 20
37.04010435399218
 10
97.9694689812295
 20
37.04010435399218
  0
LWPOLYLINE
  5
1A4
330
1F
100
AcDbEntity
  8
0
100
AcDbPolyline
 90
        4
 70
     1
 43
0.0
 10
99.96946898122949
 20
27.04010435399218
 10
100.9694689812295
 20
27.04010435399218
 10
100.9694689812295
 20
37.04010435399218
 10
99.96946898122949
 20
37.04010435399218
  0
LWPOLYLINE
  5
1A5
330
1F
100
AcDbEntity
  8
0
100
AcDbPolyline
 90
        4
 70
     1
 43
0.0
 10
101.9694689812295
 20
27.04010435399218
 10
102.9694689812295
 20
27.04010435399218
 10
102.9694689812295
 20
37.04010435399218
 10
101.9694689812295
 20
37.04010435399218
  0
LWPOLYLINE
  5
1A6
330
1F
100
AcDbEntity
  8
0
100
AcDbPolyline
 90
        4
 70
     1
 43
0.0
 10
103.9694689812295
 20
27.04010435399218
 10
104.9694689812295
 20
27.04010435399218
 10
104.9694689812295
 20
37.04010435399218
 10
103.9694689812295
 20
37.04010435399218
  0
LWPOLYLINE
  5
1A7
330
1F
100
AcDbEntity
  8
0
100
AcDbPolyline
 90
        4
 70
     1
 43
0.0
 10
105.9694689812295
 20
27.04010435399218
 10
106.9694689812295
 20
27.04010435399218
 10
106.9694689812295
 20
37.04010435399218
 10
105.9694689812295
 20
37.04010435399218
  0
LWPOLYLINE
  5
1A8
330
1F
100
AcDbEntity
  8
0
100
AcDbPolyline
 90
        4
 70
     1
 43
0.0
 10
107.9694689812295
 20
27.04010435399218
 10
108.9694689812295
 20
27.04010435399218
 10
108.9694689812295
 20
37.04010435399218
 10
107.9694689812295
 20
37.04010435399218
  0
LWPOLYLINE
  5
1A9
330
1F
100
AcDbEntity
  8
0
100
AcDbPolyline
 90
        4
 70
     1
 43
0.0
 10
109.9694689812295
 20
27.04010435399218
 10
110.9694689812295
 20
27.04010435399218
 10
110.9694689812295
 20
37.04010435399218
 10
109.9694689812295
 20
37.04010435399218
  0
LWPOLYLINE
  5
1AA
330
1F
100
AcDbEntity
  8
0
100
AcDbPolyline
 90
        4
 70
     1
 43
0.0
 10
111.9694689812295
 20
27.04010435399218
 10
112.9694689812295
 20
27.04010435399218
 10
112.9694689812295
 20
37.04010435399218
 10
111.9694689812295
 20
37.04010435399218
  0
LWPOLYLINE
  5
1AB
330
1F
100
AcDbEntity
  8
0
100
AcDbPolyline
 90
        4
 70
     1
 43
0.0
 10
113.9694689812295
 20
27.04010435399218
 10
114.9694689812295
 20
27.04010435399218
 10
114.9694689812295
 20
37.04010435399218
 10
113.9694689812295
 20
37.04010435399218
  0
LWPOLYLINE
  5
1AC
330
1F
100
AcDbEntity
  8
0
100
AcDbPolyline
 90
        4
 70
     1
 43
0.0
 10
115.9694689812295
 20
27.04010435399218
 10
116.9694689812295
 20
27.04010435399218
 10
116.9694689812295
 20
37.04010435399218
 10
115.9694689812295
 20
37.04010435399218
  0
LWPOLYLINE
  5
1AD
330
1F
100
AcDbEntity
  8
0
100
AcDbPolyline
 90
        4
 70
     1
 43
0.0
 10
117.9694689812295
 20
27.04010435399218
 10
118.9694689812295
 20
27.04010435399218
 10
118.9694689812295
 20
37.04010435399218
 10
117.9694689812295
 20
37.04010435399218
  0
LWPOLYLINE
  5
1AE
330
1F
100
AcDbEntity
  8
0
100
AcDbPolyline
 90
        4
 70
     1
 43
0.0
 10
119.9694689812295
 20
27.04010435399218
 10
120.9694689812295
 20
27.04010435399218
 10
120.9694689812295
 20
37.04010435399218
 10
119.9694689812295
 20
37.04010435399218
  0
LWPOLYLINE
  5
1AF
330
1F
100
AcDbEntity
  8
0
100
AcDbPolyline
 90
        4
 70
     1
 43
0.0
 10
121.9694689812295
 20
27.04010435399218
 10
122.9694689812295
 20
27.04010435399218
 10
122.9694689812295
 20
37.04010435399218
 10
121.9694689812295
 20
37.04010435399218
  0
LWPOLYLINE
  5
1B0
330
1F
100
AcDbEntity
  8
0
100
AcDbPolyline
 90
        4
 70
     1
 43
0.0
 10
123.9694689812295
 20
27.04010435399218
 10
124.9694689812295
 20
27.04010435399218
 10
124.9694689812295
 20
37.04010435399218
 10
123.9694689812295
 20
37.04010435399218
  0
LWPOLYLINE
  5
1B1
330
1F
100
AcDbEntity
  8
0
100
AcDbPolyline
 90
        4
 70
     1
 43
0.0
 10
125.9694689812295
 20
27.04010435399218
 10
126.9694689812295
 20
27.04010435399218
 10
126.9694689812295
 20
37.04010435399218
 10
125.9694689812295
 20
37.04010435399218
  0
LINE
  5
1B2
330
1F
100
AcDbEntity
  8
0
100
AcDbLine
 10
71.64169040998193
 20
23.64363828893906
 30
0.0
 11
111.6416904099819
 21
23.64363828893906
 31
0.0
  0
LINE
  5
1B3
330
1F
100
AcDbEntity
  8
0
100
AcDbLine
 10
215.641690409982
 20
48.64363828893906
 30
0.0
 11
215.641690409982
 21
23.64363828893906
 31
0.0
  0
LINE
  5
1B4
330
1F
100
AcDbEntity
  8
0
100
AcDbLine
 10
156.1416904099819
 20
33.64363828893906
 30
0.0
 11
151.6416904099819
 21
33.64363828893906
 31
0.0
  0
LWPOLYLINE
  5
1B5
330
1F
100
AcDbEntity
  8
0
 62
     4
100
AcDbPolyline
 90
        4
 70
     0
 43
0.0
 10
193.6416904099819
 20
48.64363828893906
 10
173.6416904099819
 20
48.64363828893906
 10
173.6416904099819
 20
32.64363828893906
 10
193.6416904099819
 20
32.64363828893906
  0
LWPOLYLINE
  5
1B6
330
1F
100
AcDbEntity
  8
0
 62
     4
100
AcDbPolyline
 90
        2
 70
     0
 43
0.0
 10
193.6416904099819
 20
34.14363828893906
 10
193.6416904099819
 20
40.64363828893905
  0
LINE
  5
1B7
330
1F
100
AcDbEntity
  8
0
 62
     4
100
AcDbLine
 10
193.6416904099819
 20
40.64363828893905
 30
0.0
 11
173.6416904099819
 21
40.64363828893905
 31
0.0
  0
LINE
  5
1B8
330
1F
100
AcDbEntity
  8
0
 62
     4
100
AcDbLine
 10
188.6416904099819
 20
34.14363828893906
 30
0.0
 11
188.6416904099819
 21
40.64363828893905
 31
0.0
  0
LINE
  5
1B9
330
1F
100
AcDbEntity
  8
0
 62
     4
100
AcDbLine
 10
178.6416904099819
 20
34.14363828893906
 30
0.0
 11
178.6416904099819
 21
40.64363828893905
 31
0.0
  0
LINE
  5
1BA
330
1F
100
AcDbEntity
  8
0
 62
     4
100
AcDbLine
 10
193.6416904099819
 20
34.14363828893906
 30
0.0
 11
173.6416904099819
 21
34.14363828893906
 31
0.0
  0
LWPOLYLINE
  5
1BB
330
1F
100
AcDbEntity
  8
0
 62
     4
100
AcDbPolyline
 90
        4
 70
     1
 43
0.0
 10
193.2657909102029
 20
35.1217865006125
 10
189.0170647991299
 20
35.1217865006125
 10
189.0170647991299
 20
40.41633075745685
 10
193.2657909102029
 20
40.41633075745685
  0
LWPOLYLINE
  5
1BC
330
1F
100
AcDbEntity
  8
0
 62
     4
100
AcDbPolyline
 90
        4
 70
     1
 43
0.0
 10
188.2652657995718
 20
35.1217865006125
 10
184.0165396884988
 20
35.1217865006125
 10
184.0165396884988
 20
40.41633075745685
 10
188.2652657995718
 20
40.41633075745685
  0
LWPOLYLINE
  5
1BD
330
1F
100
AcDbEntity
  8
0
 62
     4
100
AcDbPolyline
 90
        4
 70
     1
 43
0.0
 10
183.2773674628679
 20
35.1217865006125
 10
179.0286413517951
 20
35.1217865006125
 10
179.0286413517951
 20
40.41633075745685
 10
183.2773674628679
 20
40.41633075745685
  0
LWPOLYLINE
  5
1BE
330
1F
100
AcDbEntity
  8
0
 62
     4
100
AcDbPolyline
 90
        4
 70
     1
 43
0.0
 10
178.2592000653208
 20
35.1217865006125
 10
174.0104739542478
 20
35.1217865006125
 10
174.0104739542478
 20
40.41633075745685
 10
178.2592000653208
 20
40.41633075745685
  0
LINE
  5
1BF
330
1F
100
AcDbEntity
  8
0
 62
     0
100
AcDbLine
 10
193.2657909102029
 20
38.62015627174978
 30
0.0
 11
189.0170647991299
 21
38.62015627174978
 31
0.0
  0
LINE
  5
1C0
330
1F
100
AcDbEntity
  8
0
 62
     0
100
AcDbLine
 10
188.2652657995718
 20
38.62015627174978
 30
0.0
 11
184.0165396884988
 21
38.62015627174978
 31
0.0
  0
LINE
  5
1C1
330
1F
100
AcDbEntity
  8
0
 62
     0
100
AcDbLine
 10
183.2773674628679
 20
38.62015627174978
 30
0.0
 11
179.0286413517951
 21
38.62015627174978
 31
0.0
  0
LINE
  5
1C2
330
1F
100
AcDbEntity
  8
0
 62
     0
100
AcDbLine
 10
178.2592000653208
 20
38.62015627174978
 30
0.0
 11
174.0104739542478
 21
38.62015627174978
 31
0.0
  0
LINE
  5
1C3
330
1F
100
AcDbEntity
  8
0
 62
     4
100
AcDbLine
 10
193.6416904099819
 20
48.14363828893906
 30
0.0
 11
173.6416904099819
 21
48.14363828893906
 31
0.0
  0
LWPOLYLINE
  5
1C4
330
1F
100
AcDbEntity
  8
0
 62
     4
100
AcDbPolyline
 90
        2
 70
     0
 43
0.0
 10
193.6416904099819
 20
40.64363828893905
 10
193.6416904099819
 20
34.14363828893906
  0
LINE
  5
1C5
330
1F
100
AcDbEntity
  8
0
370
    40
100
AcDbLine
 10
151.6416904099819
 20
48.64363828893906
 30
0.0
 11
173.6416904099819
 21
48.64363828893906
 31
0.0
  0
LINE
  5
1C6
330
1F
100
AcDbEntity
  8
0
 62
     4
370
    40
100
AcDbLine
 10
193.6416904099819
 20
48.64363828893906
 30
0.0
 11
193.6416904099819
 21
32.64363828893906
 31
0.0
  0
LINE
  5
1C7
330
1F
100
AcDbEntity
  8
0
370
    40
100
AcDbLine
 10
151.6416904099819
 20
33.64363828893906
 30
0.0
 11
173.6416904099819
 21
33.64363828893906
 31
0.0
  0
LINE
  5
1C8
330
1F
100
AcDbEntity
  8
0
370
    40
100
AcDbLine
 10
193.6416904099819
 20
33.64363828893906
 30
0.0
 11
215.641690409982
 21
33.64363828893906
 31
0.0
  0
LINE
  5
1C9
330
1F
100
AcDbEntity
  8
0
370
    40
100
AcDbLine
 10
215.641690409982
 20
48.64363828893906
 30
0.0
 11
193.6416904099819
 21
48.64363828893906
 31
0.0
  0
MTEXT
  5
1CA
330
1F
100
AcDbEntity
  8
0
100
AcDbMText
 10
188.392853452347
 20
18.16208135178212
 30
0.0
 40
2.339449541284403
 41
16.3873234010998
 71
     1
 72
     5
  1
{\fTimes New Roman|b0|i0|c0|p18;24VAC}
 11
0.0000000000000001
 21
1.0
 31
0.0
 73
     1
 44
1.0
1001
ACAD
1000
MTEXTBEGIN
1070
    73
1070
     1
1070
    44
1040
1.0
1070
    74
1070
     0
1000
MTEXTEND
  0
MTEXT
  5
1CB
330
1F
100
AcDbEntity
  8
0
100
AcDbMText
 10
183.2928534523471
 20
18.16208135178212
 30
0.0
 40
2.339449541284403
 41
16.3873234010998
 71
     1
 72
     5
  1
{\fTimes New Roman|b0|i0|c0|p18;OVAC}
 11
0.0000000000000001
 21
1.0
 31
0.0
 73
     1
 44
1.0
1001
ACAD
1000
MTEXTBEGIN
1070
    73
1070
     1
1070
    44
1040
1.0
1070
    74
1070
     0
1000
MTEXTEND
  0
MTEXT
  5
1CC
330
1F
100
AcDbEntity
  8
0
100
AcDbMText
 10
178.1928534523472
 20
18.16208135178212
 30
0.0
 40
2.339449541284403
 41
16.3873234010998
 71
     1
 72
     5
  1
{\fTimes New Roman|b0|i0|c0|p18;A +}
 11
0.0000000000000001
 21
1.0
 31
0.0
 73
     1
 44
1.0
1001
ACAD
1000
MTEXTBEGIN
1070
    73
1070
     1
1070
    44
1040
1.0
1070
    74
1070
     0
1000
MTEXTEND
  0
MTEXT
  5
1CD
330
1F
100
AcDbEntity
  8
0
100
AcDbMText
 10
173.0928534523471
 20
18.16208135178212
 30
0.0
 40
2.339449541284403
 41
16.3873234010998
 71
     1
 72
     5
  1
{\fTimes New Roman|b1|i0|c0|p18;B -}
 11
0.0000000000000001
 21
1.0
 31
0.0
 73
     1
 44
1.0
1001
ACAD
1000
MTEXTBEGIN
1070
    73
1070
     1
1070
    44
1040
1.0
1070
    74
1070
     0
1000
MTEXTEND
  0
LINE
  5
1CE
330
1F
100
AcDbEntity
  8
0
100
AcDbLine
 10
175.8414278546664
 20
18.03317968174005
 30
0.0
 11
175.8414278546664
 21
35.1217865006125
 31
0.0
  0
LINE
  5
1CF
330
1F
100
AcDbEntity
  8
0
100
AcDbLine
 10
180.9414278546663
 20
18.03317968174005
 30
0.0
 11
180.9414278546663
 21
35.1217865006125
 31
0.0
  0
LINE
  5
1D0
330
1F
100
AcDbEntity
  8
0
100
AcDbLine
 10
186.0414278546663
 20
18.03317968174005
 30
0.0
 11
186.0414278546663
 21
35.1217865006125
 31
0.0
  0
LINE
  5
1D1
330
1F
100
AcDbEntity
  8
0
100
AcDbLine
 10
191.1414278546664
 20
18.03317968174005
 30
0.0
 11
191.1414278546664
 21
35.1217865006125
 31
0.0
  0
LWPOLYLINE
  5
1D2
330
1F
100
AcDbEntity
  8
0
100
AcDbPolyline
 90
        2
 70
     0
 43
0.0
 10
255.1940225849261
 20
23.64363828893906
 10
347.1940225849261
 20
23.64363828893906
  0
LWPOLYLINE
  5
1D3
102
{ACAD_REACTORS
330
1DF
102
}
330
1F
100
AcDbEntity
  8
0
100
AcDbPolyline
 90
        4
 70
     0
 43
0.0
 10
351.1940225849261
 20
69.64363828893906
 10
351.1940225849261
 20
73.64363828893906
 10
251.1940225849261
 20
73.64363828893906
 10
251.1940225849261
 20
69.64363828893906
  0
LINE
  5
1D4
330
1F
100
AcDbEntity
  8
0
100
AcDbLine
 10
251.1940225849261
 20
69.64363828893906
 30
0.0
 11
351.1940225849261
 21
69.64363828893906
 31
0.0
  0
LINE
  5
1D5
330
1F
100
AcDbEntity
  8
0
100
AcDbLine
 10
251.1940225849261
 20
69.64363828893906
 30
0.0
 11
255.1940225849261
 21
69.64363828893906
 31
0.0
  0
LINE
  5
1D6
102
{ACAD_REACTORS
330
1DC
102
}
330
1F
100
AcDbEntity
  8
0
100
AcDbLine
 10
255.1940225849261
 20
69.64363828893906
 30
0.0
 11
255.1940225849261
 21
23.64363828893906
 31
0.0
  0
LINE
  5
1D7
102
{ACAD_REACTORS
330
1DC
102
}
330
1F
100
AcDbEntity
  8
0
100
AcDbLine
 10
347.1940225849261
 20
69.64363828893906
 30
0.0
 11
347.1940225849261
 21
23.64363828893906
 31
0.0
  0
LWPOLYLINE
  5
1D8
330
1F
100
AcDbEntity
  8
0
100
AcDbPolyline
 90
        4
 70
     1
 43
0.0
 10
290.8535391154456
 20
40.10683342384695
 10
311.5345060544066
 20
40.10683342384695
 10
311.5345060544066
 20
42.23343348997318
 10
290.8535391154456
 20
42.23343348997318
  0
DIMENSION
  5
1D9
330
1F
100
AcDbEntity
  8
0
370
    40
100
AcDbDimension
  2
*D10
 10
369.6232348710944
 20
23.64363828893904
 30
0.0
 11
358.8729848710944
 21
48.64363828893909
 31
0.0
 70
    32
  1
{\H0.7667x;\C256;50}
 71
     5
 42
50.0
  3
TRIEU
100
AcDbAlignedDimension
 13
351.1940225849261
 23
73.64363828893906
 33
0.0
 14
347.1940225849261
 24
23.64363828893906
 34
0.0
 50
90.0
100
AcDbRotatedDimension
  0
DIMENSION
  5
1DA
102
{ACAD_XDICTIONARY
360
1DB
102
}
102
{ACAD_REACTORS
330
1DC
102
}
330
1F
100
AcDbEntity
  8
0
370
    40
100
AcDbDimension
  2
*D11
 10
347.1940225849261
 20
85.19767251811035
 30
0.0
 11
301.1940225849261
 21
95.94792251811036
 31
0.0
 70
    32
  1
{\H0.7667x;\C256;92}
 71
     5
 42
92.0
  3
TRIEU
100
AcDbAlignedDimension
 13
255.1940225849261
 23
69.64363828893906
 33
0.0
 14
347.1940225849261
 24
69.64363828893906
 34
0.0
100
AcDbRotatedDimension
  0
DIMENSION
  5
1DD
102
{ACAD_XDICTIONARY
360
1DE
102
}
102
{ACAD_REACTORS
330
1DF
102
}
330
1F
100
AcDbEntity
  8
0
370
    40
100
AcDbDimension
  2
*D12
 10
351.1940225849261
 20
104.2296311744631
 30
0.0
 11
301.1940225849261
 21
114.9798811744631
 31
0.0
 70
    32
  1
{\H0.7667x;\C256;100}
 71
     5
 42
100.0
  3
TRIEU
100
AcDbAlignedDimension
 13
251.1940225849261
 23
73.64363828893906
 33
0.0
 14
351.1940225849261
 24
73.64363828893906
 34
0.0
100
AcDbRotatedDimension
  0
DIMENSION
  5
1E0
102
{ACAD_XDICTIONARY
360
1E1
102
}
102
{ACAD_REACTORS
330
1E2
102
}
330
1F
100
AcDbEntity
  8
0
370
    40
100
AcDbDimension
  2
*D13
 10
231.641690409982
 20
250.0255764467605
 30
0.0
 11
149.6416904099819
 21
260.7758264467605
 31
0.0
 70
    32
  1
{\H0.7667x;\C256;164}
 71
     5
 42
164.0
  3
TRIEU
100
AcDbAlignedDimension
 13
67.64169040998194
 23
238.0066178282424
 33
0.0
 14
231.641690409982
 24
238.0066178282424
 34
0.0
100
AcDbRotatedDimension
  0
DIMENSION
  5
1E3
102
{ACAD_XDICTIONARY
360
1E4
102
}
102
{ACAD_REACTORS
330
1E5
102
}
330
1F
100
AcDbEntity
  8
0
370
    40
100
AcDbDimension
  2
*D14
 10
54.12384266826073
 20
138.0066178282423
 30
0.0
 11
43.37359266826072
 21
188.0066178282423
 31
0.0
 70
    32
  1
{\H0.7667x;\C256;100}
 71
     5
 42
100.0
  3
TRIEU
100
AcDbAlignedDimension
 13
67.64169040998194
 23
238.0066178282424
 33
0.0
 14
67.64169040998194
 24
138.0066178282423
 34
0.0
 50
90.0
100
AcDbRotatedDimension
  0
DIMENSION
  5
1E6
102
{ACAD_XDICTIONARY
360
1E7
102
}
102
{ACAD_REACTORS
330
1E8
102
}
330
1F
100
AcDbEntity
  8
0
370
    40
100
AcDbDimension
  2
*D15
 10
227.641690409982
 20
83.70423176600738
 30
0.0
 11
149.6416904099819
 21
94.45448176600738
 31
0.0
 70
    32
  1
{\H0.7667x;\C256;156}
 71
     5
 42
156.0
  3
TRIEU
100
AcDbAlignedDimension
 13
71.64169040998193
 23
69.64363828893906
 33
0.0
 14
227.641690409982
 24
69.64363828893906
 34
0.0
100
AcDbRotatedDimension
  0
DIMENSION
  5
1E9
102
{ACAD_XDICTIONARY
360
1EA
102
}
102
{ACAD_REACTORS
330
1EB
102
}
330
1F
100
AcDbEntity
  8
0
370
    40
100
AcDbDimension
  2
*D16
 10
231.641690409982
 20
103.3684580233542
 30
0.0
 11
149.6416904099819
 21
114.1187080233542
 31
0.0
 70
    32
  1
{\H0.7667x;\C256;164}
 71
     5
 42
164.0
  3
TRIEU
100
AcDbAlignedDimension
 13
67.64169040998194
 23
73.64363828893906
 33
0.0
 14
231.641690409982
 24
73.64363828893906
 34
0.0
100
AcDbRotatedDimension
  0
ENDSEC
  0
SECTION
  2
OBJECTS
  0
DICTIONARY
  5
C
330
0
100
AcDbDictionary
281
     1
  3
ACAD_COLOR
350
73
  3
ACAD_GROUP
350
D
  3
ACAD_LAYOUT
350
1A
  3
ACAD_MATERIAL
350
72
  3
ACAD_MLINESTYLE
350
17
  3
ACAD_PLOTSETTINGS
350
19
  3
ACAD_PLOTSTYLENAME
350
E
  3
ACAD_TABLESTYLE
350
86
  3
ACAD_VISUALSTYLE
350
99
  3
AcDbVariableDictionary
350
66
  3
DWGPROPS
350
24B
  0
DICTIONARY
  5
116
330
2
100
AcDbDictionary
280
     1
281
     1
  3
ACAD_LAYERSTATES
360
117
  0
DICTIONARY
  5
1DB
330
1DA
100
AcDbDictionary
280
     1
281
     1
  3
ACAD_DIMASSOC
360
1DC
  0
DICTIONARY
  5
1DE
330
1DD
100
AcDbDictionary
280
     1
281
     1
  3
ACAD_DIMASSOC
360
1DF
  0
DICTIONARY
  5
1E1
330
1E0
100
AcDbDictionary
280
     1
281
     1
  3
ACAD_DIMASSOC
360
1E2
  0
DICTIONARY
  5
1E4
330
1E3
100
AcDbDictionary
280
     1
281
     1
  3
ACAD_DIMASSOC
360
1E5
  0
DICTIONARY
  5
1E7
330
1E6
100
AcDbDictionary
280
     1
281
     1
  3
ACAD_DIMASSOC
360
1E8
  0
DICTIONARY
  5
1EA
330
1E9
100
AcDbDictionary
280
     1
281
     1
  3
ACAD_DIMASSOC
360
1EB
  0
DICTIONARY
  5
73
102
{ACAD_REACTORS
330
C
102
}
330
C
100
AcDbDictionary
281
     1
  0
DICTIONARY
  5
D
102
{ACAD_REACTORS
330
C
102
}
330
C
100
AcDbDictionary
281
     1
  0
DICTIONARY
  5
1A
102
{ACAD_REACTORS
330
C
102
}
330
C
100
AcDbDictionary
281
     1
  3
Layout1
350
59
  3
Layout2
350
5E
  3
Model
350
22
  0
DICTIONARY
  5
72
102
{ACAD_REACTORS
330
C
102
}
330
C
100
AcDbDictionary
281
     1
  3
ByBlock
350
97
  3
ByLayer
350
96
  3
Global
350
98
  0
DICTIONARY
  5
17
102
{ACAD_REACTORS
330
C
102
}
330
C
100
AcDbDictionary
281
     1
  3
Standard
350
18
  0
DICTIONARY
  5
19
102
{ACAD_REACTORS
330
C
102
}
330
C
100
AcDbDictionary
281
     1
  0
ACDBDICTIONARYWDFLT
  5
E
102
{ACAD_REACTORS
330
C
102
}
330
C
100
AcDbDictionary
281
     1
  3
Normal
350
F
100
AcDbDictionaryWithDefault
340
F
  0
DICTIONARY
  5
86
102
{ACAD_REACTORS
330
C
102
}
330
C
100
AcDbDictionary
281
     1
  3
Standard
350
87
  0
DICTIONARY
  5
99
102
{ACAD_REACTORS
330
C
102
}
330
C
100
AcDbDictionary
281
     1
  3
2dWireframe
350
9F
  3
3D Hidden
350
A1
  3
3dWireframe
350
A0
  3
Basic
350
9E
  3
Brighten
350
A5
  3
ColorChange
350
A9
  3
Conceptual
350
A2
  3
Dim
350
A4
  3
Facepattern
350
A8
  3
Flat
350
9A
  3
FlatWithEdges
350
9B
  3
Gouraud
350
9C
  3
GouraudWithEdges
350
9D
  3
Linepattern
350
A7
  3
Realistic
350
A3
  3
Thicken
350
A6
  0
DICTIONARY
  5
66
102
{ACAD_REACTORS
330
C
102
}
330
C
100
AcDbDictionary
281
     1
  3
CTABLESTYLE
350
89
  3
DIMASSOC
350
67
  3
HIDETEXT
350
6B
  3
INDEXCTL
350
24A
  3
SORTENTS
350
249
  0
XRECORD
  5
24B
102
{ACAD_REACTORS
330
C
102
}
330
C
100
AcDbXrecord
280
     1
  1
DWGPROPS COOKIE
  2

  3

  4

  6

  7

  8
Administrator
  9

300
=
301
=
302
=
303
=
304
=
305
=
306
=
307
=
308
=
309
=
 40
0.0006253587962963
 41
2458472.373715382
 42
2458472.374333125
  1

 90
        0
  0
DICTIONARY
  5
117
102
{ACAD_REACTORS
330
116
102
}
330
116
100
AcDbDictionary
281
     1
  0
DIMASSOC
  5
1DC
102
{ACAD_REACTORS
330
1DB
102
}
330
1DB
100
AcDbDimAssoc
330
1DA
 90
        3
 70
     0
 71
     0
  1
AcDbOsnapPointRef
 72
    13
331
1D6
 73
     2
 91
        0
 40
0.0
 10
0.0
 20
0.0
 30
2.000000000000000E+50
 75
     0
  1
AcDbOsnapPointRef
 72
    13
331
1D7
 73
     2
 91
        0
 40
0.0
 10
0.0
 20
0.0
 30
2.000000000000000E+50
 75
     0
  0
DIMASSOC
  5
1DF
102
{ACAD_REACTORS
330
1DE
102
}
330
1DE
100
AcDbDimAssoc
330
1DD
 90
        1
 70
     0
 71
     0
  1
AcDbOsnapPointRef
 72
     1
331
1D3
 73
     2
 91
        2
 40
1.0
 10
0.0
 20
0.0
 30
2.000000000000000E+50
 75
     0
  0
DIMASSOC
  5
1E2
102
{ACAD_REACTORS
330
1E1
102
}
330
1E1
100
AcDbDimAssoc
330
1E0
 90
        3
 70
     0
 71
     0
  1
AcDbOsnapPointRef
 72
    13
331
187
 73
     2
 91
        1
 40
0.0
 10
0.0
 20
0.0
 30
2.000000000000000E+50
 75
     0
  1
AcDbOsnapPointRef
 72
     1
331
187
 73
     2
 91
        1
 40
1.0
 10
0.0
 20
0.0
 30
2.000000000000000E+50
 75
     0
  0
DIMASSOC
  5
1E5
102
{ACAD_REACTORS
330
1E4
102
}
330
1E4
100
AcDbDimAssoc
330
1E3
 90
        2
 70
     0
 71
     0
  1
AcDbOsnapPointRef
 72
     1
331
187
 73
     2
 91
        3
 40
1.0
 10
0.0
 20
0.0
 30
2.000000000000000E+50
 75
     0
  0
DIMASSOC
  5
1E8
102
{ACAD_REACTORS
330
1E7
102
}
330
1E7
100
AcDbDimAssoc
330
1E6
 90
        3
 70
     0
 71
     0
  1
AcDbOsnapPointRef
 72
    13
331
19E
 73
     2
 91
        0
 40
0.0
 10
0.0
 20
0.0
 30
2.000000000000000E+50
 75
     0
  1
AcDbOsnapPointRef
 72
    13
331
19F
 73
     2
 91
        0
 40
0.0
 10
0.0
 20
0.0
 30
2.000000000000000E+50
 75
     0
  0
DIMASSOC
  5
1EB
102
{ACAD_REACTORS
330
1EA
102
}
330
1EA
100
AcDbDimAssoc
330
1E9
 90
        3
 70
     0
 71
     0
  1
AcDbOsnapPointRef
 72
     1
331
19D
 73
     2
 91
        0
 40
1.0
 10
0.0
 20
0.0
 30
2.000000000000000E+50
 75
     0
  1
AcDbOsnapPointRef
 72
    13
331
19D
 73
     2
 91
        0
 40
0.0
 10
0.0
 20
0.0
 30
2.000000000000000E+50
 75
     0
  0
LAYOUT
  5
59
102
{ACAD_XDICTIONARY
360
24E
102
}
102
{ACAD_REACTORS
330
1A
102
}
330
1A
100
AcDbPlotSettings
  1

  2
None
  4

  6

 40
0.0
 41
0.0
 42
0.0
 43
0.0
 44
0.0
 45
0.0
 46
0.0
 47
0.0
 48
0.0
 49
0.0
140
0.0
141
0.0
142
1.0
143
1.0
 70
   688
 72
     0
 73
     0
 74
     5
  7

 75
    16
147
1.0
148
0.0
149
0.0
100
AcDbLayout
  1
Layout1
 70
     1
 71
     1
 10
0.0
 20
0.0
 11
12.0
 21
9.0
 12
0.0
 22
0.0
 32
0.0
 14
0.0
 24
0.0
 34
0.0
 15
0.0
 25
0.0
 35
0.0
146
0.0
 13
0.0
 23
0.0
 33
0.0
 16
1.0
 26
0.0
 36
0.0
 17
0.0
 27
1.0
 37
0.0
 76
     0
330
58
  0
LAYOUT
  5
5E
102
{ACAD_XDICTIONARY
360
250
102
}
102
{ACAD_REACTORS
330
1A
102
}
330
1A
100
AcDbPlotSettings
  1

  2
None
  4

  6

 40
0.0
 41
0.0
 42
0.0
 43
0.0
 44
0.0
 45
0.0
 46
0.0
 47
0.0
 48
0.0
 49
0.0
140
0.0
141
0.0
142
1.0
143
1.0
 70
   688
 72
     0
 73
     0
 74
     5
  7

 75
    16
147
1.0
148
0.0
149
0.0
100
AcDbLayout
  1
Layout2
 70
     1
 71
     2
 10
0.0
 20
0.0
 11
12.0
 21
9.0
 12
0.0
 22
0.0
 32
0.0
 14
0.0
 24
0.0
 34
0.0
 15
0.0
 25
0.0
 35
0.0
146
0.0
 13
0.0
 23
0.0
 33
0.0
 16
1.0
 26
0.0
 36
0.0
 17
0.0
 27
1.0
 37
0.0
 76
     0
330
5D
  0
LAYOUT
  5
22
102
{ACAD_XDICTIONARY
360
24C
102
}
102
{ACAD_REACTORS
330
1A
102
}
330
1A
100
AcDbPlotSettings
  1

  2
none_device
  4
ANSI_A_(8.50_x_11.00_Inches)
  6

 40
6.349999904632568
 41
19.04999923706055
 42
6.350006103515625
 43
19.04998779296875
 44
215.8999938964844
 45
279.3999938964844
 46
0.0
 47
0.0
 48
0.0
 49
0.0
140
0.0
141
0.0
142
1.0
143
2.584895464708373
 70
 11952
 72
     0
 73
     1
 74
     0
  7

 75
     0
147
0.3868628397755418
148
0.0
149
0.0
100
AcDbLayout
  1
Model
 70
     1
 71
     0
 10
0.0
 20
0.0
 11
12.0
 21
9.0
 12
0.0
 22
0.0
 32
0.0
 14
0.0
 24
0.0
 34
0.0
 15
0.0
 25
0.0
 35
0.0
146
0.0
 13
0.0
 23
0.0
 33
0.0
 16
1.0
 26
0.0
 36
0.0
 17
0.0
 27
1.0
 37
0.0
 76
     0
330
1F
331
94
  0
MATERIAL
  5
97
102
{ACAD_XDICTIONARY
360
256
102
}
102
{ACAD_REACTORS
330
72
102
}
330
72
100
AcDbMaterial
  1
ByBlock
  0
MATERIAL
  5
96
102
{ACAD_XDICTIONARY
360
254
102
}
102
{ACAD_REACTORS
330
72
102
}
330
72
100
AcDbMaterial
  1
ByLayer
  0
MATERIAL
  5
98
102
{ACAD_XDICTIONARY
360
258
102
}
102
{ACAD_REACTORS
330
72
102
}
330
72
100
AcDbMaterial
  1
Global
  0
MLINESTYLE
  5
18
102
{ACAD_REACTORS
330
17
102
}
330
17
100
AcDbMlineStyle
  2
STANDARD
 70
     0
  3

 62
   256
 51
90.0
 52
90.0
 71
     2
 49
0.5
 62
   256
  6
BYLAYER
 49
-0.5
 62
   256
  6
BYLAYER
  0
ACDBPLACEHOLDER
  5
F
102
{ACAD_REACTORS
330
E
102
}
330
E
  0
TABLESTYLE
  5
87
102
{ACAD_XDICTIONARY
360
252
102
}
102
{ACAD_REACTORS
330
86
102
}
330
86
100
AcDbTableStyle
  3
Standard
 70
     0
 71
     0
 40
0.06
 41
0.06
280
     0
281
     0
  7
Standard
140
0.18
170
     2
 62
     0
 63
     7
283
     0
274
    -2
284
     1
 64
     0
275
    -2
285
     1
 65
     0
276
    -2
286
     1
 66
     0
277
    -2
287
     1
 67
     0
278
    -2
288
     1
 68
     0
279
    -2
289
     1
 69
     0
  7
Standard
140
0.25
170
     5
 62
     0
 63
     7
283
     0
274
    -2
284
     1
 64
     0
275
    -2
285
     1
 65
     0
276
    -2
286
     1
 66
     0
277
    -2
287
     1
 67
     0
278
    -2
288
     1
 68
     0
279
    -2
289
     1
 69
     0
  7
Standard
140
0.18
170
     5
 62
     0
 63
     7
283
     0
274
    -2
284
     1
 64
     0
275
    -2
285
     1
 65
     0
276
    -2
286
     1
 66
     0
277
    -2
287
     1
 67
     0
278
    -2
288
     1
 68
     0
279
    -2
289
     1
 69
     0
  0
VISUALSTYLE
  5
9F
102
{ACAD_REACTORS
330
99
102
}
330
99
100
AcDbVisualStyle
  2
2dWireframe
 70
     4
 71
     0
 72
     2
 73
     1
 90
        0
 40
-0.6
 41
-30.0
 62
     5
 63
     7
 74
     1
 91
        4
 64
     7
 65
   257
 75
     1
175
     1
 42
1.0
 92
        0
 66
   257
 43
1.0
 76
     1
 77
     6
 78
     2
 67
     7
 79
     5
170
     0
171
     0
290
     0
174
     0
 93
        1
 44
0.0
173
     0
291
     0
 45
0.0
1001
ACAD
1000
AcDbSavedByObjectVersion
1070
     0
  0
VISUALSTYLE
  5
A1
102
{ACAD_REACTORS
330
99
102
}
330
99
100
AcDbVisualStyle
  2
3D Hidden
 70
     6
 71
     1
 72
     2
 73
     2
 90
        0
 40
-0.6
 41
-30.0
 62
     5
 63
     7
 74
     2
 91
        2
 64
     7
 65
   257
 75
     2
175
     1
 42
40.0
 92
        0
 66
   257
 43
1.0
 76
     1
 77
     6
 78
     2
 67
     7
 79
     3
170
     0
171
     0
290
     0
174
     0
 93
        1
 44
0.0
173
     0
291
     0
 45
0.0
1001
ACAD
1000
AcDbSavedByObjectVersion
1070
     0
  0
VISUALSTYLE
  5
A0
102
{ACAD_REACTORS
330
99
102
}
330
99
100
AcDbVisualStyle
  2
3dWireframe
 70
     5
 71
     0
 72
     2
 73
     1
 90
        0
 40
-0.6
 41
-30.0
 62
     5
 63
     7
 74
     1
 91
        4
 64
     7
 65
   257
 75
     1
175
     1
 42
1.0
 92
        0
 66
   257
 43
1.0
 76
     1
 77
     6
 78
     2
 67
     7
 79
     5
170
     0
171
     0
290
     0
174
     0
 93
        1
 44
0.0
173
     0
291
     0
 45
0.0
1001
ACAD
1000
AcDbSavedByObjectVersion
1070
     0
  0
VISUALSTYLE
  5
9E
102
{ACAD_REACTORS
330
99
102
}
330
99
100
AcDbVisualStyle
  2
Basic
 70
     7
 71
     1
 72
     0
 73
     1
 90
        0
 40
-0.6
 41
-30.0
 62
     5
 63
     7
 74
     0
 91
        4
 64
     7
 65
   257
 75
     1
175
     1
 42
1.0
 92
        8
 66
     7
 43
1.0
 76
     1
 77
     6
 78
     2
 67
     7
 79
     5
170
     0
171
     0
290
     0
174
     0
 93
        1
 44
0.0
173
     0
291
     1
 45
0.0
1001
ACAD
1000
AcDbSavedByObjectVersion
1070
     0
  0
VISUALSTYLE
  5
A5
102
{ACAD_REACTORS
330
99
102
}
330
99
100
AcDbVisualStyle
  2
Brighten
 70
    12
 71
     2
 72
     2
 73
     1
 90
        0
 40
-0.6
 41
-30.0
 62
     5
 63
     7
 74
     1
 91
        4
 64
     7
 65
   257
 75
     1
175
     1
 42
1.0
 92
        8
 66
     7
 43
1.0
 76
     1
 77
     6
 78
     2
 67
     7
 79
     5
170
     0
171
     0
290
     0
174
     0
 93
        1
 44
50.0
173
     0
291
     1
 45
0.0
1001
ACAD
1000
AcDbSavedByObjectVersion
1070
     0
  0
VISUALSTYLE
  5
A9
102
{ACAD_REACTORS
330
99
102
}
330
99
100
AcDbVisualStyle
  2
ColorChange
 70
    16
 71
     2
 72
     2
 73
     3
 90
        0
 40
-0.6
 41
-30.0
 62
     5
 63
     8
 74
     1
 91
        4
 64
     7
 65
   257
 75
     1
175
     1
 42
1.0
 92
        8
 66
     8
 43
1.0
 76
     1
 77
     6
 78
     2
 67
     7
 79
     5
170
     0
171
     0
290
     0
174
     0
 93
        1
 44
0.0
173
     0
291
     1
 45
0.0
1001
ACAD
1000
AcDbSavedByObjectVersion
1070
     0
  0
VISUALSTYLE
  5
A2
102
{ACAD_REACTORS
330
99
102
}
330
99
100
AcDbVisualStyle
  2
Conceptual
 70
     9
 71
     3
 72
     2
 73
     1
 90
        0
 40
-0.6
 41
-30.0
 62
     5
 63
     7
 74
     2
 91
        2
 64
     7
 65
   257
 75
     1
175
     1
 42
40.0
 92
        8
 66
     7
 43
1.0
 76
     1
 77
     6
 78
     2
 67
     7
 79
     3
170
     0
171
     0
290
     0
174
     0
 93
        1
 44
0.0
173
     0
291
     0
 45
0.0
1001
ACAD
1000
AcDbSavedByObjectVersion
1070
     0
  0
VISUALSTYLE
  5
A4
102
{ACAD_REACTORS
330
99
102
}
330
99
100
AcDbVisualStyle
  2
Dim
 70
    11
 71
     2
 72
     2
 73
     1
 90
        0
 40
-0.6
 41
-30.0
 62
     5
 63
     7
 74
     1
 91
        4
 64
     7
 65
   257
 75
     1
175
     1
 42
1.0
 92
        8
 66
     7
 43
1.0
 76
     1
 77
     6
 78
     2
 67
     7
 79
     5
170
     0
171
     0
290
     0
174
     0
 93
        1
 44
-50.0
173
     0
291
     1
 45
0.0
1001
ACAD
1000
AcDbSavedByObjectVersion
1070
     0
  0
VISUALSTYLE
  5
A8
102
{ACAD_REACTORS
330
99
102
}
330
99
100
AcDbVisualStyle
  2
Facepattern
 70
    15
 71
     2
 72
     2
 73
     1
 90
        0
 40
-0.6
 41
-30.0
 62
     5
 63
     7
 74
     1
 91
        4
 64
     7
 65
   257
 75
     1
175
     1
 42
1.0
 92
        8
 66
     7
 43
1.0
 76
     1
 77
     6
 78
     2
 67
     7
 79
     5
170
     0
171
     0
290
     0
174
     0
 93
        1
 44
0.0
173
     0
291
     1
 45
0.0
1001
ACAD
1000
AcDbSavedByObjectVersion
1070
     0
  0
VISUALSTYLE
  5
9A
102
{ACAD_REACTORS
330
99
102
}
330
99
100
AcDbVisualStyle
  2
Flat
 70
     0
 71
     2
 72
     1
 73
     1
 90
        2
 40
-0.6
 41
30.0
 62
     5
 63
     7
 74
     0
 91
        4
 64
     7
 65
   257
 75
     1
175
     1
 42
1.0
 92
        8
 66
     7
 43
1.0
 76
     1
 77
     6
 78
     2
 67
     7
 79
     5
170
     0
171
     0
290
     0
174
     0
 93
        1
 44
0.0
173
     0
291
     1
 45
0.0
1001
ACAD
1000
AcDbSavedByObjectVersion
1070
     0
  0
VISUALSTYLE
  5
9B
102
{ACAD_REACTORS
330
99
102
}
330
99
100
AcDbVisualStyle
  2
FlatWithEdges
 70
     1
 71
     2
 72
     1
 73
     1
 90
        2
 40
-0.6
 41
30.0
 62
     5
 63
     7
 74
     1
 91
        4
 64
     7
 65
   257
 75
     1
175
     1
 42
1.0
 92
        0
 66
   257
 43
1.0
 76
     1
 77
     6
 78
     2
 67
     7
 79
     5
170
     0
171
     0
290
     0
174
     0
 93
        1
 44
0.0
173
     0
291
     1
 45
0.0
1001
ACAD
1000
AcDbSavedByObjectVersion
1070
     0
  0
VISUALSTYLE
  5
9C
102
{ACAD_REACTORS
330
99
102
}
330
99
100
AcDbVisualStyle
  2
Gouraud
 70
     2
 71
     2
 72
     2
 73
     1
 90
        2
 40
-0.6
 41
30.0
 62
     5
 63
     7
 74
     0
 91
        4
 64
     7
 65
   257
 75
     1
175
     1
 42
1.0
 92
        0
 66
     7
 43
1.0
 76
     1
 77
     6
 78
     2
 67
     7
 79
     5
170
     0
171
     0
290
     0
174
     0
 93
        1
 44
0.0
173
     0
291
     1
 45
0.0
1001
ACAD
1000
AcDbSavedByObjectVersion
1070
     0
  0
VISUALSTYLE
  5
9D
102
{ACAD_REACTORS
330
99
102
}
330
99
100
AcDbVisualStyle
  2
GouraudWithEdges
 70
     3
 71
     2
 72
     2
 73
     1
 90
        2
 40
-0.6
 41
30.0
 62
     5
 63
     7
 74
     1
 91
        4
 64
     7
 65
   257
 75
     1
175
     1
 42
1.0
 92
        0
 66
   257
 43
1.0
 76
     1
 77
     6
 78
     2
 67
     7
 79
     5
170
     0
171
     0
290
     0
174
     0
 93
        1
 44
0.0
173
     0
291
     1
 45
0.0
1001
ACAD
1000
AcDbSavedByObjectVersion
1070
     0
  0
VISUALSTYLE
  5
A7
102
{ACAD_REACTORS
330
99
102
}
330
99
100
AcDbVisualStyle
  2
Linepattern
 70
    14
 71
     2
 72
     2
 73
     1
 90
        0
 40
-0.6
 41
-30.0
 62
     5
 63
     7
 74
     1
 91
        4
 64
     7
 65
   257
 75
     7
175
     7
 42
1.0
 92
        8
 66
     7
 43
1.0
 76
     1
 77
     6
 78
     2
 67
     7
 79
     5
170
     0
171
     0
290
     0
174
     0
 93
        1
 44
0.0
173
     0
291
     1
 45
0.0
1001
ACAD
1000
AcDbSavedByObjectVersion
1070
     0
  0
VISUALSTYLE
  5
A3
102
{ACAD_REACTORS
330
99
102
}
330
99
100
AcDbVisualStyle
  2
Realistic
 70
     8
 71
     2
 72
     2
 73
     1
 90
        0
 40
-0.6
 41
-30.0
 62
     5
 63
     7
 74
     1
 91
        0
 64
     7
 65
   257
 75
     1
175
     1
 42
1.0
 92
        8
 66
     8
 43
1.0
 76
     1
 77
     6
 78
     2
 67
     7
 79
     5
170
     0
171
     0
290
     0
174
     0
 93
       13
 44
0.0
173
     0
291
     0
 45
0.0
1001
ACAD
1000
AcDbSavedByObjectVersion
1070
     0
  0
VISUALSTYLE
  5
A6
102
{ACAD_REACTORS
330
99
102
}
330
99
100
AcDbVisualStyle
  2
Thicken
 70
    13
 71
     2
 72
     2
 73
     1
 90
        0
 40
-0.6
 41
-30.0
 62
     5
 63
     7
 74
     1
 91
        4
 64
     7
 65
   257
 75
     1
175
     1
 42
1.0
 92
       12
 66
     7
 43
1.0
 76
     1
 77
     6
 78
     2
 67
     7
 79
     5
170
     0
171
     0
290
     0
174
     0
 93
        1
 44
0.0
173
     0
291
     1
 45
0.0
1001
ACAD
1000
AcDbSavedByObjectVersion
1070
     0
  0
DICTIONARYVAR
  5
89
102
{ACAD_REACTORS
330
66
102
}
330
66
100
DictionaryVariables
280
     0
  1
STANDARD
  0
DICTIONARYVAR
  5
67
102
{ACAD_REACTORS
330
66
102
}
330
66
100
DictionaryVariables
280
     0
  1
2
  0
DICTIONARYVAR
  5
6B
102
{ACAD_REACTORS
330
66
102
}
330
66
100
DictionaryVariables
280
     0
  1
1
  0
DICTIONARYVAR
  5
24A
102
{ACAD_REACTORS
330
66
102
}
330
66
100
DictionaryVariables
280
     0
  1
0
  0
DICTIONARYVAR
  5
249
102
{ACAD_REACTORS
330
66
102
}
330
66
100
DictionaryVariables
280
     0
  1
127
  0
DICTIONARY
  5
24E
330
59
100
AcDbDictionary
280
     1
281
     1
  3
ACAD_XREC_ROUNDTRIP
360
24F
  0
DICTIONARY
  5
250
330
5E
100
AcDbDictionary
280
     1
281
     1
  3
ACAD_XREC_ROUNDTRIP
360
251
  0
DICTIONARY
  5
24C
330
22
100
AcDbDictionary
280
     1
281
     1
  3
ACAD_XREC_ROUNDTRIP
360
24D
  0
DICTIONARY
  5
256
330
97
100
AcDbDictionary
280
     1
281
     1
  3
ACAD_XREC_ROUNDTRIP
360
257
  0
DICTIONARY
  5
254
330
96
100
AcDbDictionary
280
     1
281
     1
  3
ACAD_XREC_ROUNDTRIP
360
255
  0
DICTIONARY
  5
258
330
98
100
AcDbDictionary
280
     1
281
     1
  3
ACAD_XREC_ROUNDTRIP
360
259
  0
DICTIONARY
  5
252
330
87
100
AcDbDictionary
280
     1
281
     1
  3
ACAD_XREC_ROUNDTRIP
360
253
  0
XRECORD
  5
24F
102
{ACAD_REACTORS
330
24E
102
}
330
24E
100
AcDbXrecord
280
     1
102
SHADEPLOT
 70
     0
102
SHADEPLOTRESLEVEL
 70
     2
102
SHADEPLOTCUSTOMDPI
 70
   300
  0
XRECORD
  5
251
102
{ACAD_REACTORS
330
250
102
}
330
250
100
AcDbXrecord
280
     1
102
SHADEPLOT
 70
     0
102
SHADEPLOTRESLEVEL
 70
     2
102
SHADEPLOTCUSTOMDPI
 70
   300
  0
XRECORD
  5
24D
102
{ACAD_REACTORS
330
24C
102
}
330
24C
100
AcDbXrecord
280
     1
102
SHADEPLOT
 70
     0
102
SHADEPLOTRESLEVEL
 70
     2
102
SHADEPLOTCUSTOMDPI
 70
   300
  0
XRECORD
  5
257
102
{ACAD_REACTORS
330
256
102
}
330
256
100
AcDbXrecord
280
     1
102
MATERIAL
148
0.0
149
0.0
149
0.0
 93
        0
 94
       63
282
     0
 72
     1
 77
     1
171
     1
175
     1
179
     1
273
     0
  0
XRECORD
  5
255
102
{ACAD_REACTORS
330
254
102
}
330
254
100
AcDbXrecord
280
     1
102
MATERIAL
148
0.0
149
0.0
149
0.0
 93
        0
 94
       63
282
     0
 72
     1
 77
     1
171
     1
175
     1
179
     1
273
     0
  0
XRECORD
  5
259
102
{ACAD_REACTORS
330
258
102
}
330
258
100
AcDbXrecord
280
     1
102
MATERIAL
148
0.0
149
0.0
149
0.0
 93
        0
 94
       63
282
     0
 72
     1
 77
     1
171
     1
175
     1
179
     1
273
     0
  0
XRECORD
  5
253
102
{ACAD_REACTORS
330
252
102
}
330
252
100
AcDbXrecord
280
     1
102
ACAD_ROUNDTRIP_PRE2007_TABLESTYLE
 90
      512
 91
        0
  1

 92
      512
 93
        0
  2

 94
      512
 95
        0
  3

  0
ENDSEC
  0
EOF
