  0
SECTION
  2
HEADER
  9
$ACADVER
  1
AC1015
  9
$ACADMAINTVER
 70
    20
  9
$DWGCODEPAGE
  3
ANSI_1252
  9
$INSBASE
 10
0.0
 20
0.0
 30
0.0
  9
$EXTMIN
 10
40.68982158036467
 20
12.13719052126567
 30
0.0
  9
$EXTMAX
 10
374.8629921786104
 20
269.9244724585737
 30
0.0
  9
$LIMMIN
 10
0.0
 20
0.0
  9
$LIMMAX
 10
12.0
 20
9.0
  9
$ORTHOMODE
 70
     0
  9
$REGENMODE
 70
     1
  9
$FILLMODE
 70
     1
  9
$QTEXTMODE
 70
     0
  9
$MIRRTEXT
 70
     0
  9
$LTSCALE
 40
1.0
  9
$ATTMODE
 70
     1
  9
$TEXTSIZE
 40
0.2
  9
$TRACEWID
 40
0.05
  9
$TEXTSTYLE
  7
Standard
  9
$CLAYER
  8
0
  9
$CELTYPE
  6
ByLayer
  9
$CECOLOR
 62
   256
  9
$CELTSCALE
 40
1.0
  9
$DISPSILH
 70
     0
  9
$DIMSCALE
 40
1.0
  9
$DIMASZ
 40
0.18
  9
$DIMEXO
 40
0.0625
  9
$DIMDLI
 40
0.38
  9
$DIMRND
 40
0.0
  9
$DIMDLE
 40
0.0
  9
$DIMEXE
 40
0.18
  9
$DIMTP
 40
0.0
  9
$DIMTM
 40
0.0
  9
$DIMTXT
 40
0.18
  9
$DIMCEN
 40
0.09
  9
$DIMTSZ
 40
0.0
  9
$DIMTOL
 70
     0
  9
$DIMLIM
 70
     0
  9
$DIMTIH
 70
     1
  9
$DIMTOH
 70
     1
  9
$DIMSE1
 70
     0
  9
$DIMSE2
 70
     0
  9
$DIMTAD
 70
     0
  9
$DIMZIN
 70
     0
  9
$DIMBLK
  1

  9
$DIMASO
 70
     1
  9
$DIMSHO
 70
     1
  9
$DIMPOST
  1

  9
$DIMAPOST
  1

  9
$DIMALT
 70
     0
  9
$DIMALTD
 70
     2
  9
$DIMALTF
 40
25.4
  9
$DIMLFAC
 40
1.0
  9
$DIMTOFL
 70
     0
  9
$DIMTVP
 40
0.0
  9
$DIMTIX
 70
     0
  9
$DIMSOXD
 70
     0
  9
$DIMSAH
 70
     0
  9
$DIMBLK1
  1

  9
$DIMBLK2
  1

  9
$DIMSTYLE
  2
Standard
  9
$DIMCLRD
 70
     0
  9
$DIMCLRE
 70
     0
  9
$DIMCLRT
 70
     0
  9
$DIMTFAC
 40
1.0
  9
$DIMGAP
 40
0.09
  9
$DIMJUST
 70
     0
  9
$DIMSD1
 70
     0
  9
$DIMSD2
 70
     0
  9
$DIMTOLJ
 70
     1
  9
$DIMTZIN
 70
     0
  9
$DIMALTZ
 70
     0
  9
$DIMALTTZ
 70
     0
  9
$DIMUPT
 70
     0
  9
$DIMDEC
 70
     4
  9
$DIMTDEC
 70
     4
  9
$DIMALTU
 70
     2
  9
$DIMALTTD
 70
     2
  9
$DIMTXSTY
  7
Standard
  9
$DIMAUNIT
 70
     0
  9
$DIMADEC
 70
     0
  9
$DIMALTRND
 40
0.0
  9
$DIMAZIN
 70
     0
  9
$DIMDSEP
 70
    46
  9
$DIMATFIT
 70
     3
  9
$DIMFRAC
 70
     0
  9
$DIMLDRBLK
  1

  9
$DIMLUNIT
 70
     2
  9
$DIMLWD
 70
    -2
  9
$DIMLWE
 70
    -2
  9
$DIMTMOVE
 70
     0
  9
$LUNITS
 70
     2
  9
$LUPREC
 70
     4
  9
$SKETCHINC
 40
0.1
  9
$FILLETRAD
 40
0.0
  9
$AUNITS
 70
     0
  9
$AUPREC
 70
     0
  9
$MENU
  1
.
  9
$ELEVATION
 40
0.0
  9
$PELEVATION
 40
0.0
  9
$THICKNESS
 40
0.0
  9
$LIMCHECK
 70
     0
  9
$CHAMFERA
 40
0.0
  9
$CHAMFERB
 40
0.0
  9
$CHAMFERC
 40
0.0
  9
$CHAMFERD
 40
0.0
  9
$SKPOLY
 70
     0
  9
$TDCREATE
 40
2458472.385606053
  9
$TDUCREATE
 40
2458472.093939387
  9
$TDUPDATE
 40
2458472.386087084
  9
$TDUUPDATE
 40
2458472.094420417
  9
$TDINDWG
 40
0.0004854167
  9
$TDUSRTIMER
 40
0.0004853472
  9
$USRTIMER
 70
     1
  9
$ANGBASE
 50
0.0
  9
$ANGDIR
 70
     0
  9
$PDMODE
 70
     0
  9
$PDSIZE
 40
0.0
  9
$PLINEWID
 40
0.0
  9
$SPLFRAME
 70
     0
  9
$SPLINETYPE
 70
     6
  9
$SPLINESEGS
 70
     8
  9
$HANDSEED
  5
5AC
  9
$SURFTAB1
 70
     6
  9
$SURFTAB2
 70
     6
  9
$SURFTYPE
 70
     6
  9
$SURFU
 70
     6
  9
$SURFV
 70
     6
  9
$UCSBASE
  2

  9
$UCSNAME
  2

  9
$UCSORG
 10
0.0
 20
0.0
 30
0.0
  9
$UCSXDIR
 10
1.0
 20
0.0
 30
0.0
  9
$UCSYDIR
 10
0.0
 20
1.0
 30
0.0
  9
$UCSORTHOREF
  2

  9
$UCSORTHOVIEW
 70
     0
  9
$UCSORGTOP
 10
0.0
 20
0.0
 30
0.0
  9
$UCSORGBOTTOM
 10
0.0
 20
0.0
 30
0.0
  9
$UCSORGLEFT
 10
0.0
 20
0.0
 30
0.0
  9
$UCSORGRIGHT
 10
0.0
 20
0.0
 30
0.0
  9
$UCSORGFRONT
 10
0.0
 20
0.0
 30
0.0
  9
$UCSORGBACK
 10
0.0
 20
0.0
 30
0.0
  9
$PUCSBASE
  2

  9
$PUCSNAME
  2

  9
$PUCSORG
 10
0.0
 20
0.0
 30
0.0
  9
$PUCSXDIR
 10
1.0
 20
0.0
 30
0.0
  9
$PUCSYDIR
 10
0.0
 20
1.0
 30
0.0
  9
$PUCSORTHOREF
  2

  9
$PUCSORTHOVIEW
 70
     0
  9
$PUCSORGTOP
 10
0.0
 20
0.0
 30
0.0
  9
$PUCSORGBOTTOM
 10
0.0
 20
0.0
 30
0.0
  9
$PUCSORGLEFT
 10
0.0
 20
0.0
 30
0.0
  9
$PUCSORGRIGHT
 10
0.0
 20
0.0
 30
0.0
  9
$PUCSORGFRONT
 10
0.0
 20
0.0
 30
0.0
  9
$PUCSORGBACK
 10
0.0
 20
0.0
 30
0.0
  9
$USERI1
 70
     0
  9
$USERI2
 70
     0
  9
$USERI3
 70
     0
  9
$USERI4
 70
     0
  9
$USERI5
 70
     0
  9
$USERR1
 40
0.0
  9
$USERR2
 40
0.0
  9
$USERR3
 40
0.0
  9
$USERR4
 40
0.0
  9
$USERR5
 40
0.0
  9
$WORLDVIEW
 70
     1
  9
$SHADEDGE
 70
     3
  9
$SHADEDIF
 70
    70
  9
$TILEMODE
 70
     1
  9
$MAXACTVP
 70
    64
  9
$PINSBASE
 10
0.0
 20
0.0
 30
0.0
  9
$PLIMCHECK
 70
     0
  9
$PEXTMIN
 10
0.0
 20
0.0
 30
0.0
  9
$PEXTMAX
 10
0.0
 20
0.0
 30
0.0
  9
$PLIMMIN
 10
0.0
 20
0.0
  9
$PLIMMAX
 10
12.0
 20
9.0
  9
$UNITMODE
 70
     0
  9
$VISRETAIN
 70
     1
  9
$PLINEGEN
 70
     0
  9
$PSLTSCALE
 70
     1
  9
$TREEDEPTH
 70
  3020
  9
$CMLSTYLE
  2
Standard
  9
$CMLJUST
 70
     0
  9
$CMLSCALE
 40
1.0
  9
$PROXYGRAPHICS
 70
     1
  9
$MEASUREMENT
 70
     0
  9
$CELWEIGHT
370
    -1
  9
$ENDCAPS
280
     0
  9
$JOINSTYLE
280
     0
  9
$LWDISPLAY
290
     0
  9
$INSUNITS
 70
     1
  9
$HYPERLINKBASE
  1

  9
$STYLESHEET
  1

  9
$XEDIT
290
     1
  9
$CEPSNTYPE
380
     0
  9
$PSTYLEMODE
290
     1
  9
$FINGERPRINTGUID
  2
{D3595240-93A8-4D28-BFCC-B4ACDDEAA2D5}
  9
$VERSIONGUID
  2
{F12F6F80-1721-4AF5-940D-B20A7E0C625C}
  9
$EXTNAMES
290
     1
  9
$PSVPSCALE
 40
0.0
  9
$OLESTARTUP
290
     0
  0
ENDSEC
  0
SECTION
  2
CLASSES
  0
CLASS
  1
ACDBDICTIONARYWDFLT
  2
AcDbDictionaryWithDefault
  3
ObjectDBX Classes
 90
        0
280
     0
281
     0
  0
CLASS
  1
ACDBPLACEHOLDER
  2
AcDbPlaceHolder
  3
ObjectDBX Classes
 90
        0
280
     0
281
     0
  0
CLASS
  1
LAYOUT
  2
AcDbLayout
  3
ObjectDBX Classes
 90
        0
280
     0
281
     0
  0
CLASS
  1
DICTIONARYVAR
  2
AcDbDictionaryVar
  3
ObjectDBX Classes
 90
        0
280
     0
281
     0
  0
CLASS
  1
TABLESTYLE
  2
AcDbTableStyle
  3
ObjectDBX Classes
 90
     4095
280
     0
281
     0
  0
CLASS
  1
MATERIAL
  2
AcDbMaterial
  3
ObjectDBX Classes
 90
     1153
280
     0
281
     0
  0
CLASS
  1
VISUALSTYLE
  2
AcDbVisualStyle
  3
ObjectDBX Classes
 90
     4095
280
     0
281
     0
  0
CLASS
  1
DIMASSOC
  2
AcDbDimAssoc
  3
"AcDbDimAssoc|Product Desc:     AcDim ARX App For Dimension|Company:          Autodesk, Inc.|WEB Address:      www.autodesk.com"
 90
        0
280
     0
281
     0
  0
CLASS
  1
SORTENTSTABLE
  2
AcDbSortentsTable
  3
ObjectDBX Classes
 90
        0
280
     0
281
     0
  0
ENDSEC
  0
SECTION
  2
TABLES
  0
TABLE
  2
VPORT
  5
8
330
0
100
AcDbSymbolTable
 70
     1
  0
VPORT
  5
94
330
8
100
AcDbSymbolTableRecord
100
AcDbViewportTableRecord
  2
*Active
 70
     0
 10
0.0
 20
0.0
 11
1.0
 21
1.0
 12
181.0789356133972
 22
129.46252747177
 13
0.0
 23
0.0
 14
0.5
 24
0.5
 15
0.5
 25
0.5
 16
0.0
 26
0.0
 36
1.0
 17
0.0
 27
0.0
 37
0.0
 40
431.0340582822989
 41
2.189852700490998
 42
50.0
 43
0.0
 44
0.0
 50
0.0
 51
0.0
 71
     0
 72
  1000
 73
     1
 74
     3
 75
     0
 76
     0
 77
     0
 78
     0
281
     0
 65
     1
110
0.0
120
0.0
130
0.0
111
1.0
121
0.0
131
0.0
112
0.0
122
1.0
132
0.0
 79
     0
146
0.0
  0
ENDTAB
  0
TABLE
  2
LTYPE
  5
5
330
0
100
AcDbSymbolTable
 70
     1
  0
LTYPE
  5
14
330
5
100
AcDbSymbolTableRecord
100
AcDbLinetypeTableRecord
  2
ByBlock
 70
     0
  3

 72
    65
 73
     0
 40
0.0
  0
LTYPE
  5
15
330
5
100
AcDbSymbolTableRecord
100
AcDbLinetypeTableRecord
  2
ByLayer
 70
     0
  3

 72
    65
 73
     0
 40
0.0
  0
LTYPE
  5
16
330
5
100
AcDbSymbolTableRecord
100
AcDbLinetypeTableRecord
  2
Continuous
 70
     0
  3
Solid line
 72
    65
 73
     0
 40
0.0
  0
ENDTAB
  0
TABLE
  2
LAYER
  5
2
102
{ACAD_XDICTIONARY
360
116
102
}
330
0
100
AcDbSymbolTable
 70
     2
  0
LAYER
  5
10
330
2
100
AcDbSymbolTableRecord
100
AcDbLayerTableRecord
  2
0
 70
     0
 62
     7
  6
Continuous
370
    -3
390
F
  0
LAYER
  5
111
330
2
100
AcDbSymbolTableRecord
100
AcDbLayerTableRecord
  2
Defpoints
 70
     0
 62
     7
  6
Continuous
290
     0
370
    -3
390
F
  0
ENDTAB
  0
TABLE
  2
STYLE
  5
3
330
0
100
AcDbSymbolTable
 70
     2
  0
STYLE
  5
11
330
3
100
AcDbSymbolTableRecord
100
AcDbTextStyleTableRecord
  2
Standard
 70
     0
 40
0.0
 41
1.0
 50
0.0
 71
     0
 42
0.2
  3
txt
  4

  0
STYLE
  5
112
330
3
100
AcDbSymbolTableRecord
100
AcDbTextStyleTableRecord
  2
Binh
 70
     0
 40
0.0
 41
1.0
 50
0.0
 71
     0
 42
25.0
  3

  4

1001
ACAD
1000
VNI-Helve-Condense
1071
        2
  0
ENDTAB
  0
TABLE
  2
VIEW
  5
6
330
0
100
AcDbSymbolTable
 70
     0
  0
ENDTAB
  0
TABLE
  2
UCS
  5
7
330
0
100
AcDbSymbolTable
 70
     0
  0
ENDTAB
  0
TABLE
  2
APPID
  5
9
330
0
100
AcDbSymbolTable
 70
     2
  0
APPID
  5
12
330
9
100
AcDbSymbolTableRecord
100
AcDbRegAppTableRecord
  2
ACAD
 70
     0
  0
APPID
  5
115
330
9
100
AcDbSymbolTableRecord
100
AcDbRegAppTableRecord
  2
ACAD_PSEXT
 70
     0
  0
ENDTAB
  0
TABLE
  2
DIMSTYLE
  5
A
330
0
100
AcDbSymbolTable
 70
     3
100
AcDbDimStyleTable
 71
     0
  0
DIMSTYLE
105
27
330
A
100
AcDbSymbolTableRecord
100
AcDbDimStyleTableRecord
  2
Standard
 70
     0
340
11
  0
DIMSTYLE
105
113
330
A
100
AcDbSymbolTableRecord
100
AcDbDimStyleTableRecord
  2
SS
 70
     0
 40
1.5
 41
3.0
 42
2.0
 43
1.0
 44
2.0
 73
     0
 74
     0
 77
     1
140
3.0
147
0.5
176
     1
177
     1
178
     7
340
11
  0
DIMSTYLE
105
114
102
{ACAD_REACTORS
330
2BF
330
2C2
330
310
330
313
330
316
330
317
330
318
330
4C7
330
4CA
330
518
330
51B
330
51E
330
51F
330
520
102
}
330
A
100
AcDbSymbolTableRecord
100
AcDbDimStyleTableRecord
  2
TRIEU
 70
     0
 40
0.5
 41
30.0
 42
0.0
 43
0.0
 44
20.0
 73
     0
 77
     3
 78
     8
140
30.0
141
0.0
146
0.0000052631578947
147
10.0
172
     1
174
     1
176
     8
177
     8
178
     3
271
     0
272
     0
275
     1
279
     2
284
     8
340
112
342
B9
  0
ENDTAB
  0
TABLE
  2
BLOCK_RECORD
  5
1
330
0
100
AcDbSymbolTable
 70
    17
  0
BLOCK_RECORD
  5
1F
330
1
100
AcDbSymbolTableRecord
100
AcDbBlockTableRecord
  2
*Model_Space
340
22
  0
BLOCK_RECORD
  5
58
330
1
100
AcDbSymbolTableRecord
100
AcDbBlockTableRecord
  2
*Paper_Space
340
59
  0
BLOCK_RECORD
  5
5D
330
1
100
AcDbSymbolTableRecord
100
AcDbBlockTableRecord
  2
*Paper_Space0
340
5E
  0
BLOCK_RECORD
  5
B9
330
1
100
AcDbSymbolTableRecord
100
AcDbBlockTableRecord
  2
_Oblique
340
0
102
{BLKREFS
331
C2
331
C3
331
CE
331
CF
331
F2
331
F3
331
FE
331
FF
331
10A
331
10B
331
DA
331
DB
331
E6
331
E7
331
54B
331
54C
331
557
331
558
331
56E
331
56F
331
577
331
578
331
581
331
582
331
58C
331
58D
331
595
331
596
102
}
  0
BLOCK_RECORD
  5
BD
330
1
100
AcDbSymbolTableRecord
100
AcDbBlockTableRecord
  2
*D2
340
0
  0
BLOCK_RECORD
  5
C9
330
1
100
AcDbSymbolTableRecord
100
AcDbBlockTableRecord
  2
*D3
340
0
  0
BLOCK_RECORD
  5
D5
330
1
100
AcDbSymbolTableRecord
100
AcDbBlockTableRecord
  2
*D4
340
0
  0
BLOCK_RECORD
  5
E1
330
1
100
AcDbSymbolTableRecord
100
AcDbBlockTableRecord
  2
*D5
340
0
  0
BLOCK_RECORD
  5
ED
330
1
100
AcDbSymbolTableRecord
100
AcDbBlockTableRecord
  2
*D6
340
0
  0
BLOCK_RECORD
  5
F9
330
1
100
AcDbSymbolTableRecord
100
AcDbBlockTableRecord
  2
*D7
340
0
  0
BLOCK_RECORD
  5
105
330
1
100
AcDbSymbolTableRecord
100
AcDbBlockTableRecord
  2
*D8
340
0
  0
BLOCK_RECORD
  5
523
330
1
100
AcDbSymbolTableRecord
100
AcDbBlockTableRecord
  2
*D10
340
0
  0
BLOCK_RECORD
  5
52F
330
1
100
AcDbSymbolTableRecord
100
AcDbBlockTableRecord
  2
*D11
340
0
  0
BLOCK_RECORD
  5
53B
330
1
100
AcDbSymbolTableRecord
100
AcDbBlockTableRecord
  2
*D12
340
0
  0
BLOCK_RECORD
  5
547
330
1
100
AcDbSymbolTableRecord
100
AcDbBlockTableRecord
  2
*D13
340
0
  0
BLOCK_RECORD
  5
553
330
1
100
AcDbSymbolTableRecord
100
AcDbBlockTableRecord
  2
*D14
340
0
  0
BLOCK_RECORD
  5
55F
330
1
100
AcDbSymbolTableRecord
100
AcDbBlockTableRecord
  2
*D15
340
0
  0
BLOCK_RECORD
  5
57D
330
1
100
AcDbSymbolTableRecord
100
AcDbBlockTableRecord
  2
*D16
340
0
  0
ENDTAB
  0
ENDSEC
  0
SECTION
  2
BLOCKS
  0
BLOCK
  5
20
330
1F
100
AcDbEntity
  8
0
100
AcDbBlockBegin
  2
*Model_Space
 70
     0
 10
0.0
 20
0.0
 30
0.0
  3
*Model_Space
  1

  0
ENDBLK
  5
21
330
1F
100
AcDbEntity
  8
0
100
AcDbBlockEnd
  0
BLOCK
  5
5A
330
58
100
AcDbEntity
 67
     1
  8
0
100
AcDbBlockBegin
  2
*Paper_Space
 70
     0
 10
0.0
 20
0.0
 30
0.0
  3
*Paper_Space
  1

  0
ENDBLK
  5
5B
330
58
100
AcDbEntity
 67
     1
  8
0
100
AcDbBlockEnd
  0
BLOCK
  5
5F
330
5D
100
AcDbEntity
 67
     1
  8
0
100
AcDbBlockBegin
  2
*Paper_Space0
 70
     0
 10
0.0
 20
0.0
 30
0.0
  3
*Paper_Space0
  1

  0
ENDBLK
  5
60
330
5D
100
AcDbEntity
 67
     1
  8
0
100
AcDbBlockEnd
  0
BLOCK
  5
BA
330
B9
100
AcDbEntity
  8
0
100
AcDbBlockBegin
  2
_Oblique
 70
     0
 10
0.0
 20
0.0
 30
0.0
  3
_Oblique
  1

  0
LINE
  5
BB
330
B9
100
AcDbEntity
  8
0
  6
ByBlock
 62
     0
370
    -2
100
AcDbLine
 10
-0.5
 20
-0.5
 30
0.0
 11
0.5
 21
0.5
 31
0.0
  0
ENDBLK
  5
BC
330
B9
100
AcDbEntity
  8
0
100
AcDbBlockEnd
  0
BLOCK
  5
BE
330
BD
100
AcDbEntity
  8
0
370
    40
100
AcDbBlockBegin
  2
*D2
 70
     1
 10
0.0
 20
0.0
 30
0.0
  3
*D2
  1

  0
LINE
  5
BF
330
BD
100
AcDbEntity
  8
0
 62
     8
370
    -2
100
AcDbLine
 10
-285.779533787205
 20
-1655.154561702447
 30
0.0
 11
-285.779533787205
 21
-1633.250363390529
 31
0.0
  0
LINE
  5
C0
330
BD
100
AcDbEntity
  8
0
 62
     8
370
    -2
100
AcDbLine
 10
-167.2795337889293
 20
-1655.154561702447
 30
0.0
 11
-167.2795337889293
 21
-1633.250363390529
 31
0.0
  0
LINE
  5
C1
330
BD
100
AcDbEntity
  8
0
 62
     8
370
    -2
100
AcDbLine
 10
-285.779533787205
 20
-1643.250363390529
 30
0.0
 11
-167.2795337889293
 21
-1643.250363390529
 31
0.0
  0
INSERT
  5
C2
330
BD
100
AcDbEntity
  8
0
 62
     8
370
    -2
100
AcDbBlockReference
  2
_Oblique
 10
-285.779533787205
 20
-1643.250363390529
 30
0.0
 41
15.0
 42
15.0
 43
15.0
 50
180.0
  0
INSERT
  5
C3
330
BD
100
AcDbEntity
  8
0
 62
     8
370
    -2
100
AcDbBlockReference
  2
_Oblique
 10
-167.2795337889293
 20
-1643.250363390529
 30
0.0
 41
15.0
 42
15.0
 43
15.0
  0
MTEXT
  5
C4
330
BD
100
AcDbEntity
  8
0
 62
     3
370
    40
100
AcDbMText
 10
-226.5295337880672
 20
-1632.500113390529
 30
0.0
 40
15.0
 41
0.0
 71
     5
 72
     1
  1
\A1;{\H0.7667x;\C256;119}
  7
Binh
 73
     1
 44
1.0
1001
ACAD
1000
MTEXTBEGIN
1070
    73
1070
     1
1070
    44
1040
1.0
1070
    74
1070
     0
1000
MTEXTEND
  0
POINT
  5
C5
330
BD
100
AcDbEntity
  8
Defpoints
 62
     0
370
    40
100
AcDbPoint
 10
-285.779533787205
 20
-1655.154561702447
 30
0.0
  0
POINT
  5
C6
330
BD
100
AcDbEntity
  8
Defpoints
 62
     0
370
    40
100
AcDbPoint
 10
-167.2795337889293
 20
-1655.154561702447
 30
0.0
  0
POINT
  5
C7
330
BD
100
AcDbEntity
  8
Defpoints
 62
     0
370
    40
100
AcDbPoint
 10
-167.2795337889293
 20
-1643.250363390529
 30
0.0
  0
ENDBLK
  5
C8
330
BD
100
AcDbEntity
  8
0
370
    40
100
AcDbBlockEnd
  0
BLOCK
  5
CA
330
C9
100
AcDbEntity
  8
0
370
    40
100
AcDbBlockBegin
  2
*D3
 70
     1
 10
0.0
 20
0.0
 30
0.0
  3
*D3
  1

  0
LINE
  5
CB
330
C9
100
AcDbEntity
  8
0
 62
     8
370
    -2
100
AcDbLine
 10
-285.7795337872048
 20
-1709.154561702447
 30
0.0
 11
-308.9641184626017
 21
-1709.154561702447
 31
0.0
  0
LINE
  5
CC
330
C9
100
AcDbEntity
  8
0
 62
     8
370
    -2
100
AcDbLine
 10
-284.7795337872049
 20
-1654.154561702447
 30
0.0
 11
-308.9641184626017
 21
-1654.154561702447
 31
0.0
  0
LINE
  5
CD
330
C9
100
AcDbEntity
  8
0
 62
     8
370
    -2
100
AcDbLine
 10
-298.9641184626017
 20
-1709.154561702447
 30
0.0
 11
-298.9641184626017
 21
-1654.154561702447
 31
0.0
  0
INSERT
  5
CE
330
C9
100
AcDbEntity
  8
0
 62
     8
370
    -2
100
AcDbBlockReference
  2
_Oblique
 10
-298.9641184626017
 20
-1709.154561702447
 30
0.0
 41
15.0
 42
15.0
 43
15.0
 50
270.0
  0
INSERT
  5
CF
330
C9
100
AcDbEntity
  8
0
 62
     8
370
    -2
100
AcDbBlockReference
  2
_Oblique
 10
-298.9641184626017
 20
-1654.154561702447
 30
0.0
 41
15.0
 42
15.0
 43
15.0
 50
90.0
  0
MTEXT
  5
D0
330
C9
100
AcDbEntity
  8
0
 62
     3
370
    40
100
AcDbMText
 10
-309.7143684626015
 20
-1681.654561702446
 30
0.0
 40
15.0
 41
0.0
 71
     5
 72
     1
  1
\A1;{\H0.7667x;\C256;55}
  7
Binh
 11
0.0000000000000001
 21
1.0
 31
0.0
 73
     1
 44
1.0
1001
ACAD
1000
MTEXTBEGIN
1070
    73
1070
     1
1070
    44
1040
1.0
1070
    74
1070
     0
1000
MTEXTEND
  0
POINT
  5
D1
330
C9
100
AcDbEntity
  8
Defpoints
 62
     0
370
    40
100
AcDbPoint
 10
-285.7795337872048
 20
-1709.154561702447
 30
0.0
  0
POINT
  5
D2
330
C9
100
AcDbEntity
  8
Defpoints
 62
     0
370
    40
100
AcDbPoint
 10
-284.7795337872049
 20
-1654.154561702447
 30
0.0
  0
POINT
  5
D3
330
C9
100
AcDbEntity
  8
Defpoints
 62
     0
370
    40
100
AcDbPoint
 10
-298.9641184626017
 20
-1654.154561702447
 30
0.0
  0
ENDBLK
  5
D4
330
C9
100
AcDbEntity
  8
0
370
    40
100
AcDbBlockEnd
  0
BLOCK
  5
D6
330
D5
100
AcDbEntity
  8
0
370
    40
100
AcDbBlockBegin
  2
*D4
 70
     1
 10
0.0
 20
0.0
 30
0.0
  3
*D4
  1

  0
LINE
  5
D7
330
D5
100
AcDbEntity
  8
0
 62
     8
370
    -2
100
AcDbLine
 10
-141.5746596136235
 20
-1700.154561702446
 30
0.0
 11
-141.5746596136235
 21
-1633.963800097504
 31
0.0
  0
LINE
  5
D8
330
D5
100
AcDbEntity
  8
0
 62
     8
370
    -2
100
AcDbLine
 10
-17.57465961362351
 20
-1700.154561702446
 30
0.0
 11
-17.5746596136235
 21
-1633.963800097504
 31
0.0
  0
LINE
  5
D9
330
D5
100
AcDbEntity
  8
0
 62
     8
370
    -2
100
AcDbLine
 10
-141.5746596136235
 20
-1643.963800097504
 30
0.0
 11
-17.5746596136235
 21
-1643.963800097504
 31
0.0
  0
INSERT
  5
DA
330
D5
100
AcDbEntity
  8
0
 62
     8
370
    -2
100
AcDbBlockReference
  2
_Oblique
 10
-141.5746596136235
 20
-1643.963800097504
 30
0.0
 41
15.0
 42
15.0
 43
15.0
 50
180.0
  0
INSERT
  5
DB
330
D5
100
AcDbEntity
  8
0
 62
     8
370
    -2
100
AcDbBlockReference
  2
_Oblique
 10
-17.5746596136235
 20
-1643.963800097504
 30
0.0
 41
15.0
 42
15.0
 43
15.0
  0
MTEXT
  5
DC
330
D5
100
AcDbEntity
  8
0
 62
     3
370
    40
100
AcDbMText
 10
-79.57465961362351
 20
-1633.213550097504
 30
0.0
 40
15.0
 41
0.0
 71
     5
 72
     1
  1
\A1;{\H0.7667x;\C256;124}
  7
Binh
 73
     1
 44
1.0
1001
ACAD
1000
MTEXTBEGIN
1070
    73
1070
     1
1070
    44
1040
1.0
1070
    74
1070
     0
1000
MTEXTEND
  0
POINT
  5
DD
330
D5
100
AcDbEntity
  8
Defpoints
 62
     0
370
    40
100
AcDbPoint
 10
-141.5746596136235
 20
-1700.154561702446
 30
0.0
  0
POINT
  5
DE
330
D5
100
AcDbEntity
  8
Defpoints
 62
     0
370
    40
100
AcDbPoint
 10
-17.57465961362351
 20
-1700.154561702446
 30
0.0
  0
POINT
  5
DF
330
D5
100
AcDbEntity
  8
Defpoints
 62
     0
370
    40
100
AcDbPoint
 10
-17.5746596136235
 20
-1643.963800097504
 30
0.0
  0
ENDBLK
  5
E0
330
D5
100
AcDbEntity
  8
0
370
    40
100
AcDbBlockEnd
  0
BLOCK
  5
E2
330
E1
100
AcDbEntity
  8
0
370
    40
100
AcDbBlockBegin
  2
*D5
 70
     1
 10
0.0
 20
0.0
 30
0.0
  3
*D5
  1

  0
LINE
  5
E3
330
E1
100
AcDbEntity
  8
0
 62
     8
370
    -2
100
AcDbLine
 10
-51.57465961362325
 20
-1654.867998409421
 30
0.0
 11
18.70855213564375
 21
-1654.867998409421
 31
0.0
  0
LINE
  5
E4
330
E1
100
AcDbEntity
  8
0
 62
     8
370
    -2
100
AcDbLine
 10
-51.57465961362326
 20
-1709.867998409421
 30
0.0
 11
18.70855213564374
 21
-1709.867998409421
 31
0.0
  0
LINE
  5
E5
330
E1
100
AcDbEntity
  8
0
 62
     8
370
    -2
100
AcDbLine
 10
8.708552135643753
 20
-1654.867998409421
 30
0.0
 11
8.708552135643742
 21
-1709.867998409421
 31
0.0
  0
INSERT
  5
E6
330
E1
100
AcDbEntity
  8
0
 62
     8
370
    -2
100
AcDbBlockReference
  2
_Oblique
 10
8.708552135643753
 20
-1654.867998409421
 30
0.0
 41
15.0
 42
15.0
 43
15.0
 50
90.0
  0
INSERT
  5
E7
330
E1
100
AcDbEntity
  8
0
 62
     8
370
    -2
100
AcDbBlockReference
  2
_Oblique
 10
8.708552135643742
 20
-1709.867998409421
 30
0.0
 41
15.0
 42
15.0
 43
15.0
 50
270.0
  0
MTEXT
  5
E8
330
E1
100
AcDbEntity
  8
0
 62
     3
370
    40
100
AcDbMText
 10
-2.041697864356057
 20
-1682.367998409421
 30
0.0
 40
15.0
 41
0.0
 71
     5
 72
     1
  1
\A1;{\H0.7667x;\C256;55}
  7
Binh
 11
0.0000000000000001
 21
1.0
 31
0.0
 73
     1
 44
1.0
1001
ACAD
1000
MTEXTBEGIN
1070
    73
1070
     1
1070
    44
1040
1.0
1070
    74
1070
     0
1000
MTEXTEND
  0
POINT
  5
E9
330
E1
100
AcDbEntity
  8
Defpoints
 62
     0
370
    40
100
AcDbPoint
 10
-51.57465961362325
 20
-1654.867998409421
 30
0.0
  0
POINT
  5
EA
330
E1
100
AcDbEntity
  8
Defpoints
 62
     0
370
    40
100
AcDbPoint
 10
-51.57465961362326
 20
-1709.867998409421
 30
0.0
  0
POINT
  5
EB
330
E1
100
AcDbEntity
  8
Defpoints
 62
     0
370
    40
100
AcDbPoint
 10
8.708552135643742
 20
-1709.867998409421
 30
0.0
  0
ENDBLK
  5
EC
330
E1
100
AcDbEntity
  8
0
370
    40
100
AcDbBlockEnd
  0
BLOCK
  5
EE
330
ED
100
AcDbEntity
  8
0
370
    40
100
AcDbBlockBegin
  2
*D6
 70
     1
 10
0.0
 20
0.0
 30
0.0
  3
*D6
  1

  0
LINE
  5
EF
330
ED
100
AcDbEntity
  8
0
 62
     8
370
    -2
100
AcDbLine
 10
-167.2795337889293
 20
-1500.013968992595
 30
0.0
 11
-131.8909548940081
 21
-1500.013968992595
 31
0.0
  0
LINE
  5
F0
330
ED
100
AcDbEntity
  8
0
 62
     8
370
    -2
100
AcDbLine
 10
-167.2795337889293
 20
-1600.513968991132
 30
0.0
 11
-131.8909548940081
 21
-1600.513968991132
 31
0.0
  0
LINE
  5
F1
330
ED
100
AcDbEntity
  8
0
 62
     8
370
    -2
100
AcDbLine
 10
-141.890954894008
 20
-1500.013968992595
 30
0.0
 11
-141.8909548940081
 21
-1600.513968991132
 31
0.0
  0
INSERT
  5
F2
330
ED
100
AcDbEntity
  8
0
 62
     8
370
    -2
100
AcDbBlockReference
  2
_Oblique
 10
-141.890954894008
 20
-1500.013968992595
 30
0.0
 41
15.0
 42
15.0
 43
15.0
 50
90.0
  0
INSERT
  5
F3
330
ED
100
AcDbEntity
  8
0
 62
     8
370
    -2
100
AcDbBlockReference
  2
_Oblique
 10
-141.8909548940081
 20
-1600.513968991132
 30
0.0
 41
15.0
 42
15.0
 43
15.0
 50
270.0
  0
MTEXT
  5
F4
330
ED
100
AcDbEntity
  8
0
 62
     3
370
    40
100
AcDbMText
 10
-152.6412048940079
 20
-1550.263968991863
 30
0.0
 40
15.0
 41
0.0
 71
     5
 72
     1
  1
\A1;{\H0.7667x;\C256;101}
  7
Binh
 11
0.0000000000000001
 21
1.0
 31
0.0
 73
     1
 44
1.0
1001
ACAD
1000
MTEXTBEGIN
1070
    73
1070
     1
1070
    44
1040
1.0
1070
    74
1070
     0
1000
MTEXTEND
  0
POINT
  5
F5
330
ED
100
AcDbEntity
  8
Defpoints
 62
     0
370
    40
100
AcDbPoint
 10
-167.2795337889293
 20
-1500.013968992595
 30
0.0
  0
POINT
  5
F6
330
ED
100
AcDbEntity
  8
Defpoints
 62
     0
370
    40
100
AcDbPoint
 10
-167.2795337889293
 20
-1600.513968991132
 30
0.0
  0
POINT
  5
F7
330
ED
100
AcDbEntity
  8
Defpoints
 62
     0
370
    40
100
AcDbPoint
 10
-141.8909548940081
 20
-1600.513968991132
 30
0.0
  0
ENDBLK
  5
F8
330
ED
100
AcDbEntity
  8
0
370
    40
100
AcDbBlockEnd
  0
BLOCK
  5
FA
330
F9
100
AcDbEntity
  8
0
370
    40
100
AcDbBlockBegin
  2
*D7
 70
     1
 10
0.0
 20
0.0
 30
0.0
  3
*D7
  1

  0
LINE
  5
FB
330
F9
100
AcDbEntity
  8
0
 62
     8
370
    -2
100
AcDbLine
 10
-176.0295337888019
 20
-1487.556400185423
 30
0.0
 11
-103.9203113832116
 21
-1487.556400185423
 31
0.0
  0
LINE
  5
FC
330
F9
100
AcDbEntity
  8
0
 62
     8
370
    -2
100
AcDbLine
 10
-176.0295337888019
 20
-1612.971537798275
 30
0.0
 11
-103.9203113832117
 21
-1612.971537798275
 31
0.0
  0
LINE
  5
FD
330
F9
100
AcDbEntity
  8
0
 62
     8
370
    -2
100
AcDbLine
 10
-113.9203113832117
 20
-1487.556400185423
 30
0.0
 11
-113.9203113832117
 21
-1612.971537798275
 31
0.0
  0
INSERT
  5
FE
330
F9
100
AcDbEntity
  8
0
 62
     8
370
    -2
100
AcDbBlockReference
  2
_Oblique
 10
-113.9203113832117
 20
-1487.556400185423
 30
0.0
 41
15.0
 42
15.0
 43
15.0
 50
90.0
  0
INSERT
  5
FF
330
F9
100
AcDbEntity
  8
0
 62
     8
370
    -2
100
AcDbBlockReference
  2
_Oblique
 10
-113.9203113832117
 20
-1612.971537798275
 30
0.0
 41
15.0
 42
15.0
 43
15.0
 50
270.0
  0
MTEXT
  5
100
330
F9
100
AcDbEntity
  8
0
 62
     3
370
    40
100
AcDbMText
 10
-124.6705613832115
 20
-1550.263968991849
 30
0.0
 40
15.0
 41
0.0
 71
     5
 72
     1
  1
\A1;{\H0.7667x;\C256;125}
  7
Binh
 11
0.0000000000000001
 21
1.0
 31
0.0
 73
     1
 44
1.0
1001
ACAD
1000
MTEXTBEGIN
1070
    73
1070
     1
1070
    44
1040
1.0
1070
    74
1070
     0
1000
MTEXTEND
  0
POINT
  5
101
330
F9
100
AcDbEntity
  8
Defpoints
 62
     0
370
    40
100
AcDbPoint
 10
-176.0295337888019
 20
-1487.556400185423
 30
0.0
  0
POINT
  5
102
330
F9
100
AcDbEntity
  8
Defpoints
 62
     0
370
    40
100
AcDbPoint
 10
-176.0295337888019
 20
-1612.971537798275
 30
0.0
  0
POINT
  5
103
330
F9
100
AcDbEntity
  8
Defpoints
 62
     0
370
    40
100
AcDbPoint
 10
-113.9203113832117
 20
-1612.971537798275
 30
0.0
  0
ENDBLK
  5
104
330
F9
100
AcDbEntity
  8
0
370
    40
100
AcDbBlockEnd
  0
BLOCK
  5
106
330
105
100
AcDbEntity
  8
0
370
    40
100
AcDbBlockBegin
  2
*D8
 70
     1
 10
0.0
 20
0.0
 30
0.0
  3
*D8
  1

  0
LINE
  5
107
330
105
100
AcDbEntity
  8
0
 62
     8
370
    -2
100
AcDbLine
 10
-285.779533787205
 20
-1500.013968992595
 30
0.0
 11
-285.779533787205
 21
-1466.081216472113
 31
0.0
  0
LINE
  5
108
330
105
100
AcDbEntity
  8
0
 62
     8
370
    -2
100
AcDbLine
 10
-167.2795337889293
 20
-1500.013968992595
 30
0.0
 11
-167.2795337889293
 21
-1466.081216472113
 31
0.0
  0
LINE
  5
109
330
105
100
AcDbEntity
  8
0
 62
     8
370
    -2
100
AcDbLine
 10
-285.779533787205
 20
-1476.081216472113
 30
0.0
 11
-167.2795337889293
 21
-1476.081216472113
 31
0.0
  0
INSERT
  5
10A
330
105
100
AcDbEntity
  8
0
 62
     8
370
    -2
100
AcDbBlockReference
  2
_Oblique
 10
-285.779533787205
 20
-1476.081216472113
 30
0.0
 41
15.0
 42
15.0
 43
15.0
 50
180.0
  0
INSERT
  5
10B
330
105
100
AcDbEntity
  8
0
 62
     8
370
    -2
100
AcDbBlockReference
  2
_Oblique
 10
-167.2795337889293
 20
-1476.081216472113
 30
0.0
 41
15.0
 42
15.0
 43
15.0
  0
MTEXT
  5
10C
330
105
100
AcDbEntity
  8
0
 62
     3
370
    40
100
AcDbMText
 10
-226.5295337880672
 20
-1465.330966472113
 30
0.0
 40
15.0
 41
0.0
 71
     5
 72
     1
  1
\A1;{\H0.7667x;\C256;119}
  7
Binh
 73
     1
 44
1.0
1001
ACAD
1000
MTEXTBEGIN
1070
    73
1070
     1
1070
    44
1040
1.0
1070
    74
1070
     0
1000
MTEXTEND
  0
POINT
  5
10D
330
105
100
AcDbEntity
  8
Defpoints
 62
     0
370
    40
100
AcDbPoint
 10
-285.779533787205
 20
-1500.013968992595
 30
0.0
  0
POINT
  5
10E
330
105
100
AcDbEntity
  8
Defpoints
 62
     0
370
    40
100
AcDbPoint
 10
-167.2795337889293
 20
-1500.013968992595
 30
0.0
  0
POINT
  5
10F
330
105
100
AcDbEntity
  8
Defpoints
 62
     0
370
    40
100
AcDbPoint
 10
-167.2795337889293
 20
-1476.081216472113
 30
0.0
  0
ENDBLK
  5
110
330
105
100
AcDbEntity
  8
0
370
    40
100
AcDbBlockEnd
  0
BLOCK
  5
52D
330
523
100
AcDbEntity
  8
0
100
AcDbBlockBegin
  2
*D10
 70
     1
 10
0.0
 20
0.0
 30
0.0
  3
*D10
  1

  0
LINE
  5
56B
330
523
100
AcDbEntity
  8
0
 62
     8
370
    -2
100
AcDbLine
 10
188.874906254037
 20
229.4912199380924
 30
0.0
 11
224.2634851489583
 21
229.4912199380924
 31
0.0
  0
LINE
  5
56C
330
523
100
AcDbEntity
  8
0
 62
     8
370
    -2
100
AcDbLine
 10
188.874906254037
 20
128.9912199395549
 30
0.0
 11
224.2634851489583
 21
128.9912199395548
 31
0.0
  0
LINE
  5
56D
330
523
100
AcDbEntity
  8
0
 62
     8
370
    -2
100
AcDbLine
 10
214.2634851489582
 20
229.4912199380924
 30
0.0
 11
214.2634851489582
 21
128.9912199395548
 31
0.0
  0
INSERT
  5
56E
330
523
100
AcDbEntity
  8
0
 62
     8
370
    -2
100
AcDbBlockReference
  2
_Oblique
 10
214.2634851489582
 20
229.4912199380924
 30
0.0
 41
15.0
 42
15.0
 43
15.0
 50
90.0
  0
INSERT
  5
56F
330
523
100
AcDbEntity
  8
0
 62
     8
370
    -2
100
AcDbBlockReference
  2
_Oblique
 10
214.2634851489582
 20
128.9912199395548
 30
0.0
 41
15.0
 42
15.0
 43
15.0
 50
270.0
  0
MTEXT
  5
570
330
523
100
AcDbEntity
  8
0
 62
     3
370
    40
100
AcDbMText
 10
203.5132351489582
 20
179.2412199388237
 30
0.0
 40
15.0
 41
0.0
 71
     5
 72
     1
  1
\A1;{\H0.7667x;\C256;101}
  7
Binh
 11
0.0000000000000001
 21
1.0
 31
0.0
 73
     1
 44
1.0
1001
ACAD
1000
MTEXTBEGIN
1070
    73
1070
     1
1070
    44
1040
1.0
1070
    74
1070
     0
1000
MTEXTEND
  0
POINT
  5
571
330
523
100
AcDbEntity
  8
Defpoints
 62
     0
100
AcDbPoint
 10
188.874906254037
 20
229.4912199380924
 30
0.0
  0
POINT
  5
572
330
523
100
AcDbEntity
  8
Defpoints
 62
     0
100
AcDbPoint
 10
188.874906254037
 20
128.9912199395549
 30
0.0
  0
POINT
  5
573
330
523
100
AcDbEntity
  8
Defpoints
 62
     0
100
AcDbPoint
 10
214.2634851489582
 20
128.9912199395548
 30
0.0
  0
ENDBLK
  5
52E
330
523
100
AcDbEntity
  8
0
100
AcDbBlockEnd
  0
BLOCK
  5
539
330
52F
100
AcDbEntity
  8
0
100
AcDbBlockBegin
  2
*D11
 70
     1
 10
0.0
 20
0.0
 30
0.0
  3
*D11
  1

  0
LINE
  5
574
330
52F
100
AcDbEntity
  8
0
 62
     8
370
    -2
100
AcDbLine
 10
180.1249062541643
 20
241.9487887452638
 30
0.0
 11
252.2341286597547
 21
241.9487887452638
 31
0.0
  0
LINE
  5
575
330
52F
100
AcDbEntity
  8
0
 62
     8
370
    -2
100
AcDbLine
 10
180.1249062541643
 20
116.5336511324124
 30
0.0
 11
252.2341286597547
 21
116.5336511324124
 31
0.0
  0
LINE
  5
576
330
52F
100
AcDbEntity
  8
0
 62
     8
370
    -2
100
AcDbLine
 10
242.2341286597547
 20
241.9487887452638
 30
0.0
 11
242.2341286597547
 21
116.5336511324124
 31
0.0
  0
INSERT
  5
577
330
52F
100
AcDbEntity
  8
0
 62
     8
370
    -2
100
AcDbBlockReference
  2
_Oblique
 10
242.2341286597547
 20
241.9487887452638
 30
0.0
 41
15.0
 42
15.0
 43
15.0
 50
90.0
  0
INSERT
  5
578
330
52F
100
AcDbEntity
  8
0
 62
     8
370
    -2
100
AcDbBlockReference
  2
_Oblique
 10
242.2341286597547
 20
116.5336511324124
 30
0.0
 41
15.0
 42
15.0
 43
15.0
 50
270.0
  0
MTEXT
  5
579
330
52F
100
AcDbEntity
  8
0
 62
     3
370
    40
100
AcDbMText
 10
231.4838786597547
 20
179.2412199388381
 30
0.0
 40
15.0
 41
0.0
 71
     5
 72
     1
  1
\A1;{\H0.7667x;\C256;125}
  7
Binh
 11
0.0000000000000001
 21
1.0
 31
0.0
 73
     1
 44
1.0
1001
ACAD
1000
MTEXTBEGIN
1070
    73
1070
     1
1070
    44
1040
1.0
1070
    74
1070
     0
1000
MTEXTEND
  0
POINT
  5
57A
330
52F
100
AcDbEntity
  8
Defpoints
 62
     0
100
AcDbPoint
 10
180.1249062541643
 20
241.9487887452638
 30
0.0
  0
POINT
  5
57B
330
52F
100
AcDbEntity
  8
Defpoints
 62
     0
100
AcDbPoint
 10
180.1249062541643
 20
116.5336511324124
 30
0.0
  0
POINT
  5
57C
330
52F
100
AcDbEntity
  8
Defpoints
 62
     0
100
AcDbPoint
 10
242.2341286597547
 20
116.5336511324124
 30
0.0
  0
ENDBLK
  5
53A
330
52F
100
AcDbEntity
  8
0
100
AcDbBlockEnd
  0
BLOCK
  5
545
330
53B
100
AcDbEntity
  8
0
100
AcDbBlockBegin
  2
*D12
 70
     1
 10
0.0
 20
0.0
 30
0.0
  3
*D12
  1

  0
LINE
  5
589
330
53B
100
AcDbEntity
  8
0
 62
     8
370
    -2
100
AcDbLine
 10
70.37490625576139
 20
74.35062722824054
 30
0.0
 11
70.37490625576139
 21
96.2548255401583
 31
0.0
  0
LINE
  5
58A
330
53B
100
AcDbEntity
  8
0
 62
     8
370
    -2
100
AcDbLine
 10
188.874906254037
 20
74.35062722824054
 30
0.0
 11
188.874906254037
 21
96.2548255401583
 31
0.0
  0
LINE
  5
58B
330
53B
100
AcDbEntity
  8
0
 62
     8
370
    -2
100
AcDbLine
 10
70.37490625576139
 20
86.2548255401583
 30
0.0
 11
188.874906254037
 21
86.2548255401583
 31
0.0
  0
INSERT
  5
58C
330
53B
100
AcDbEntity
  8
0
 62
     8
370
    -2
100
AcDbBlockReference
  2
_Oblique
 10
70.37490625576139
 20
86.2548255401583
 30
0.0
 41
15.0
 42
15.0
 43
15.0
 50
180.0
  0
INSERT
  5
58D
330
53B
100
AcDbEntity
  8
0
 62
     8
370
    -2
100
AcDbBlockReference
  2
_Oblique
 10
188.874906254037
 20
86.2548255401583
 30
0.0
 41
15.0
 42
15.0
 43
15.0
  0
MTEXT
  5
58E
330
53B
100
AcDbEntity
  8
0
 62
     3
370
    40
100
AcDbMText
 10
129.6249062548992
 20
97.00507554015828
 30
0.0
 40
15.0
 41
0.0
 71
     5
 72
     1
  1
\A1;{\H0.7667x;\C256;119}
  7
Binh
 73
     1
 44
1.0
1001
ACAD
1000
MTEXTBEGIN
1070
    73
1070
     1
1070
    44
1040
1.0
1070
    74
1070
     0
1000
MTEXTEND
  0
POINT
  5
58F
330
53B
100
AcDbEntity
  8
Defpoints
 62
     0
100
AcDbPoint
 10
70.37490625576139
 20
74.35062722824054
 30
0.0
  0
POINT
  5
590
330
53B
100
AcDbEntity
  8
Defpoints
 62
     0
100
AcDbPoint
 10
188.874906254037
 20
74.35062722824054
 30
0.0
  0
POINT
  5
591
330
53B
100
AcDbEntity
  8
Defpoints
 62
     0
100
AcDbPoint
 10
188.874906254037
 20
86.2548255401583
 30
0.0
  0
ENDBLK
  5
546
330
53B
100
AcDbEntity
  8
0
100
AcDbBlockEnd
  0
BLOCK
  5
551
330
547
100
AcDbEntity
  8
0
100
AcDbBlockBegin
  2
*D13
 70
     1
 10
0.0
 20
0.0
 30
0.0
  3
*D13
  1

  0
LINE
  5
548
330
547
100
AcDbEntity
  8
0
 62
     8
370
    -2
100
AcDbLine
 10
70.3749062557614
 20
20.35062722824049
 30
0.0
 11
47.19032158036468
 21
20.3506272282405
 31
0.0
  0
LINE
  5
549
330
547
100
AcDbEntity
  8
0
 62
     8
370
    -2
100
AcDbLine
 10
71.3749062557614
 20
75.3506272282405
 30
0.0
 11
47.19032158036468
 21
75.3506272282405
 31
0.0
  0
LINE
  5
54A
330
547
100
AcDbEntity
  8
0
 62
     8
370
    -2
100
AcDbLine
 10
57.19032158036468
 20
20.35062722824049
 30
0.0
 11
57.19032158036469
 21
75.3506272282405
 31
0.0
  0
INSERT
  5
54B
330
547
100
AcDbEntity
  8
0
 62
     8
370
    -2
100
AcDbBlockReference
  2
_Oblique
 10
57.19032158036468
 20
20.35062722824049
 30
0.0
 41
15.0
 42
15.0
 43
15.0
 50
270.0
  0
INSERT
  5
54C
330
547
100
AcDbEntity
  8
0
 62
     8
370
    -2
100
AcDbBlockReference
  2
_Oblique
 10
57.19032158036469
 20
75.3506272282405
 30
0.0
 41
15.0
 42
15.0
 43
15.0
 50
90.0
  0
MTEXT
  5
54D
330
547
100
AcDbEntity
  8
0
 62
     3
370
    40
100
AcDbMText
 10
46.44007158036467
 20
47.85062722824051
 30
0.0
 40
15.0
 41
0.0
 71
     5
 72
     1
  1
\A1;{\H0.7667x;\C256;55}
  7
Binh
 11
0.0000000000000001
 21
1.0
 31
0.0
 73
     1
 44
1.0
1001
ACAD
1000
MTEXTBEGIN
1070
    73
1070
     1
1070
    44
1040
1.0
1070
    74
1070
     0
1000
MTEXTEND
  0
POINT
  5
54E
330
547
100
AcDbEntity
  8
Defpoints
 62
     0
100
AcDbPoint
 10
70.3749062557614
 20
20.35062722824049
 30
0.0
  0
POINT
  5
54F
330
547
100
AcDbEntity
  8
Defpoints
 62
     0
100
AcDbPoint
 10
71.3749062557614
 20
75.3506272282405
 30
0.0
  0
POINT
  5
550
330
547
100
AcDbEntity
  8
Defpoints
 62
     0
100
AcDbPoint
 10
57.19032158036469
 20
75.3506272282405
 30
0.0
  0
ENDBLK
  5
552
330
547
100
AcDbEntity
  8
0
100
AcDbBlockEnd
  0
BLOCK
  5
55D
330
553
100
AcDbEntity
  8
0
100
AcDbBlockBegin
  2
*D14
 70
     1
 10
0.0
 20
0.0
 30
0.0
  3
*D14
  1

  0
LINE
  5
554
330
553
100
AcDbEntity
  8
0
 62
     8
370
    -2
100
AcDbLine
 10
214.5797804293429
 20
29.3506272282405
 30
0.0
 11
214.5797804293429
 21
95.54138883318346
 31
0.0
  0
LINE
  5
555
330
553
100
AcDbEntity
  8
0
 62
     8
370
    -2
100
AcDbLine
 10
338.5797804293428
 20
29.3506272282405
 30
0.0
 11
338.5797804293428
 21
95.54138883318346
 31
0.0
  0
LINE
  5
556
330
553
100
AcDbEntity
  8
0
 62
     8
370
    -2
100
AcDbLine
 10
214.5797804293429
 20
85.54138883318346
 30
0.0
 11
338.5797804293428
 21
85.54138883318346
 31
0.0
  0
INSERT
  5
557
330
553
100
AcDbEntity
  8
0
 62
     8
370
    -2
100
AcDbBlockReference
  2
_Oblique
 10
214.5797804293429
 20
85.54138883318346
 30
0.0
 41
15.0
 42
15.0
 43
15.0
 50
180.0
  0
INSERT
  5
558
330
553
100
AcDbEntity
  8
0
 62
     8
370
    -2
100
AcDbBlockReference
  2
_Oblique
 10
338.5797804293428
 20
85.54138883318346
 30
0.0
 41
15.0
 42
15.0
 43
15.0
  0
MTEXT
  5
559
330
553
100
AcDbEntity
  8
0
 62
     3
370
    40
100
AcDbMText
 10
276.5797804293429
 20
96.29163883318348
 30
0.0
 40
15.0
 41
0.0
 71
     5
 72
     1
  1
\A1;{\H0.7667x;\C256;124}
  7
Binh
 73
     1
 44
1.0
1001
ACAD
1000
MTEXTBEGIN
1070
    73
1070
     1
1070
    44
1040
1.0
1070
    74
1070
     0
1000
MTEXTEND
  0
POINT
  5
55A
330
553
100
AcDbEntity
  8
Defpoints
 62
     0
100
AcDbPoint
 10
214.5797804293429
 20
29.3506272282405
 30
0.0
  0
POINT
  5
55B
330
553
100
AcDbEntity
  8
Defpoints
 62
     0
100
AcDbPoint
 10
338.5797804293428
 20
29.3506272282405
 30
0.0
  0
POINT
  5
55C
330
553
100
AcDbEntity
  8
Defpoints
 62
     0
100
AcDbPoint
 10
338.5797804293428
 20
85.54138883318346
 30
0.0
  0
ENDBLK
  5
55E
330
553
100
AcDbEntity
  8
0
100
AcDbBlockEnd
  0
BLOCK
  5
569
330
55F
100
AcDbEntity
  8
0
100
AcDbBlockBegin
  2
*D15
 70
     1
 10
0.0
 20
0.0
 30
0.0
  3
*D15
  1

  0
LINE
  5
592
330
55F
100
AcDbEntity
  8
0
 62
     8
370
    -2
100
AcDbLine
 10
304.579780429343
 20
74.63719052126569
 30
0.0
 11
374.8629921786104
 21
74.63719052126568
 31
0.0
  0
LINE
  5
593
330
55F
100
AcDbEntity
  8
0
 62
     8
370
    -2
100
AcDbLine
 10
304.579780429343
 20
19.63719052126569
 30
0.0
 11
374.8629921786104
 21
19.63719052126567
 31
0.0
  0
LINE
  5
594
330
55F
100
AcDbEntity
  8
0
 62
     8
370
    -2
100
AcDbLine
 10
364.8629921786104
 20
74.63719052126568
 30
0.0
 11
364.8629921786104
 21
19.63719052126567
 31
0.0
  0
INSERT
  5
595
330
55F
100
AcDbEntity
  8
0
 62
     8
370
    -2
100
AcDbBlockReference
  2
_Oblique
 10
364.8629921786104
 20
74.63719052126568
 30
0.0
 41
15.0
 42
15.0
 43
15.0
 50
90.0
  0
INSERT
  5
596
330
55F
100
AcDbEntity
  8
0
 62
     8
370
    -2
100
AcDbBlockReference
  2
_Oblique
 10
364.8629921786104
 20
19.63719052126567
 30
0.0
 41
15.0
 42
15.0
 43
15.0
 50
270.0
  0
MTEXT
  5
597
330
55F
100
AcDbEntity
  8
0
 62
     3
370
    40
100
AcDbMText
 10
354.1127421786105
 20
47.13719052126573
 30
0.0
 40
15.0
 41
0.0
 71
     5
 72
     1
  1
\A1;{\H0.7667x;\C256;55}
  7
Binh
 11
0.0000000000000001
 21
1.0
 31
0.0
 73
     1
 44
1.0
1001
ACAD
1000
MTEXTBEGIN
1070
    73
1070
     1
1070
    44
1040
1.0
1070
    74
1070
     0
1000
MTEXTEND
  0
POINT
  5
598
330
55F
100
AcDbEntity
  8
Defpoints
 62
     0
100
AcDbPoint
 10
304.579780429343
 20
74.63719052126569
 30
0.0
  0
POINT
  5
599
330
55F
100
AcDbEntity
  8
Defpoints
 62
     0
100
AcDbPoint
 10
304.579780429343
 20
19.63719052126569
 30
0.0
  0
POINT
  5
59A
330
55F
100
AcDbEntity
  8
Defpoints
 62
     0
100
AcDbPoint
 10
364.8629921786104
 20
19.63719052126567
 30
0.0
  0
ENDBLK
  5
56A
330
55F
100
AcDbEntity
  8
0
100
AcDbBlockEnd
  0
BLOCK
  5
587
330
57D
100
AcDbEntity
  8
0
100
AcDbBlockBegin
  2
*D16
 70
     1
 10
0.0
 20
0.0
 30
0.0
  3
*D16
  1

  0
LINE
  5
57E
330
57D
100
AcDbEntity
  8
0
 62
     8
370
    -2
100
AcDbLine
 10
70.3749062557614
 20
229.4912199380924
 30
0.0
 11
70.3749062557614
 21
263.4239724585736
 31
0.0
  0
LINE
  5
57F
330
57D
100
AcDbEntity
  8
0
 62
     8
370
    -2
100
AcDbLine
 10
188.874906254037
 20
229.4912199380924
 30
0.0
 11
188.874906254037
 21
263.4239724585736
 31
0.0
  0
LINE
  5
580
330
57D
100
AcDbEntity
  8
0
 62
     8
370
    -2
100
AcDbLine
 10
70.3749062557614
 20
253.4239724585737
 30
0.0
 11
188.874906254037
 21
253.4239724585737
 31
0.0
  0
INSERT
  5
581
330
57D
100
AcDbEntity
  8
0
 62
     8
370
    -2
100
AcDbBlockReference
  2
_Oblique
 10
70.3749062557614
 20
253.4239724585737
 30
0.0
 41
15.0
 42
15.0
 43
15.0
 50
180.0
  0
INSERT
  5
582
330
57D
100
AcDbEntity
  8
0
 62
     8
370
    -2
100
AcDbBlockReference
  2
_Oblique
 10
188.874906254037
 20
253.4239724585737
 30
0.0
 41
15.0
 42
15.0
 43
15.0
  0
MTEXT
  5
583
330
57D
100
AcDbEntity
  8
0
 62
     3
370
    40
100
AcDbMText
 10
129.6249062548992
 20
264.1742224585737
 30
0.0
 40
15.0
 41
0.0
 71
     5
 72
     1
  1
\A1;{\H0.7667x;\C256;119}
  7
Binh
 73
     1
 44
1.0
1001
ACAD
1000
MTEXTBEGIN
1070
    73
1070
     1
1070
    44
1040
1.0
1070
    74
1070
     0
1000
MTEXTEND
  0
POINT
  5
584
330
57D
100
AcDbEntity
  8
Defpoints
 62
     0
100
AcDbPoint
 10
70.3749062557614
 20
229.4912199380924
 30
0.0
  0
POINT
  5
585
330
57D
100
AcDbEntity
  8
Defpoints
 62
     0
100
AcDbPoint
 10
188.874906254037
 20
229.4912199380924
 30
0.0
  0
POINT
  5
586
330
57D
100
AcDbEntity
  8
Defpoints
 62
     0
100
AcDbPoint
 10
188.874906254037
 20
253.4239724585737
 30
0.0
  0
ENDBLK
  5
588
330
57D
100
AcDbEntity
  8
0
100
AcDbBlockEnd
  0
ENDSEC
  0
SECTION
  2
ENTITIES
  0
LWPOLYLINE
  5
321
330
1F
100
AcDbEntity
  8
0
100
AcDbPolyline
 90
        2
 70
     0
 43
0.0
 10
70.3749062557614
 20
128.9912199380924
 10
70.3749062557614
 20
229.4912199380924
  0
LWPOLYLINE
  5
322
330
1F
100
AcDbEntity
  8
0
100
AcDbPolyline
 90
        2
 70
     0
 43
0.0
 10
188.8749062557614
 20
229.4912199380924
 10
188.8749062557614
 20
128.9912199380924
  0
LWPOLYLINE
  5
323
330
1F
100
AcDbEntity
  8
0
 62
     4
100
AcDbPolyline
 90
        3
 70
     0
 43
0.0
 10
94.1249062557614
 20
230.2836511307531
 10
94.1249062557614
 20
242.6827336995603
 10
104.3249062557614
 20
242.6827336995603
  0
LWPOLYLINE
  5
324
330
1F
100
AcDbEntity
  8
0
 62
     4
100
AcDbPolyline
 90
        3
 70
     0
 43
0.0
 10
94.1249062557614
 20
230.2836511307531
 10
94.1249062557614
 20
230.9854859931384
 10
104.3249062557614
 20
230.9854859931384
  0
LWPOLYLINE
  5
325
330
1F
100
AcDbEntity
  8
0
 62
     4
100
AcDbPolyline
 90
        2
 70
     0
 43
0.0
 10
109.4249062557614
 20
230.9854859931384
 10
124.7249062557614
 20
230.9854859931384
  0
LWPOLYLINE
  5
326
330
1F
100
AcDbEntity
  8
0
 62
     4
100
AcDbPolyline
 90
        2
 70
     0
 43
0.0
 10
134.9249062557614
 20
230.9854859931384
 10
165.5249062557615
 20
230.9854859931384
  0
LWPOLYLINE
  5
327
330
1F
100
AcDbEntity
  8
0
100
AcDbPolyline
 90
        2
 70
     0
 43
0.0
 10
70.3749062557614
 20
139.2412199380924
 10
70.3749062557614
 20
219.2412199380924
  0
LWPOLYLINE
  5
328
330
1F
100
AcDbEntity
  8
0
100
AcDbPolyline
 90
        2
 70
     0
 43
0.0
 10
76.83065750964022
 20
219.2412199380924
 10
181.8306575096401
 20
219.2412199380924
  0
LWPOLYLINE
  5
329
330
1F
100
AcDbEntity
  8
0
100
AcDbPolyline
 90
        2
 70
     0
 43
0.0
 10
188.8749062557614
 20
219.2412199380924
 10
188.8749062557614
 20
139.2412199380924
  0
LWPOLYLINE
  5
32A
330
1F
100
AcDbEntity
  8
0
100
AcDbPolyline
 90
        2
 70
     0
 43
0.0
 10
181.8306575096401
 20
139.2412199380924
 10
178.8306575096401
 20
139.2412199380924
  0
LWPOLYLINE
  5
32B
330
1F
100
AcDbEntity
  8
0
100
AcDbPolyline
 90
        2
 70
     0
 43
0.0
 10
175.8306575096401
 20
139.2412199380924
 10
172.8306575096401
 20
139.2412199380924
  0
LWPOLYLINE
  5
32C
330
1F
100
AcDbEntity
  8
0
100
AcDbPolyline
 90
        2
 70
     0
 43
0.0
 10
169.8306575096401
 20
139.2412199380924
 10
166.8306575096401
 20
139.2412199380924
  0
LWPOLYLINE
  5
32D
330
1F
100
AcDbEntity
  8
0
100
AcDbPolyline
 90
        2
 70
     0
 43
0.0
 10
163.8306575096401
 20
139.2412199380924
 10
160.8306575096401
 20
139.2412199380924
  0
LWPOLYLINE
  5
32E
330
1F
100
AcDbEntity
  8
0
100
AcDbPolyline
 90
        2
 70
     0
 43
0.0
 10
157.8306575096401
 20
139.2412199380924
 10
154.8306575096401
 20
139.2412199380924
  0
LWPOLYLINE
  5
32F
330
1F
100
AcDbEntity
  8
0
100
AcDbPolyline
 90
        2
 70
     0
 43
0.0
 10
151.8306575096401
 20
139.2412199380924
 10
148.8306575096401
 20
139.2412199380924
  0
LWPOLYLINE
  5
330
330
1F
100
AcDbEntity
  8
0
100
AcDbPolyline
 90
        2
 70
     0
 43
0.0
 10
145.8306575096401
 20
139.2412199380924
 10
142.8306575096401
 20
139.2412199380924
  0
LWPOLYLINE
  5
331
330
1F
100
AcDbEntity
  8
0
100
AcDbPolyline
 90
        2
 70
     0
 43
0.0
 10
139.8306575096401
 20
139.2412199380924
 10
136.8306575096401
 20
139.2412199380924
  0
LWPOLYLINE
  5
332
330
1F
100
AcDbEntity
  8
0
100
AcDbPolyline
 90
        2
 70
     0
 43
0.0
 10
133.8306575096401
 20
139.2412199380924
 10
130.8306575096401
 20
139.2412199380924
  0
LWPOLYLINE
  5
333
330
1F
100
AcDbEntity
  8
0
100
AcDbPolyline
 90
        2
 70
     0
 43
0.0
 10
127.8306575096401
 20
139.2412199380924
 10
124.8306575096401
 20
139.2412199380924
  0
LWPOLYLINE
  5
334
330
1F
100
AcDbEntity
  8
0
100
AcDbPolyline
 90
        2
 70
     0
 43
0.0
 10
121.8306575096401
 20
139.2412199380924
 10
118.8306575096401
 20
139.2412199380924
  0
LWPOLYLINE
  5
335
330
1F
100
AcDbEntity
  8
0
100
AcDbPolyline
 90
        2
 70
     0
 43
0.0
 10
115.8306575096401
 20
139.2412199380924
 10
112.8306575096401
 20
139.2412199380924
  0
LWPOLYLINE
  5
336
330
1F
100
AcDbEntity
  8
0
100
AcDbPolyline
 90
        2
 70
     0
 43
0.0
 10
109.8306575096401
 20
139.2412199380924
 10
106.8306575096401
 20
139.2412199380924
  0
LWPOLYLINE
  5
337
330
1F
100
AcDbEntity
  8
0
100
AcDbPolyline
 90
        2
 70
     0
 43
0.0
 10
103.8306575096401
 20
139.2412199380924
 10
100.8306575096401
 20
139.2412199380924
  0
LWPOLYLINE
  5
338
330
1F
100
AcDbEntity
  8
0
100
AcDbPolyline
 90
        2
 70
     0
 43
0.0
 10
97.83065750964016
 20
139.2412199380924
 10
94.83065750964016
 20
139.2412199380924
  0
LWPOLYLINE
  5
339
330
1F
100
AcDbEntity
  8
0
100
AcDbPolyline
 90
        2
 70
     0
 43
0.0
 10
91.83065750964017
 20
139.2412199380924
 10
88.83065750964016
 20
139.2412199380924
  0
LWPOLYLINE
  5
33A
330
1F
100
AcDbEntity
  8
0
100
AcDbPolyline
 90
        2
 70
     0
 43
0.0
 10
85.83065750964015
 20
139.2412199380924
 10
82.83065750964016
 20
139.2412199380924
  0
LWPOLYLINE
  5
33B
330
1F
100
AcDbEntity
  8
0
100
AcDbPolyline
 90
        2
 70
     0
 43
0.0
 10
79.83065750964016
 20
139.2412199380924
 10
76.83065750964016
 20
139.2412199380924
  0
LWPOLYLINE
  5
33C
102
{ACAD_REACTORS
330
522
102
}
330
1F
100
AcDbEntity
  8
0
100
AcDbPolyline
 90
        4
 70
     1
 43
0.0
 10
70.3749062557614
 20
128.9912199380924
 10
70.3749062557614
 20
229.4912199380924
 10
188.8749062557614
 20
229.4912199380924
 10
188.8749062557614
 20
128.9912199380924
  0
LWPOLYLINE
  5
33D
330
1F
100
AcDbEntity
  8
0
100
AcDbPolyline
 90
        4
 70
     1
 43
0.0
 10
70.3749062557614
 20
149.7412199380924
 10
70.3749062557614
 20
208.7412199380924
 10
188.8749062557614
 20
208.7412199380924
 10
188.8749062557614
 20
149.7412199380924
  0
LWPOLYLINE
  5
33E
330
1F
100
AcDbEntity
  8
0
 62
     4
100
AcDbPolyline
 90
        4
 70
     0
 43
0.0
 10
104.3249062557614
 20
235.2549814059824
 10
94.1249062557614
 20
235.2549814059824
 10
94.1249062557614
 20
242.7412199380924
 10
104.3249062557614
 20
242.7412199380924
  0
LWPOLYLINE
  5
33F
330
1F
100
AcDbEntity
  8
0
 62
     4
100
AcDbPolyline
 90
        2
 70
     0
 43
0.0
 10
165.5249062557615
 20
235.2549814059824
 10
134.9249062557614
 20
235.2549814059824
  0
LWPOLYLINE
  5
340
330
1F
100
AcDbEntity
  8
0
 62
     4
100
AcDbPolyline
 90
        2
 70
     0
 43
0.0
 10
124.7249062557614
 20
235.2549814059824
 10
109.4249062557614
 20
235.2549814059824
  0
LWPOLYLINE
  5
341
330
1F
100
AcDbEntity
  8
0
 62
     4
100
AcDbPolyline
 90
        4
 70
     1
 43
0.0
 10
94.1249062557614
 20
235.2549814059824
 10
94.1249062557614
 20
242.7412199380924
 10
99.22490625576143
 20
242.7412199380924
 10
99.22490625576143
 20
235.2549814059824
  0
CIRCLE
  5
342
330
1F
100
AcDbEntity
  8
0
 62
     4
100
AcDbCircle
 10
96.67490625576148
 20
238.9688575527714
 30
0.0
 40
1.871559633027521
  0
LWPOLYLINE
  5
343
330
1F
100
AcDbEntity
  8
0
 62
     4
100
AcDbPolyline
 90
        4
 70
     1
 43
0.0
 10
97.70943892710789
 20
240.3981314150454
 10
98.19468998911998
 20
239.8651493720363
 10
95.64037358441499
 20
237.5395836904975
 10
95.15512252240284
 20
238.0725657335063
  0
LWPOLYLINE
  5
344
330
1F
100
AcDbEntity
  8
0
 62
     4
100
AcDbPolyline
 90
        4
 70
     1
 43
0.0
 10
99.22490625576143
 20
235.2549814059824
 10
99.22490625576143
 20
242.7412199380924
 10
104.3249062557614
 20
242.7412199380924
 10
104.3249062557614
 20
235.2549814059824
  0
CIRCLE
  5
345
330
1F
100
AcDbEntity
  8
0
 62
     4
100
AcDbCircle
 10
101.7749062557614
 20
238.9688575527714
 30
0.0
 40
1.871559633027521
  0
LWPOLYLINE
  5
346
330
1F
100
AcDbEntity
  8
0
 62
     4
100
AcDbPolyline
 90
        4
 70
     1
 43
0.0
 10
102.8094389271079
 20
240.3981314150454
 10
103.2946899891199
 20
239.8651493720363
 10
100.7403735844149
 20
237.5395836904975
 10
100.2551225224028
 20
238.0725657335063
  0
LWPOLYLINE
  5
347
330
1F
100
AcDbEntity
  8
0
 62
     4
100
AcDbPolyline
 90
        2
 70
     0
 43
0.0
 10
104.3249062557614
 20
235.2549814059824
 10
104.3249062557614
 20
242.7412199380924
  0
LWPOLYLINE
  5
348
330
1F
100
AcDbEntity
  8
0
 62
     4
100
AcDbPolyline
 90
        2
 70
     0
 43
0.0
 10
109.4249062557614
 20
242.7412199380924
 10
109.4249062557614
 20
235.2549814059824
  0
LWPOLYLINE
  5
349
330
1F
100
AcDbEntity
  8
0
 62
     4
100
AcDbPolyline
 90
        4
 70
     1
 43
0.0
 10
109.4249062557614
 20
235.2549814059824
 10
109.4249062557614
 20
242.7412199380924
 10
114.5249062557614
 20
242.7412199380924
 10
114.5249062557614
 20
235.2549814059824
  0
CIRCLE
  5
34A
330
1F
100
AcDbEntity
  8
0
 62
     4
100
AcDbCircle
 10
111.9749062557614
 20
238.9688575527714
 30
0.0
 40
1.871559633027521
  0
LWPOLYLINE
  5
34B
330
1F
100
AcDbEntity
  8
0
 62
     4
100
AcDbPolyline
 90
        4
 70
     1
 43
0.0
 10
113.0094389271079
 20
240.3981314150454
 10
113.49468998912
 20
239.8651493720363
 10
110.9403735844149
 20
237.5395836904975
 10
110.4551225224028
 20
238.0725657335063
  0
LWPOLYLINE
  5
34C
330
1F
100
AcDbEntity
  8
0
 62
     4
100
AcDbPolyline
 90
        4
 70
     1
 43
0.0
 10
114.5249062557614
 20
235.2549814059824
 10
114.5249062557614
 20
242.7412199380924
 10
119.6249062557614
 20
242.7412199380924
 10
119.6249062557614
 20
235.2549814059824
  0
CIRCLE
  5
34D
330
1F
100
AcDbEntity
  8
0
 62
     4
100
AcDbCircle
 10
117.0749062557613
 20
238.9688575527714
 30
0.0
 40
1.871559633027521
  0
LWPOLYLINE
  5
34E
330
1F
100
AcDbEntity
  8
0
 62
     4
100
AcDbPolyline
 90
        4
 70
     1
 43
0.0
 10
118.1094389271079
 20
240.3981314150454
 10
118.59468998912
 20
239.8651493720363
 10
116.0403735844149
 20
237.5395836904975
 10
115.5551225224028
 20
238.0725657335063
  0
LWPOLYLINE
  5
34F
330
1F
100
AcDbEntity
  8
0
 62
     4
100
AcDbPolyline
 90
        4
 70
     1
 43
0.0
 10
119.6249062557614
 20
235.2549814059824
 10
119.6249062557614
 20
242.7412199380924
 10
124.7249062557614
 20
242.7412199380924
 10
124.7249062557614
 20
235.2549814059824
  0
CIRCLE
  5
350
330
1F
100
AcDbEntity
  8
0
 62
     4
100
AcDbCircle
 10
122.1749062557614
 20
238.9688575527714
 30
0.0
 40
1.871559633027521
  0
LWPOLYLINE
  5
351
330
1F
100
AcDbEntity
  8
0
 62
     4
100
AcDbPolyline
 90
        4
 70
     1
 43
0.0
 10
123.2094389271079
 20
240.3981314150454
 10
123.6946899891199
 20
239.8651493720363
 10
121.1403735844149
 20
237.5395836904975
 10
120.6551225224028
 20
238.0725657335063
  0
LWPOLYLINE
  5
352
330
1F
100
AcDbEntity
  8
0
 62
     4
100
AcDbPolyline
 90
        2
 70
     0
 43
0.0
 10
124.7249062557614
 20
235.2549814059824
 10
124.7249062557614
 20
242.7412199380924
  0
LWPOLYLINE
  5
353
330
1F
100
AcDbEntity
  8
0
 62
     4
100
AcDbPolyline
 90
        2
 70
     0
 43
0.0
 10
134.9249062557614
 20
242.7412199380924
 10
134.9249062557614
 20
235.2549814059824
  0
LWPOLYLINE
  5
354
330
1F
100
AcDbEntity
  8
0
 62
     4
100
AcDbPolyline
 90
        4
 70
     1
 43
0.0
 10
134.9249062557614
 20
235.2549814059824
 10
134.9249062557614
 20
242.7412199380924
 10
140.0249062557614
 20
242.7412199380924
 10
140.0249062557614
 20
235.2549814059824
  0
CIRCLE
  5
355
330
1F
100
AcDbEntity
  8
0
 62
     4
100
AcDbCircle
 10
137.4749062557614
 20
238.9688575527714
 30
0.0
 40
1.871559633027521
  0
LWPOLYLINE
  5
356
330
1F
100
AcDbEntity
  8
0
 62
     4
100
AcDbPolyline
 90
        4
 70
     1
 43
0.0
 10
138.5094389271079
 20
240.3981314150454
 10
138.99468998912
 20
239.8651493720363
 10
136.4403735844149
 20
237.5395836904975
 10
135.9551225224029
 20
238.0725657335063
  0
LWPOLYLINE
  5
357
330
1F
100
AcDbEntity
  8
0
 62
     4
100
AcDbPolyline
 90
        4
 70
     1
 43
0.0
 10
140.0249062557614
 20
235.2549814059824
 10
140.0249062557614
 20
242.7412199380924
 10
145.1249062557614
 20
242.7412199380924
 10
145.1249062557614
 20
235.2549814059824
  0
CIRCLE
  5
358
330
1F
100
AcDbEntity
  8
0
 62
     4
100
AcDbCircle
 10
142.5749062557614
 20
238.9688575527714
 30
0.0
 40
1.871559633027521
  0
LWPOLYLINE
  5
359
330
1F
100
AcDbEntity
  8
0
 62
     4
100
AcDbPolyline
 90
        4
 70
     1
 43
0.0
 10
143.6094389271079
 20
240.3981314150454
 10
144.09468998912
 20
239.8651493720363
 10
141.5403735844149
 20
237.5395836904975
 10
141.0551225224029
 20
238.0725657335063
  0
LWPOLYLINE
  5
35A
330
1F
100
AcDbEntity
  8
0
 62
     4
100
AcDbPolyline
 90
        4
 70
     1
 43
0.0
 10
145.1249062557614
 20
235.2549814059824
 10
145.1249062557614
 20
242.7412199380924
 10
150.2249062557614
 20
242.7412199380924
 10
150.2249062557614
 20
235.2549814059824
  0
CIRCLE
  5
35B
330
1F
100
AcDbEntity
  8
0
 62
     4
100
AcDbCircle
 10
147.6749062557614
 20
238.9688575527714
 30
0.0
 40
1.871559633027521
  0
LWPOLYLINE
  5
35C
330
1F
100
AcDbEntity
  8
0
 62
     4
100
AcDbPolyline
 90
        4
 70
     1
 43
0.0
 10
148.7094389271079
 20
240.3981314150454
 10
149.19468998912
 20
239.8651493720363
 10
146.640373584415
 20
237.5395836904975
 10
146.1551225224029
 20
238.0725657335063
  0
LWPOLYLINE
  5
35D
330
1F
100
AcDbEntity
  8
0
 62
     4
100
AcDbPolyline
 90
        4
 70
     1
 43
0.0
 10
150.2249062557614
 20
235.2549814059824
 10
150.2249062557614
 20
242.7412199380924
 10
155.3249062557614
 20
242.7412199380924
 10
155.3249062557614
 20
235.2549814059824
  0
CIRCLE
  5
35E
330
1F
100
AcDbEntity
  8
0
 62
     4
100
AcDbCircle
 10
152.7749062557614
 20
238.9688575527714
 30
0.0
 40
1.871559633027521
  0
LWPOLYLINE
  5
35F
330
1F
100
AcDbEntity
  8
0
 62
     4
100
AcDbPolyline
 90
        4
 70
     1
 43
0.0
 10
153.809438927108
 20
240.3981314150454
 10
154.29468998912
 20
239.8651493720363
 10
151.740373584415
 20
237.5395836904975
 10
151.2551225224029
 20
238.0725657335063
  0
LWPOLYLINE
  5
360
330
1F
100
AcDbEntity
  8
0
 62
     4
100
AcDbPolyline
 90
        4
 70
     1
 43
0.0
 10
155.3249062557614
 20
235.2549814059824
 10
155.3249062557614
 20
242.7412199380924
 10
160.4249062557614
 20
242.7412199380924
 10
160.4249062557614
 20
235.2549814059824
  0
CIRCLE
  5
361
330
1F
100
AcDbEntity
  8
0
 62
     4
100
AcDbCircle
 10
157.8749062557614
 20
238.9688575527714
 30
0.0
 40
1.871559633027521
  0
LWPOLYLINE
  5
362
330
1F
100
AcDbEntity
  8
0
 62
     4
100
AcDbPolyline
 90
        4
 70
     1
 43
0.0
 10
158.9094389271079
 20
240.3981314150454
 10
159.39468998912
 20
239.8651493720363
 10
156.8403735844149
 20
237.5395836904975
 10
156.3551225224029
 20
238.0725657335063
  0
LWPOLYLINE
  5
363
330
1F
100
AcDbEntity
  8
0
 62
     4
100
AcDbPolyline
 90
        4
 70
     1
 43
0.0
 10
160.4249062557614
 20
235.2549814059824
 10
160.4249062557614
 20
242.7412199380924
 10
165.5249062557615
 20
242.7412199380924
 10
165.5249062557615
 20
235.2549814059824
  0
CIRCLE
  5
364
330
1F
100
AcDbEntity
  8
0
 62
     4
100
AcDbCircle
 10
162.9749062557614
 20
238.9688575527714
 30
0.0
 40
1.871559633027521
  0
LWPOLYLINE
  5
365
330
1F
100
AcDbEntity
  8
0
 62
     4
100
AcDbPolyline
 90
        4
 70
     1
 43
0.0
 10
164.0094389271079
 20
240.3981314150454
 10
164.49468998912
 20
239.8651493720363
 10
161.9403735844149
 20
237.5395836904975
 10
161.4551225224029
 20
238.0725657335063
  0
LWPOLYLINE
  5
366
330
1F
100
AcDbEntity
  8
0
100
AcDbPolyline
 90
        4
 70
     1
 43
0.0
 10
76.83065750964016
 20
139.2412199380924
 10
76.83065750964016
 20
142.2412199380924
 10
79.83065750964016
 20
142.2412199380924
 10
79.83065750964016
 20
139.2412199380924
  0
LWPOLYLINE
  5
367
330
1F
100
AcDbEntity
  8
0
100
AcDbPolyline
 90
        4
 70
     0
 43
0.0
 10
79.83065750964016
 20
139.2412199380924
 10
79.83065750964016
 20
142.2412199380924
 10
82.83065750964016
 20
142.2412199380924
 10
82.83065750964016
 20
139.2412199380924
  0
LWPOLYLINE
  5
368
330
1F
100
AcDbEntity
  8
0
100
AcDbPolyline
 90
        4
 70
     1
 43
0.0
 10
82.83065750964016
 20
139.2412199380924
 10
82.83065750964016
 20
142.2412199380924
 10
85.83065750964015
 20
142.2412199380924
 10
85.83065750964015
 20
139.2412199380924
  0
LWPOLYLINE
  5
369
330
1F
100
AcDbEntity
  8
0
100
AcDbPolyline
 90
        4
 70
     0
 43
0.0
 10
85.83065750964015
 20
139.2412199380924
 10
85.83065750964015
 20
142.2412199380924
 10
88.83065750964016
 20
142.2412199380924
 10
88.83065750964016
 20
139.2412199380924
  0
LWPOLYLINE
  5
36A
330
1F
100
AcDbEntity
  8
0
100
AcDbPolyline
 90
        4
 70
     1
 43
0.0
 10
88.83065750964016
 20
139.2412199380924
 10
88.83065750964016
 20
142.2412199380924
 10
91.83065750964017
 20
142.2412199380924
 10
91.83065750964017
 20
139.2412199380924
  0
LWPOLYLINE
  5
36B
330
1F
100
AcDbEntity
  8
0
100
AcDbPolyline
 90
        4
 70
     0
 43
0.0
 10
91.83065750964017
 20
139.2412199380924
 10
91.83065750964017
 20
142.2412199380924
 10
94.83065750964016
 20
142.2412199380924
 10
94.83065750964016
 20
139.2412199380924
  0
LWPOLYLINE
  5
36C
330
1F
100
AcDbEntity
  8
0
100
AcDbPolyline
 90
        4
 70
     1
 43
0.0
 10
94.83065750964016
 20
139.2412199380924
 10
94.83065750964016
 20
142.2412199380924
 10
97.83065750964016
 20
142.2412199380924
 10
97.83065750964016
 20
139.2412199380924
  0
LWPOLYLINE
  5
36D
330
1F
100
AcDbEntity
  8
0
100
AcDbPolyline
 90
        4
 70
     0
 43
0.0
 10
97.83065750964016
 20
139.2412199380924
 10
97.83065750964016
 20
142.2412199380924
 10
100.8306575096401
 20
142.2412199380924
 10
100.8306575096401
 20
139.2412199380924
  0
LWPOLYLINE
  5
36E
330
1F
100
AcDbEntity
  8
0
100
AcDbPolyline
 90
        4
 70
     1
 43
0.0
 10
100.8306575096401
 20
139.2412199380924
 10
100.8306575096401
 20
142.2412199380924
 10
103.8306575096401
 20
142.2412199380924
 10
103.8306575096401
 20
139.2412199380924
  0
LWPOLYLINE
  5
36F
330
1F
100
AcDbEntity
  8
0
100
AcDbPolyline
 90
        4
 70
     0
 43
0.0
 10
103.8306575096401
 20
139.2412199380924
 10
103.8306575096401
 20
142.2412199380924
 10
106.8306575096401
 20
142.2412199380924
 10
106.8306575096401
 20
139.2412199380924
  0
LWPOLYLINE
  5
370
330
1F
100
AcDbEntity
  8
0
100
AcDbPolyline
 90
        4
 70
     1
 43
0.0
 10
106.8306575096401
 20
139.2412199380924
 10
106.8306575096401
 20
142.2412199380924
 10
109.8306575096401
 20
142.2412199380924
 10
109.8306575096401
 20
139.2412199380924
  0
LWPOLYLINE
  5
371
330
1F
100
AcDbEntity
  8
0
100
AcDbPolyline
 90
        4
 70
     0
 43
0.0
 10
109.8306575096401
 20
139.2412199380924
 10
109.8306575096401
 20
142.2412199380924
 10
112.8306575096401
 20
142.2412199380924
 10
112.8306575096401
 20
139.2412199380924
  0
LWPOLYLINE
  5
372
330
1F
100
AcDbEntity
  8
0
100
AcDbPolyline
 90
        4
 70
     1
 43
0.0
 10
112.8306575096401
 20
139.2412199380924
 10
112.8306575096401
 20
142.2412199380924
 10
115.8306575096401
 20
142.2412199380924
 10
115.8306575096401
 20
139.2412199380924
  0
LWPOLYLINE
  5
373
330
1F
100
AcDbEntity
  8
0
100
AcDbPolyline
 90
        4
 70
     0
 43
0.0
 10
115.8306575096401
 20
139.2412199380924
 10
115.8306575096401
 20
142.2412199380924
 10
118.8306575096401
 20
142.2412199380924
 10
118.8306575096401
 20
139.2412199380924
  0
LWPOLYLINE
  5
374
330
1F
100
AcDbEntity
  8
0
100
AcDbPolyline
 90
        4
 70
     1
 43
0.0
 10
118.8306575096401
 20
139.2412199380924
 10
118.8306575096401
 20
142.2412199380924
 10
121.8306575096401
 20
142.2412199380924
 10
121.8306575096401
 20
139.2412199380924
  0
LWPOLYLINE
  5
375
330
1F
100
AcDbEntity
  8
0
100
AcDbPolyline
 90
        4
 70
     0
 43
0.0
 10
121.8306575096401
 20
139.2412199380924
 10
121.8306575096401
 20
142.2412199380924
 10
124.8306575096401
 20
142.2412199380924
 10
124.8306575096401
 20
139.2412199380924
  0
LWPOLYLINE
  5
376
330
1F
100
AcDbEntity
  8
0
100
AcDbPolyline
 90
        4
 70
     1
 43
0.0
 10
124.8306575096401
 20
139.2412199380924
 10
124.8306575096401
 20
142.2412199380924
 10
127.8306575096401
 20
142.2412199380924
 10
127.8306575096401
 20
139.2412199380924
  0
LWPOLYLINE
  5
377
330
1F
100
AcDbEntity
  8
0
100
AcDbPolyline
 90
        4
 70
     0
 43
0.0
 10
127.8306575096401
 20
139.2412199380924
 10
127.8306575096401
 20
142.2412199380924
 10
130.8306575096401
 20
142.2412199380924
 10
130.8306575096401
 20
139.2412199380924
  0
LWPOLYLINE
  5
378
330
1F
100
AcDbEntity
  8
0
100
AcDbPolyline
 90
        4
 70
     1
 43
0.0
 10
130.8306575096401
 20
139.2412199380924
 10
130.8306575096401
 20
142.2412199380924
 10
133.8306575096401
 20
142.2412199380924
 10
133.8306575096401
 20
139.2412199380924
  0
LWPOLYLINE
  5
379
330
1F
100
AcDbEntity
  8
0
100
AcDbPolyline
 90
        4
 70
     0
 43
0.0
 10
133.8306575096401
 20
139.2412199380924
 10
133.8306575096401
 20
142.2412199380924
 10
136.8306575096401
 20
142.2412199380924
 10
136.8306575096401
 20
139.2412199380924
  0
LWPOLYLINE
  5
37A
330
1F
100
AcDbEntity
  8
0
100
AcDbPolyline
 90
        4
 70
     1
 43
0.0
 10
136.8306575096401
 20
139.2412199380924
 10
136.8306575096401
 20
142.2412199380924
 10
139.8306575096401
 20
142.2412199380924
 10
139.8306575096401
 20
139.2412199380924
  0
LWPOLYLINE
  5
37B
330
1F
100
AcDbEntity
  8
0
100
AcDbPolyline
 90
        4
 70
     0
 43
0.0
 10
139.8306575096401
 20
139.2412199380924
 10
139.8306575096401
 20
142.2412199380924
 10
142.8306575096401
 20
142.2412199380924
 10
142.8306575096401
 20
139.2412199380924
  0
LWPOLYLINE
  5
37C
330
1F
100
AcDbEntity
  8
0
100
AcDbPolyline
 90
        4
 70
     1
 43
0.0
 10
142.8306575096401
 20
139.2412199380924
 10
142.8306575096401
 20
142.2412199380924
 10
145.8306575096401
 20
142.2412199380924
 10
145.8306575096401
 20
139.2412199380924
  0
LWPOLYLINE
  5
37D
330
1F
100
AcDbEntity
  8
0
100
AcDbPolyline
 90
        4
 70
     0
 43
0.0
 10
145.8306575096401
 20
139.2412199380924
 10
145.8306575096401
 20
142.2412199380924
 10
148.8306575096401
 20
142.2412199380924
 10
148.8306575096401
 20
139.2412199380924
  0
LWPOLYLINE
  5
37E
330
1F
100
AcDbEntity
  8
0
100
AcDbPolyline
 90
        4
 70
     1
 43
0.0
 10
148.8306575096401
 20
139.2412199380924
 10
148.8306575096401
 20
142.2412199380924
 10
151.8306575096401
 20
142.2412199380924
 10
151.8306575096401
 20
139.2412199380924
  0
LWPOLYLINE
  5
37F
330
1F
100
AcDbEntity
  8
0
100
AcDbPolyline
 90
        4
 70
     0
 43
0.0
 10
151.8306575096401
 20
139.2412199380924
 10
151.8306575096401
 20
142.2412199380924
 10
154.8306575096401
 20
142.2412199380924
 10
154.8306575096401
 20
139.2412199380924
  0
LWPOLYLINE
  5
380
330
1F
100
AcDbEntity
  8
0
100
AcDbPolyline
 90
        4
 70
     1
 43
0.0
 10
154.8306575096401
 20
139.2412199380924
 10
154.8306575096401
 20
142.2412199380924
 10
157.8306575096401
 20
142.2412199380924
 10
157.8306575096401
 20
139.2412199380924
  0
LWPOLYLINE
  5
381
330
1F
100
AcDbEntity
  8
0
100
AcDbPolyline
 90
        4
 70
     0
 43
0.0
 10
157.8306575096401
 20
139.2412199380924
 10
157.8306575096401
 20
142.2412199380924
 10
160.8306575096401
 20
142.2412199380924
 10
160.8306575096401
 20
139.2412199380924
  0
LWPOLYLINE
  5
382
330
1F
100
AcDbEntity
  8
0
100
AcDbPolyline
 90
        4
 70
     1
 43
0.0
 10
160.8306575096401
 20
139.2412199380924
 10
160.8306575096401
 20
142.2412199380924
 10
163.8306575096401
 20
142.2412199380924
 10
163.8306575096401
 20
139.2412199380924
  0
LWPOLYLINE
  5
383
330
1F
100
AcDbEntity
  8
0
100
AcDbPolyline
 90
        4
 70
     0
 43
0.0
 10
163.8306575096401
 20
139.2412199380924
 10
163.8306575096401
 20
142.2412199380924
 10
166.8306575096401
 20
142.2412199380924
 10
166.8306575096401
 20
139.2412199380924
  0
LWPOLYLINE
  5
384
330
1F
100
AcDbEntity
  8
0
100
AcDbPolyline
 90
        4
 70
     1
 43
0.0
 10
166.8306575096401
 20
139.2412199380924
 10
166.8306575096401
 20
142.2412199380924
 10
169.8306575096401
 20
142.2412199380924
 10
169.8306575096401
 20
139.2412199380924
  0
LWPOLYLINE
  5
385
330
1F
100
AcDbEntity
  8
0
100
AcDbPolyline
 90
        4
 70
     0
 43
0.0
 10
169.8306575096401
 20
139.2412199380924
 10
169.8306575096401
 20
142.2412199380924
 10
172.8306575096401
 20
142.2412199380924
 10
172.8306575096401
 20
139.2412199380924
  0
LWPOLYLINE
  5
386
330
1F
100
AcDbEntity
  8
0
100
AcDbPolyline
 90
        4
 70
     1
 43
0.0
 10
172.8306575096401
 20
139.2412199380924
 10
172.8306575096401
 20
142.2412199380924
 10
175.8306575096401
 20
142.2412199380924
 10
175.8306575096401
 20
139.2412199380924
  0
LWPOLYLINE
  5
387
330
1F
100
AcDbEntity
  8
0
100
AcDbPolyline
 90
        4
 70
     0
 43
0.0
 10
175.8306575096401
 20
139.2412199380924
 10
175.8306575096401
 20
142.2412199380924
 10
178.8306575096401
 20
142.2412199380924
 10
178.8306575096401
 20
139.2412199380924
  0
LWPOLYLINE
  5
388
330
1F
100
AcDbEntity
  8
0
100
AcDbPolyline
 90
        4
 70
     1
 43
0.0
 10
178.8306575096401
 20
139.2412199380924
 10
178.8306575096401
 20
142.2412199380924
 10
181.8306575096401
 20
142.2412199380924
 10
181.8306575096401
 20
139.2412199380924
  0
LINE
  5
389
330
1F
100
AcDbEntity
  8
0
100
AcDbLine
 10
78.66865971821545
 20
142.2412199380924
 30
0.0
 11
70.3749062557614
 21
142.2412199380924
 31
0.0
  0
LINE
  5
38A
330
1F
100
AcDbEntity
  8
0
100
AcDbLine
 10
181.8306575096401
 20
142.2412199380924
 30
0.0
 11
188.8749062557614
 21
142.2412199380924
 31
0.0
  0
LWPOLYLINE
  5
38B
330
1F
100
AcDbEntity
  8
0
100
AcDbPolyline
 90
        2
 70
     0
 43
0.0
 10
181.8306575096401
 20
219.2412199380924
 10
178.8306575096401
 20
219.2412199380924
  0
LWPOLYLINE
  5
38C
330
1F
100
AcDbEntity
  8
0
100
AcDbPolyline
 90
        2
 70
     0
 43
0.0
 10
175.8306575096401
 20
219.2412199380924
 10
172.8306575096402
 20
219.2412199380924
  0
LWPOLYLINE
  5
38D
330
1F
100
AcDbEntity
  8
0
100
AcDbPolyline
 90
        2
 70
     0
 43
0.0
 10
169.8306575096401
 20
219.2412199380924
 10
166.8306575096401
 20
219.2412199380924
  0
LWPOLYLINE
  5
38E
330
1F
100
AcDbEntity
  8
0
100
AcDbPolyline
 90
        2
 70
     0
 43
0.0
 10
163.8306575096401
 20
219.2412199380924
 10
160.8306575096401
 20
219.2412199380924
  0
LWPOLYLINE
  5
38F
330
1F
100
AcDbEntity
  8
0
100
AcDbPolyline
 90
        2
 70
     0
 43
0.0
 10
157.8306575096401
 20
219.2412199380924
 10
154.8306575096401
 20
219.2412199380924
  0
LWPOLYLINE
  5
390
330
1F
100
AcDbEntity
  8
0
100
AcDbPolyline
 90
        2
 70
     0
 43
0.0
 10
151.8306575096401
 20
219.2412199380924
 10
148.8306575096401
 20
219.2412199380924
  0
LWPOLYLINE
  5
391
330
1F
100
AcDbEntity
  8
0
100
AcDbPolyline
 90
        2
 70
     0
 43
0.0
 10
145.8306575096401
 20
219.2412199380924
 10
142.8306575096401
 20
219.2412199380924
  0
LWPOLYLINE
  5
392
330
1F
100
AcDbEntity
  8
0
100
AcDbPolyline
 90
        2
 70
     0
 43
0.0
 10
139.8306575096401
 20
219.2412199380924
 10
136.8306575096401
 20
219.2412199380924
  0
LWPOLYLINE
  5
393
330
1F
100
AcDbEntity
  8
0
100
AcDbPolyline
 90
        2
 70
     0
 43
0.0
 10
133.8306575096401
 20
219.2412199380924
 10
130.8306575096401
 20
219.2412199380924
  0
LWPOLYLINE
  5
394
330
1F
100
AcDbEntity
  8
0
100
AcDbPolyline
 90
        2
 70
     0
 43
0.0
 10
127.8306575096401
 20
219.2412199380924
 10
124.8306575096401
 20
219.2412199380924
  0
LWPOLYLINE
  5
395
330
1F
100
AcDbEntity
  8
0
100
AcDbPolyline
 90
        2
 70
     0
 43
0.0
 10
121.8306575096401
 20
219.2412199380924
 10
118.8306575096401
 20
219.2412199380924
  0
LWPOLYLINE
  5
396
330
1F
100
AcDbEntity
  8
0
100
AcDbPolyline
 90
        2
 70
     0
 43
0.0
 10
115.8306575096401
 20
219.2412199380924
 10
112.8306575096401
 20
219.2412199380924
  0
LWPOLYLINE
  5
397
330
1F
100
AcDbEntity
  8
0
100
AcDbPolyline
 90
        2
 70
     0
 43
0.0
 10
109.8306575096401
 20
219.2412199380924
 10
106.8306575096401
 20
219.2412199380924
  0
LWPOLYLINE
  5
398
330
1F
100
AcDbEntity
  8
0
100
AcDbPolyline
 90
        2
 70
     0
 43
0.0
 10
103.8306575096401
 20
219.2412199380924
 10
100.8306575096401
 20
219.2412199380924
  0
LWPOLYLINE
  5
399
330
1F
100
AcDbEntity
  8
0
100
AcDbPolyline
 90
        2
 70
     0
 43
0.0
 10
97.83065750964016
 20
219.2412199380924
 10
94.83065750964016
 20
219.2412199380924
  0
LWPOLYLINE
  5
39A
330
1F
100
AcDbEntity
  8
0
100
AcDbPolyline
 90
        2
 70
     0
 43
0.0
 10
91.83065750964017
 20
219.2412199380924
 10
88.83065750964016
 20
219.2412199380924
  0
LWPOLYLINE
  5
39B
330
1F
100
AcDbEntity
  8
0
100
AcDbPolyline
 90
        2
 70
     0
 43
0.0
 10
85.83065750964015
 20
219.2412199380924
 10
82.83065750964016
 20
219.2412199380924
  0
LWPOLYLINE
  5
39C
330
1F
100
AcDbEntity
  8
0
100
AcDbPolyline
 90
        2
 70
     0
 43
0.0
 10
79.83065750964016
 20
219.2412199380924
 10
76.83065750964016
 20
219.2412199380924
  0
LWPOLYLINE
  5
39D
330
1F
100
AcDbEntity
  8
0
100
AcDbPolyline
 90
        4
 70
     1
 43
0.0
 10
76.83065750964016
 20
219.2412199380924
 10
76.83065750964016
 20
216.2412199380924
 10
79.83065750964016
 20
216.2412199380924
 10
79.83065750964016
 20
219.2412199380924
  0
LWPOLYLINE
  5
39E
330
1F
100
AcDbEntity
  8
0
100
AcDbPolyline
 90
        4
 70
     0
 43
0.0
 10
79.83065750964016
 20
219.2412199380924
 10
79.83065750964016
 20
216.2412199380924
 10
82.83065750964016
 20
216.2412199380924
 10
82.83065750964016
 20
219.2412199380924
  0
LWPOLYLINE
  5
39F
330
1F
100
AcDbEntity
  8
0
100
AcDbPolyline
 90
        4
 70
     1
 43
0.0
 10
82.83065750964016
 20
219.2412199380924
 10
82.83065750964016
 20
216.2412199380924
 10
85.83065750964015
 20
216.2412199380924
 10
85.83065750964015
 20
219.2412199380924
  0
LWPOLYLINE
  5
3A0
330
1F
100
AcDbEntity
  8
0
100
AcDbPolyline
 90
        4
 70
     0
 43
0.0
 10
85.83065750964015
 20
219.2412199380924
 10
85.83065750964015
 20
216.2412199380924
 10
88.83065750964016
 20
216.2412199380924
 10
88.83065750964016
 20
219.2412199380924
  0
LWPOLYLINE
  5
3A1
330
1F
100
AcDbEntity
  8
0
100
AcDbPolyline
 90
        4
 70
     1
 43
0.0
 10
88.83065750964016
 20
219.2412199380924
 10
88.83065750964016
 20
216.2412199380924
 10
91.83065750964017
 20
216.2412199380924
 10
91.83065750964017
 20
219.2412199380924
  0
LWPOLYLINE
  5
3A2
330
1F
100
AcDbEntity
  8
0
100
AcDbPolyline
 90
        4
 70
     0
 43
0.0
 10
91.83065750964017
 20
219.2412199380924
 10
91.83065750964017
 20
216.2412199380924
 10
94.83065750964016
 20
216.2412199380924
 10
94.83065750964016
 20
219.2412199380924
  0
LWPOLYLINE
  5
3A3
330
1F
100
AcDbEntity
  8
0
100
AcDbPolyline
 90
        4
 70
     1
 43
0.0
 10
94.83065750964016
 20
219.2412199380924
 10
94.83065750964016
 20
216.2412199380924
 10
97.83065750964016
 20
216.2412199380924
 10
97.83065750964016
 20
219.2412199380924
  0
LWPOLYLINE
  5
3A4
330
1F
100
AcDbEntity
  8
0
100
AcDbPolyline
 90
        4
 70
     0
 43
0.0
 10
97.83065750964016
 20
219.2412199380924
 10
97.83065750964016
 20
216.2412199380924
 10
100.8306575096401
 20
216.2412199380924
 10
100.8306575096401
 20
219.2412199380924
  0
LWPOLYLINE
  5
3A5
330
1F
100
AcDbEntity
  8
0
100
AcDbPolyline
 90
        4
 70
     1
 43
0.0
 10
100.8306575096401
 20
219.2412199380924
 10
100.8306575096401
 20
216.2412199380924
 10
103.8306575096401
 20
216.2412199380924
 10
103.8306575096401
 20
219.2412199380924
  0
LWPOLYLINE
  5
3A6
330
1F
100
AcDbEntity
  8
0
100
AcDbPolyline
 90
        4
 70
     0
 43
0.0
 10
103.8306575096401
 20
219.2412199380924
 10
103.8306575096401
 20
216.2412199380924
 10
106.8306575096401
 20
216.2412199380924
 10
106.8306575096401
 20
219.2412199380924
  0
LWPOLYLINE
  5
3A7
330
1F
100
AcDbEntity
  8
0
100
AcDbPolyline
 90
        4
 70
     1
 43
0.0
 10
106.8306575096401
 20
219.2412199380924
 10
106.8306575096401
 20
216.2412199380924
 10
109.8306575096401
 20
216.2412199380924
 10
109.8306575096401
 20
219.2412199380924
  0
LWPOLYLINE
  5
3A8
330
1F
100
AcDbEntity
  8
0
100
AcDbPolyline
 90
        4
 70
     0
 43
0.0
 10
109.8306575096401
 20
219.2412199380924
 10
109.8306575096401
 20
216.2412199380924
 10
112.8306575096401
 20
216.2412199380924
 10
112.8306575096401
 20
219.2412199380924
  0
LWPOLYLINE
  5
3A9
330
1F
100
AcDbEntity
  8
0
100
AcDbPolyline
 90
        4
 70
     1
 43
0.0
 10
112.8306575096401
 20
219.2412199380924
 10
112.8306575096401
 20
216.2412199380924
 10
115.8306575096401
 20
216.2412199380924
 10
115.8306575096401
 20
219.2412199380924
  0
LWPOLYLINE
  5
3AA
330
1F
100
AcDbEntity
  8
0
100
AcDbPolyline
 90
        4
 70
     0
 43
0.0
 10
115.8306575096401
 20
219.2412199380924
 10
115.8306575096401
 20
216.2412199380924
 10
118.8306575096401
 20
216.2412199380924
 10
118.8306575096401
 20
219.2412199380924
  0
LWPOLYLINE
  5
3AB
330
1F
100
AcDbEntity
  8
0
100
AcDbPolyline
 90
        4
 70
     1
 43
0.0
 10
118.8306575096401
 20
219.2412199380924
 10
118.8306575096401
 20
216.2412199380924
 10
121.8306575096401
 20
216.2412199380924
 10
121.8306575096401
 20
219.2412199380924
  0
LWPOLYLINE
  5
3AC
330
1F
100
AcDbEntity
  8
0
100
AcDbPolyline
 90
        4
 70
     0
 43
0.0
 10
121.8306575096401
 20
219.2412199380924
 10
121.8306575096401
 20
216.2412199380924
 10
124.8306575096401
 20
216.2412199380924
 10
124.8306575096401
 20
219.2412199380924
  0
LWPOLYLINE
  5
3AD
330
1F
100
AcDbEntity
  8
0
100
AcDbPolyline
 90
        4
 70
     1
 43
0.0
 10
124.8306575096401
 20
219.2412199380924
 10
124.8306575096401
 20
216.2412199380924
 10
127.8306575096401
 20
216.2412199380924
 10
127.8306575096401
 20
219.2412199380924
  0
LWPOLYLINE
  5
3AE
330
1F
100
AcDbEntity
  8
0
100
AcDbPolyline
 90
        4
 70
     0
 43
0.0
 10
127.8306575096401
 20
219.2412199380924
 10
127.8306575096401
 20
216.2412199380924
 10
130.8306575096401
 20
216.2412199380924
 10
130.8306575096401
 20
219.2412199380924
  0
LWPOLYLINE
  5
3AF
330
1F
100
AcDbEntity
  8
0
100
AcDbPolyline
 90
        4
 70
     1
 43
0.0
 10
130.8306575096401
 20
219.2412199380924
 10
130.8306575096401
 20
216.2412199380924
 10
133.8306575096401
 20
216.2412199380924
 10
133.8306575096401
 20
219.2412199380924
  0
LWPOLYLINE
  5
3B0
330
1F
100
AcDbEntity
  8
0
100
AcDbPolyline
 90
        4
 70
     0
 43
0.0
 10
133.8306575096401
 20
219.2412199380924
 10
133.8306575096401
 20
216.2412199380924
 10
136.8306575096401
 20
216.2412199380924
 10
136.8306575096401
 20
219.2412199380924
  0
LWPOLYLINE
  5
3B1
330
1F
100
AcDbEntity
  8
0
100
AcDbPolyline
 90
        4
 70
     1
 43
0.0
 10
136.8306575096401
 20
219.2412199380924
 10
136.8306575096401
 20
216.2412199380924
 10
139.8306575096401
 20
216.2412199380924
 10
139.8306575096401
 20
219.2412199380924
  0
LWPOLYLINE
  5
3B2
330
1F
100
AcDbEntity
  8
0
100
AcDbPolyline
 90
        4
 70
     0
 43
0.0
 10
139.8306575096401
 20
219.2412199380924
 10
139.8306575096401
 20
216.2412199380924
 10
142.8306575096401
 20
216.2412199380924
 10
142.8306575096401
 20
219.2412199380924
  0
LWPOLYLINE
  5
3B3
330
1F
100
AcDbEntity
  8
0
100
AcDbPolyline
 90
        4
 70
     1
 43
0.0
 10
142.8306575096401
 20
219.2412199380924
 10
142.8306575096401
 20
216.2412199380924
 10
145.8306575096401
 20
216.2412199380924
 10
145.8306575096401
 20
219.2412199380924
  0
LWPOLYLINE
  5
3B4
330
1F
100
AcDbEntity
  8
0
100
AcDbPolyline
 90
        4
 70
     0
 43
0.0
 10
145.8306575096401
 20
219.2412199380924
 10
145.8306575096401
 20
216.2412199380924
 10
148.8306575096401
 20
216.2412199380924
 10
148.8306575096401
 20
219.2412199380924
  0
LWPOLYLINE
  5
3B5
330
1F
100
AcDbEntity
  8
0
100
AcDbPolyline
 90
        4
 70
     1
 43
0.0
 10
148.8306575096401
 20
219.2412199380924
 10
148.8306575096401
 20
216.2412199380924
 10
151.8306575096401
 20
216.2412199380924
 10
151.8306575096401
 20
219.2412199380924
  0
LWPOLYLINE
  5
3B6
330
1F
100
AcDbEntity
  8
0
100
AcDbPolyline
 90
        4
 70
     0
 43
0.0
 10
151.8306575096401
 20
219.2412199380924
 10
151.8306575096401
 20
216.2412199380924
 10
154.8306575096401
 20
216.2412199380924
 10
154.8306575096401
 20
219.2412199380924
  0
LWPOLYLINE
  5
3B7
330
1F
100
AcDbEntity
  8
0
100
AcDbPolyline
 90
        4
 70
     1
 43
0.0
 10
154.8306575096401
 20
219.2412199380924
 10
154.8306575096401
 20
216.2412199380924
 10
157.8306575096401
 20
216.2412199380924
 10
157.8306575096401
 20
219.2412199380924
  0
LWPOLYLINE
  5
3B8
330
1F
100
AcDbEntity
  8
0
100
AcDbPolyline
 90
        4
 70
     0
 43
0.0
 10
157.8306575096401
 20
219.2412199380924
 10
157.8306575096401
 20
216.2412199380924
 10
160.8306575096401
 20
216.2412199380924
 10
160.8306575096401
 20
219.2412199380924
  0
LWPOLYLINE
  5
3B9
330
1F
100
AcDbEntity
  8
0
100
AcDbPolyline
 90
        4
 70
     1
 43
0.0
 10
160.8306575096401
 20
219.2412199380924
 10
160.8306575096401
 20
216.2412199380924
 10
163.8306575096401
 20
216.2412199380924
 10
163.8306575096401
 20
219.2412199380924
  0
LWPOLYLINE
  5
3BA
330
1F
100
AcDbEntity
  8
0
100
AcDbPolyline
 90
        4
 70
     0
 43
0.0
 10
163.8306575096401
 20
219.2412199380924
 10
163.8306575096401
 20
216.2412199380924
 10
166.8306575096401
 20
216.2412199380924
 10
166.8306575096401
 20
219.2412199380924
  0
LWPOLYLINE
  5
3BB
330
1F
100
AcDbEntity
  8
0
100
AcDbPolyline
 90
        4
 70
     1
 43
0.0
 10
166.8306575096401
 20
219.2412199380924
 10
166.8306575096401
 20
216.2412199380924
 10
169.8306575096401
 20
216.2412199380924
 10
169.8306575096401
 20
219.2412199380924
  0
LWPOLYLINE
  5
3BC
330
1F
100
AcDbEntity
  8
0
100
AcDbPolyline
 90
        4
 70
     0
 43
0.0
 10
169.8306575096401
 20
219.2412199380924
 10
169.8306575096401
 20
216.2412199380924
 10
172.8306575096402
 20
216.2412199380924
 10
172.8306575096402
 20
219.2412199380924
  0
LWPOLYLINE
  5
3BD
330
1F
100
AcDbEntity
  8
0
100
AcDbPolyline
 90
        4
 70
     1
 43
0.0
 10
172.8306575096402
 20
219.2412199380924
 10
172.8306575096402
 20
216.2412199380924
 10
175.8306575096401
 20
216.2412199380924
 10
175.8306575096401
 20
219.2412199380924
  0
LWPOLYLINE
  5
3BE
330
1F
100
AcDbEntity
  8
0
100
AcDbPolyline
 90
        4
 70
     0
 43
0.0
 10
175.8306575096401
 20
219.2412199380924
 10
175.8306575096401
 20
216.2412199380924
 10
178.8306575096401
 20
216.2412199380924
 10
178.8306575096401
 20
219.2412199380924
  0
LWPOLYLINE
  5
3BF
330
1F
100
AcDbEntity
  8
0
100
AcDbPolyline
 90
        4
 70
     1
 43
0.0
 10
178.8306575096401
 20
219.2412199380924
 10
178.8306575096401
 20
216.2412199380924
 10
181.8306575096401
 20
216.2412199380924
 10
181.8306575096401
 20
219.2412199380924
  0
LINE
  5
3C0
330
1F
100
AcDbEntity
  8
0
100
AcDbLine
 10
76.83065750964016
 20
216.2412199380924
 30
0.0
 11
70.3749062557614
 21
216.2412199380924
 31
0.0
  0
LINE
  5
3C1
330
1F
100
AcDbEntity
  8
0
100
AcDbLine
 10
181.8306575096401
 20
216.2412199380924
 30
0.0
 11
188.8749062557614
 21
216.2412199380924
 31
0.0
  0
MTEXT
  5
3C2
330
1F
100
AcDbEntity
  8
0
100
AcDbMText
 10
74.46980197770028
 20
192.5857403534726
 30
0.0
 40
8.0
 41
117.0266261906474
 71
     1
 72
     5
  1
{\fTimes New Roman|b0|i0|c0|p18;PNTECH CONTROLS}
 73
     1
 44
1.0
1001
ACAD
1000
MTEXTBEGIN
1070
    73
1070
     1
1070
    44
1040
1.0
1070
    74
1070
     0
1000
MTEXTEND
  0
MTEXT
  5
3C3
330
1F
100
AcDbEntity
  8
0
100
AcDbMText
 10
152.8123625553796
 20
162.3675797522019
 30
0.0
 40
5.0
 41
29.3228285426693
 71
     1
 72
     5
  1
{\fTimes New Roman|b0|i0|c0|p18;EXP-485}
 73
     1
 44
1.0
1001
ACAD
1000
MTEXTBEGIN
1070
    73
1070
     1
1070
    44
1040
1.0
1070
    74
1070
     0
1000
MTEXTEND
  0
MTEXT
  5
3C4
330
1F
100
AcDbEntity
  8
0
100
AcDbMText
 10
84.92347893921062
 20
129.3853732927014
 30
0.0
 40
2.339449156700929
 41
16.38732070717815
 71
     1
 72
     5
  1
{\fTimes New Roman|b0|i0|c0|p18;GND}
 11
0.0000000000000001
 21
1.0
 31
0.0
 73
     1
 44
1.0
1001
ACAD
1000
MTEXTBEGIN
1070
    73
1070
     1
1070
    44
1040
1.0
1070
    74
1070
     0
1000
MTEXTEND
  0
MTEXT
  5
3C5
330
1F
100
AcDbEntity
  8
0
100
AcDbMText
 10
90.02347810081863
 20
130.2891634342791
 30
0.0
 40
2.339449156700929
 41
16.38732070717815
 71
     1
 72
     5
  1
{\fTimes New Roman|b0|i0|c0|p18;A1 +}
 11
0.0000000000000001
 21
1.0
 31
0.0
 73
     1
 44
1.0
1001
ACAD
1000
MTEXTBEGIN
1070
    73
1070
     1
1070
    44
1040
1.0
1070
    74
1070
     0
1000
MTEXTEND
  0
MTEXT
  5
3C6
330
1F
100
AcDbEntity
  8
0
100
AcDbMText
 10
95.12347726242666
 20
129.3853732927014
 30
0.0
 40
2.339449156700929
 41
16.38732070717815
 71
     1
 72
     5
  1
{\fTimes New Roman|b0|i0|c0|p18;B1 -}
 11
0.0000000000000001
 21
1.0
 31
0.0
 73
     1
 44
1.0
1001
ACAD
1000
MTEXTBEGIN
1070
    73
1070
     1
1070
    44
1040
1.0
1070
    74
1070
     0
1000
MTEXTEND
  0
MTEXT
  5
3C7
330
1F
100
AcDbEntity
  8
0
100
AcDbMText
 10
100.2234764240347
 20
129.3853732927014
 30
0.0
 40
2.339449156700929
 41
16.38732070717815
 71
     1
 72
     5
  1
{\fTimes New Roman|b0|i0|c0|p18;GND}
 11
0.0000000000000001
 21
1.0
 31
0.0
 73
     1
 44
1.0
1001
ACAD
1000
MTEXTBEGIN
1070
    73
1070
     1
1070
    44
1040
1.0
1070
    74
1070
     0
1000
MTEXTEND
  0
MTEXT
  5
3C8
330
1F
100
AcDbEntity
  8
0
100
AcDbMText
 10
105.3234755856427
 20
129.3853732927014
 30
0.0
 40
2.339449156700929
 41
16.38732070717815
 71
     1
 72
     5
  1
{\fTimes New Roman|b0|i0|c0|p18;A2 +}
 11
0.0000000000000001
 21
1.0
 31
0.0
 73
     1
 44
1.0
1001
ACAD
1000
MTEXTBEGIN
1070
    73
1070
     1
1070
    44
1040
1.0
1070
    74
1070
     0
1000
MTEXTEND
  0
MTEXT
  5
3C9
330
1F
100
AcDbEntity
  8
0
100
AcDbMText
 10
110.4234747472507
 20
129.3853732927014
 30
0.0
 40
2.339449156700929
 41
16.38732070717815
 71
     1
 72
     5
  1
{\fTimes New Roman|b0|i0|c0|p18;B2 -}
 11
0.0000000000000001
 21
1.0
 31
0.0
 73
     1
 44
1.0
1001
ACAD
1000
MTEXTBEGIN
1070
    73
1070
     1
1070
    44
1040
1.0
1070
    74
1070
     0
1000
MTEXTEND
  0
MTEXT
  5
3CA
330
1F
100
AcDbEntity
  8
0
100
AcDbMText
 10
115.5234739088587
 20
129.3853732927014
 30
0.0
 40
2.339449156700929
 41
16.38732070717815
 71
     1
 72
     5
  1
{\fTimes New Roman|b0|i0|c0|p18;GND}
 11
0.0000000000000001
 21
1.0
 31
0.0
 73
     1
 44
1.0
1001
ACAD
1000
MTEXTBEGIN
1070
    73
1070
     1
1070
    44
1040
1.0
1070
    74
1070
     0
1000
MTEXTEND
  0
MTEXT
  5
3CB
330
1F
100
AcDbEntity
  8
0
100
AcDbMText
 10
120.6234730704668
 20
129.3853732927014
 30
0.0
 40
2.339449156700929
 41
16.38732070717815
 71
     1
 72
     5
  1
{\fTimes New Roman|b0|i0|c0|p18;A3 +}
 11
0.0000000000000001
 21
1.0
 31
0.0
 73
     1
 44
1.0
1001
ACAD
1000
MTEXTBEGIN
1070
    73
1070
     1
1070
    44
1040
1.0
1070
    74
1070
     0
1000
MTEXTEND
  0
MTEXT
  5
3CC
330
1F
100
AcDbEntity
  8
0
100
AcDbMText
 10
125.7234722320748
 20
129.3853732927014
 30
0.0
 40
2.339449156700929
 41
16.38732070717815
 71
     1
 72
     5
  1
{\fTimes New Roman|b0|i0|c0|p18;B3 -}
 11
0.0000000000000001
 21
1.0
 31
0.0
 73
     1
 44
1.0
1001
ACAD
1000
MTEXTBEGIN
1070
    73
1070
     1
1070
    44
1040
1.0
1070
    74
1070
     0
1000
MTEXTEND
  0
MTEXT
  5
3CD
330
1F
100
AcDbEntity
  8
0
100
AcDbMText
 10
130.8234713936828
 20
129.3853732927014
 30
0.0
 40
2.339449156700929
 41
16.38732070717815
 71
     1
 72
     5
  1
{\fTimes New Roman|b0|i0|c0|p18;GND}
 11
0.0000000000000001
 21
1.0
 31
0.0
 73
     1
 44
1.0
1001
ACAD
1000
MTEXTBEGIN
1070
    73
1070
     1
1070
    44
1040
1.0
1070
    74
1070
     0
1000
MTEXTEND
  0
MTEXT
  5
3CE
330
1F
100
AcDbEntity
  8
0
100
AcDbMText
 10
135.9234705552908
 20
129.3853732927014
 30
0.0
 40
2.339449156700929
 41
16.38732070717815
 71
     1
 72
     5
  1
{\fTimes New Roman|b0|i0|c0|p18;A4 +}
 11
0.0000000000000001
 21
1.0
 31
0.0
 73
     1
 44
1.0
1001
ACAD
1000
MTEXTBEGIN
1070
    73
1070
     1
1070
    44
1040
1.0
1070
    74
1070
     0
1000
MTEXTEND
  0
MTEXT
  5
3CF
330
1F
100
AcDbEntity
  8
0
100
AcDbMText
 10
141.0234697168989
 20
129.3853732927014
 30
0.0
 40
2.339449156700929
 41
16.38732070717815
 71
     1
 72
     5
  1
{\fTimes New Roman|b0|i0|c0|p18;B4 -}
 11
0.0000000000000001
 21
1.0
 31
0.0
 73
     1
 44
1.0
1001
ACAD
1000
MTEXTBEGIN
1070
    73
1070
     1
1070
    44
1040
1.0
1070
    74
1070
     0
1000
MTEXTEND
  0
MTEXT
  5
3D0
330
1F
100
AcDbEntity
  8
0
100
AcDbMText
 10
146.1234688785069
 20
129.3853732927014
 30
0.0
 40
2.339449156700929
 41
16.38732070717815
 71
     1
 72
     5
  1
{\fTimes New Roman|b0|i0|c0|p18;GND}
 11
0.0000000000000001
 21
1.0
 31
0.0
 73
     1
 44
1.0
1001
ACAD
1000
MTEXTBEGIN
1070
    73
1070
     1
1070
    44
1040
1.0
1070
    74
1070
     0
1000
MTEXTEND
  0
MTEXT
  5
3D1
330
1F
100
AcDbEntity
  8
0
100
AcDbMText
 10
151.2234680401149
 20
129.3853732927014
 30
0.0
 40
2.339449156700929
 41
16.38732070717815
 71
     1
 72
     5
  1
{\fTimes New Roman|b0|i0|c0|p18;A5 +}
 11
0.0000000000000001
 21
1.0
 31
0.0
 73
     1
 44
1.0
1001
ACAD
1000
MTEXTBEGIN
1070
    73
1070
     1
1070
    44
1040
1.0
1070
    74
1070
     0
1000
MTEXTEND
  0
MTEXT
  5
3D2
330
1F
100
AcDbEntity
  8
0
100
AcDbMText
 10
156.3234672017229
 20
129.3853732927014
 30
0.0
 40
2.339449156700929
 41
16.38732070717815
 71
     1
 72
     5
  1
{\fTimes New Roman|b0|i0|c0|p18;B5 -}
 11
0.0000000000000001
 21
1.0
 31
0.0
 73
     1
 44
1.0
1001
ACAD
1000
MTEXTBEGIN
1070
    73
1070
     1
1070
    44
1040
1.0
1070
    74
1070
     0
1000
MTEXTEND
  0
MTEXT
  5
3D3
330
1F
100
AcDbEntity
  8
0
100
AcDbMText
 10
161.423466363331
 20
129.3853732927014
 30
0.0
 40
2.339449156700929
 41
16.38732070717815
 71
     1
 72
     5
  1
{\fTimes New Roman|b0|i0|c0|p18;GND}
 11
0.0000000000000001
 21
1.0
 31
0.0
 73
     1
 44
1.0
1001
ACAD
1000
MTEXTBEGIN
1070
    73
1070
     1
1070
    44
1040
1.0
1070
    74
1070
     0
1000
MTEXTEND
  0
MTEXT
  5
3D4
330
1F
100
AcDbEntity
  8
0
100
AcDbMText
 10
166.523465524939
 20
129.3853732927014
 30
0.0
 40
2.339449156700929
 41
16.38732070717815
 71
     1
 72
     5
  1
{\fTimes New Roman|b0|i0|c0|p18;A6 +}
 11
0.0000000000000001
 21
1.0
 31
0.0
 73
     1
 44
1.0
1001
ACAD
1000
MTEXTBEGIN
1070
    73
1070
     1
1070
    44
1040
1.0
1070
    74
1070
     0
1000
MTEXTEND
  0
MTEXT
  5
3D5
330
1F
100
AcDbEntity
  8
0
100
AcDbMText
 10
171.623464686547
 20
129.3853732927014
 30
0.0
 40
2.339449156700929
 41
16.38732070717815
 71
     1
 72
     5
  1
{\fTimes New Roman|b0|i0|c0|p18;B6 -}
 11
0.0000000000000001
 21
1.0
 31
0.0
 73
     1
 44
1.0
1001
ACAD
1000
MTEXTBEGIN
1070
    73
1070
     1
1070
    44
1040
1.0
1070
    74
1070
     0
1000
MTEXTEND
  0
MTEXT
  5
3D6
330
1F
100
AcDbEntity
  8
0
100
AcDbMText
 10
95.53564033008848
 20
220.7453751448529
 30
0.0
 40
2.339449541284402
 41
20.96115204163199
 71
     1
 72
     5
  1
{\fTimes New Roman|b0|i0|c0|p18;POWER IN}
 11
0.0000000000000001
 21
1.0
 31
0.0
 73
     1
 44
1.0
1001
ACAD
1000
MTEXTBEGIN
1070
    73
1070
     1
1070
    44
1040
1.0
1070
    74
1070
     0
1000
MTEXTEND
  0
MTEXT
  5
3D7
330
1F
100
AcDbEntity
  8
0
100
AcDbMText
 10
100.6356403300884
 20
220.7453751448529
 30
0.0
 40
2.339449541284402
 41
16.38732340109979
 71
     1
 72
     5
  1
{\fTimes New Roman|b0|i0|c0|p18;GND IN}
 11
0.0000000000000001
 21
1.0
 31
0.0
 73
     1
 44
1.0
1001
ACAD
1000
MTEXTBEGIN
1070
    73
1070
     1
1070
    44
1040
1.0
1070
    74
1070
     0
1000
MTEXTEND
  0
MTEXT
  5
3D8
330
1F
100
AcDbEntity
  8
0
100
AcDbMText
 10
110.8356403300884
 20
220.7453751448529
 30
0.0
 40
2.339449541284402
 41
16.38732340109979
 71
     1
 72
     5
  1
{\fTimes New Roman|b0|i0|c0|p18;GND}
 11
0.0000000000000001
 21
1.0
 31
0.0
 73
     1
 44
1.0
1001
ACAD
1000
MTEXTBEGIN
1070
    73
1070
     1
1070
    44
1040
1.0
1070
    74
1070
     0
1000
MTEXTEND
  0
MTEXT
  5
3D9
330
1F
100
AcDbEntity
  8
0
100
AcDbMText
 10
115.9356403300885
 20
220.7453751448529
 30
0.0
 40
2.339449541284402
 41
16.38732340109979
 71
     1
 72
     5
  1
{\fTimes New Roman|b0|i0|c0|p18;A +}
 11
0.0000000000000001
 21
1.0
 31
0.0
 73
     1
 44
1.0
1001
ACAD
1000
MTEXTBEGIN
1070
    73
1070
     1
1070
    44
1040
1.0
1070
    74
1070
     0
1000
MTEXTEND
  0
MTEXT
  5
3DA
330
1F
100
AcDbEntity
  8
0
100
AcDbMText
 10
121.0356403300885
 20
220.7453751448529
 30
0.0
 40
2.339449541284402
 41
16.38732340109979
 71
     1
 72
     5
  1
{\fTimes New Roman|b0|i0|c0|p18;B -}
 11
0.0000000000000001
 21
1.0
 31
0.0
 73
     1
 44
1.0
1001
ACAD
1000
MTEXTBEGIN
1070
    73
1070
     1
1070
    44
1040
1.0
1070
    74
1070
     0
1000
MTEXTEND
  0
MTEXT
  5
3DB
330
1F
100
AcDbEntity
  8
0
100
AcDbMText
 10
141.4356403300885
 20
220.7453751448529
 30
0.0
 40
2.339449541284402
 41
16.38732340109979
 71
     1
 72
     5
  1
{\fTimes New Roman|b0|i0|c0|p18;A8 +}
 11
0.0000000000000001
 21
1.0
 31
0.0
 73
     1
 44
1.0
1001
ACAD
1000
MTEXTBEGIN
1070
    73
1070
     1
1070
    44
1040
1.0
1070
    74
1070
     0
1000
MTEXTEND
  0
MTEXT
  5
3DC
330
1F
100
AcDbEntity
  8
0
100
AcDbMText
 10
146.5356403300885
 20
220.7453751448529
 30
0.0
 40
2.339449541284402
 41
16.38732340109979
 71
     1
 72
     5
  1
{\fTimes New Roman|b0|i0|c0|p18;GND}
 11
0.0000000000000001
 21
1.0
 31
0.0
 73
     1
 44
1.0
1001
ACAD
1000
MTEXTBEGIN
1070
    73
1070
     1
1070
    44
1040
1.0
1070
    74
1070
     0
1000
MTEXTEND
  0
MTEXT
  5
3DD
330
1F
100
AcDbEntity
  8
0
100
AcDbMText
 10
151.6356403300884
 20
220.7453751448529
 30
0.0
 40
2.339449541284402
 41
16.38732340109979
 71
     1
 72
     5
  1
{\fTimes New Roman|b0|i0|c0|p18;B7 -}
 11
0.0000000000000001
 21
1.0
 31
0.0
 73
     1
 44
1.0
1001
ACAD
1000
MTEXTBEGIN
1070
    73
1070
     1
1070
    44
1040
1.0
1070
    74
1070
     0
1000
MTEXTEND
  0
MTEXT
  5
3DE
330
1F
100
AcDbEntity
  8
0
100
AcDbMText
 10
156.7356403300884
 20
220.7453751448529
 30
0.0
 40
2.339449541284402
 41
16.38732340109979
 71
     1
 72
     5
  1
{\fTimes New Roman|b0|i0|c0|p18;A7 +}
 11
0.0000000000000001
 21
1.0
 31
0.0
 73
     1
 44
1.0
1001
ACAD
1000
MTEXTBEGIN
1070
    73
1070
     1
1070
    44
1040
1.0
1070
    74
1070
     0
1000
MTEXTEND
  0
MTEXT
  5
3DF
330
1F
100
AcDbEntity
  8
0
100
AcDbMText
 10
161.8356403300885
 20
220.7453751448529
 30
0.0
 40
2.339449541284402
 41
16.38732340109979
 71
     1
 72
     5
  1
{\fTimes New Roman|b0|i0|c0|p18;GND}
 11
0.0000000000000001
 21
1.0
 31
0.0
 73
     1
 44
1.0
1001
ACAD
1000
MTEXTBEGIN
1070
    73
1070
     1
1070
    44
1040
1.0
1070
    74
1070
     0
1000
MTEXTEND
  0
MTEXT
  5
3E0
330
1F
100
AcDbEntity
  8
0
100
AcDbMText
 10
136.3356403300885
 20
220.7453751448529
 30
0.0
 40
2.339449541284402
 41
16.38732340109979
 71
     1
 72
     5
  1
{\fTimes New Roman|b0|i0|c0|p18;B8 -}
 11
0.0000000000000001
 21
1.0
 31
0.0
 73
     1
 44
1.0
1001
ACAD
1000
MTEXTBEGIN
1070
    73
1070
     1
1070
    44
1040
1.0
1070
    74
1070
     0
1000
MTEXTEND
  0
LWPOLYLINE
  5
3E1
330
1F
100
AcDbEntity
  8
0
 62
     4
100
AcDbPolyline
 90
        3
 70
     0
 43
0.0
 10
94.1249062557614
 20
229.4912199380924
 10
94.1249062557614
 20
242.7412199380924
 10
104.3249062557614
 20
242.7412199380924
  0
LWPOLYLINE
  5
3E2
330
1F
100
AcDbEntity
  8
0
 62
     4
100
AcDbPolyline
 90
        2
 70
     0
 43
0.0
 10
83.22490625576142
 20
127.4969538830465
 10
175.0249062557614
 20
127.4969538830465
  0
LWPOLYLINE
  5
3E3
330
1F
100
AcDbEntity
  8
0
 62
     4
100
AcDbPolyline
 90
        4
 70
     1
 43
0.0
 10
83.22490625576142
 20
123.2274584702025
 10
83.22490625576142
 20
115.7412199380924
 10
88.3249062557614
 20
115.7412199380924
 10
88.3249062557614
 20
123.2274584702025
  0
CIRCLE
  5
3E4
330
1F
100
AcDbEntity
  8
0
 62
     4
100
AcDbCircle
 10
85.77490625576137
 20
119.5135823234134
 30
0.0
 40
1.871559633027521
  0
LWPOLYLINE
  5
3E5
330
1F
100
AcDbEntity
  8
0
 62
     4
100
AcDbPolyline
 90
        4
 70
     1
 43
0.0
 10
86.80943892710786
 20
118.0843084611395
 10
87.29468998911995
 20
118.6172905041485
 10
84.7403735844149
 20
120.9428561856874
 10
84.25512252240286
 20
120.4098741426785
  0
LWPOLYLINE
  5
3E6
330
1F
100
AcDbEntity
  8
0
 62
     4
100
AcDbPolyline
 90
        4
 70
     1
 43
0.0
 10
88.3249062557614
 20
123.2274584702025
 10
88.3249062557614
 20
115.7412199380924
 10
93.42490625576141
 20
115.7412199380924
 10
93.42490625576141
 20
123.2274584702025
  0
CIRCLE
  5
3E7
330
1F
100
AcDbEntity
  8
0
 62
     4
100
AcDbCircle
 10
90.8749062557614
 20
119.5135823234134
 30
0.0
 40
1.871559633027521
  0
LWPOLYLINE
  5
3E8
330
1F
100
AcDbEntity
  8
0
 62
     4
100
AcDbPolyline
 90
        4
 70
     1
 43
0.0
 10
91.90943892710789
 20
118.0843084611395
 10
92.39468998912002
 20
118.6172905041485
 10
89.84037358441492
 20
120.9428561856874
 10
89.3551225224029
 20
120.4098741426785
  0
LWPOLYLINE
  5
3E9
330
1F
100
AcDbEntity
  8
0
 62
     4
100
AcDbPolyline
 90
        4
 70
     1
 43
0.0
 10
93.42490625576141
 20
123.2274584702025
 10
93.42490625576141
 20
115.7412199380924
 10
98.52490625576137
 20
115.7412199380924
 10
98.52490625576137
 20
123.2274584702025
  0
CIRCLE
  5
3EA
330
1F
100
AcDbEntity
  8
0
 62
     4
100
AcDbCircle
 10
95.97490625576142
 20
119.5135823234134
 30
0.0
 40
1.871559633027521
  0
LWPOLYLINE
  5
3EB
330
1F
100
AcDbEntity
  8
0
 62
     4
100
AcDbPolyline
 90
        4
 70
     1
 43
0.0
 10
97.00943892710791
 20
118.0843084611395
 10
97.49468998912
 20
118.6172905041485
 10
94.94037358441493
 20
120.9428561856874
 10
94.45512252240281
 20
120.4098741426785
  0
LWPOLYLINE
  5
3EC
330
1F
100
AcDbEntity
  8
0
 62
     4
100
AcDbPolyline
 90
        4
 70
     1
 43
0.0
 10
98.52490625576137
 20
123.2274584702025
 10
98.52490625576137
 20
115.7412199380924
 10
103.6249062557614
 20
115.7412199380924
 10
103.6249062557614
 20
123.2274584702025
  0
CIRCLE
  5
3ED
330
1F
100
AcDbEntity
  8
0
 62
     4
100
AcDbCircle
 10
101.0749062557613
 20
119.5135823234134
 30
0.0
 40
1.871559633027521
  0
LWPOLYLINE
  5
3EE
330
1F
100
AcDbEntity
  8
0
 62
     4
100
AcDbPolyline
 90
        4
 70
     1
 43
0.0
 10
102.1094389271079
 20
118.0843084611395
 10
102.59468998912
 20
118.6172905041485
 10
100.0403735844149
 20
120.9428561856874
 10
99.55512252240289
 20
120.4098741426785
  0
LWPOLYLINE
  5
3EF
330
1F
100
AcDbEntity
  8
0
 62
     4
100
AcDbPolyline
 90
        4
 70
     1
 43
0.0
 10
103.6249062557614
 20
123.2274584702025
 10
103.6249062557614
 20
115.7412199380924
 10
108.7249062557613
 20
115.7412199380924
 10
108.7249062557613
 20
123.2274584702025
  0
CIRCLE
  5
3F0
330
1F
100
AcDbEntity
  8
0
 62
     4
100
AcDbCircle
 10
106.1749062557614
 20
119.5135823234134
 30
0.0
 40
1.871559633027521
  0
LWPOLYLINE
  5
3F1
330
1F
100
AcDbEntity
  8
0
 62
     4
100
AcDbPolyline
 90
        4
 70
     1
 43
0.0
 10
107.2094389271079
 20
118.0843084611395
 10
107.6946899891199
 20
118.6172905041485
 10
105.1403735844149
 20
120.9428561856874
 10
104.6551225224028
 20
120.4098741426785
  0
LWPOLYLINE
  5
3F2
330
1F
100
AcDbEntity
  8
0
 62
     4
100
AcDbPolyline
 90
        4
 70
     1
 43
0.0
 10
108.7249062557613
 20
123.2274584702025
 10
108.7249062557613
 20
115.7412199380924
 10
113.8249062557613
 20
115.7412199380924
 10
113.8249062557613
 20
123.2274584702025
  0
CIRCLE
  5
3F3
330
1F
100
AcDbEntity
  8
0
 62
     4
100
AcDbCircle
 10
111.2749062557614
 20
119.5135823234134
 30
0.0
 40
1.871559633027521
  0
LWPOLYLINE
  5
3F4
330
1F
100
AcDbEntity
  8
0
 62
     4
100
AcDbPolyline
 90
        4
 70
     1
 43
0.0
 10
112.3094389271079
 20
118.0843084611395
 10
112.7946899891199
 20
118.6172905041485
 10
110.2403735844149
 20
120.9428561856874
 10
109.7551225224028
 20
120.4098741426785
  0
LWPOLYLINE
  5
3F5
330
1F
100
AcDbEntity
  8
0
 62
     4
100
AcDbPolyline
 90
        4
 70
     1
 43
0.0
 10
113.8249062557613
 20
123.2274584702025
 10
113.8249062557613
 20
115.7412199380924
 10
118.9249062557614
 20
115.7412199380924
 10
118.9249062557614
 20
123.2274584702025
  0
CIRCLE
  5
3F6
330
1F
100
AcDbEntity
  8
0
 62
     4
100
AcDbCircle
 10
116.3749062557613
 20
119.5135823234134
 30
0.0
 40
1.871559633027521
  0
LWPOLYLINE
  5
3F7
330
1F
100
AcDbEntity
  8
0
 62
     4
100
AcDbPolyline
 90
        4
 70
     1
 43
0.0
 10
117.4094389271078
 20
118.0843084611395
 10
117.89468998912
 20
118.6172905041485
 10
115.3403735844149
 20
120.9428561856874
 10
114.8551225224028
 20
120.4098741426785
  0
LWPOLYLINE
  5
3F8
330
1F
100
AcDbEntity
  8
0
 62
     4
100
AcDbPolyline
 90
        4
 70
     1
 43
0.0
 10
118.9249062557614
 20
123.2274584702025
 10
118.9249062557614
 20
115.7412199380924
 10
124.0249062557614
 20
115.7412199380924
 10
124.0249062557614
 20
123.2274584702025
  0
CIRCLE
  5
3F9
330
1F
100
AcDbEntity
  8
0
 62
     4
100
AcDbCircle
 10
121.4749062557613
 20
119.5135823234134
 30
0.0
 40
1.871559633027521
  0
LWPOLYLINE
  5
3FA
330
1F
100
AcDbEntity
  8
0
 62
     4
100
AcDbPolyline
 90
        4
 70
     1
 43
0.0
 10
122.5094389271078
 20
118.0843084611395
 10
122.9946899891199
 20
118.6172905041485
 10
120.4403735844149
 20
120.9428561856874
 10
119.9551225224028
 20
120.4098741426785
  0
LWPOLYLINE
  5
3FB
330
1F
100
AcDbEntity
  8
0
 62
     4
100
AcDbPolyline
 90
        4
 70
     1
 43
0.0
 10
124.0249062557614
 20
123.2274584702025
 10
124.0249062557614
 20
115.7412199380924
 10
129.1249062557614
 20
115.7412199380924
 10
129.1249062557614
 20
123.2274584702025
  0
CIRCLE
  5
3FC
330
1F
100
AcDbEntity
  8
0
 62
     4
100
AcDbCircle
 10
126.5749062557613
 20
119.5135823234134
 30
0.0
 40
1.871559633027521
  0
LWPOLYLINE
  5
3FD
330
1F
100
AcDbEntity
  8
0
 62
     4
100
AcDbPolyline
 90
        4
 70
     1
 43
0.0
 10
127.6094389271079
 20
118.0843084611395
 10
128.0946899891199
 20
118.6172905041485
 10
125.5403735844149
 20
120.9428561856874
 10
125.0551225224029
 20
120.4098741426785
  0
LWPOLYLINE
  5
3FE
330
1F
100
AcDbEntity
  8
0
 62
     4
100
AcDbPolyline
 90
        4
 70
     1
 43
0.0
 10
129.1249062557614
 20
123.2274584702025
 10
129.1249062557614
 20
115.7412199380924
 10
134.2249062557614
 20
115.7412199380924
 10
134.2249062557614
 20
123.2274584702025
  0
CIRCLE
  5
3FF
330
1F
100
AcDbEntity
  8
0
 62
     4
100
AcDbCircle
 10
131.6749062557614
 20
119.5135823234134
 30
0.0
 40
1.871559633027521
  0
LWPOLYLINE
  5
400
330
1F
100
AcDbEntity
  8
0
 62
     4
100
AcDbPolyline
 90
        4
 70
     1
 43
0.0
 10
132.7094389271079
 20
118.0843084611395
 10
133.1946899891199
 20
118.6172905041485
 10
130.6403735844149
 20
120.9428561856874
 10
130.1551225224028
 20
120.4098741426785
  0
LWPOLYLINE
  5
401
330
1F
100
AcDbEntity
  8
0
 62
     4
100
AcDbPolyline
 90
        4
 70
     1
 43
0.0
 10
134.2249062557614
 20
123.2274584702025
 10
134.2249062557614
 20
115.7412199380924
 10
139.3249062557614
 20
115.7412199380924
 10
139.3249062557614
 20
123.2274584702025
  0
CIRCLE
  5
402
330
1F
100
AcDbEntity
  8
0
 62
     4
100
AcDbCircle
 10
136.7749062557614
 20
119.5135823234134
 30
0.0
 40
1.871559633027521
  0
LWPOLYLINE
  5
403
330
1F
100
AcDbEntity
  8
0
 62
     4
100
AcDbPolyline
 90
        4
 70
     1
 43
0.0
 10
137.8094389271078
 20
118.0843084611395
 10
138.2946899891199
 20
118.6172905041485
 10
135.7403735844149
 20
120.9428561856874
 10
135.2551225224028
 20
120.4098741426785
  0
LWPOLYLINE
  5
404
330
1F
100
AcDbEntity
  8
0
 62
     4
100
AcDbPolyline
 90
        4
 70
     1
 43
0.0
 10
139.3249062557614
 20
123.2274584702025
 10
139.3249062557614
 20
115.7412199380924
 10
144.4249062557614
 20
115.7412199380924
 10
144.4249062557614
 20
123.2274584702025
  0
CIRCLE
  5
405
330
1F
100
AcDbEntity
  8
0
 62
     4
100
AcDbCircle
 10
141.8749062557614
 20
119.5135823234134
 30
0.0
 40
1.871559633027521
  0
LWPOLYLINE
  5
406
330
1F
100
AcDbEntity
  8
0
 62
     4
100
AcDbPolyline
 90
        4
 70
     1
 43
0.0
 10
142.9094389271078
 20
118.0843084611395
 10
143.3946899891199
 20
118.6172905041485
 10
140.8403735844149
 20
120.9428561856874
 10
140.3551225224028
 20
120.4098741426785
  0
LWPOLYLINE
  5
407
330
1F
100
AcDbEntity
  8
0
 62
     4
100
AcDbPolyline
 90
        4
 70
     1
 43
0.0
 10
144.4249062557614
 20
123.2274584702025
 10
144.4249062557614
 20
115.7412199380924
 10
149.5249062557614
 20
115.7412199380924
 10
149.5249062557614
 20
123.2274584702025
  0
CIRCLE
  5
408
330
1F
100
AcDbEntity
  8
0
 62
     4
100
AcDbCircle
 10
146.9749062557613
 20
119.5135823234134
 30
0.0
 40
1.871559633027521
  0
LWPOLYLINE
  5
409
330
1F
100
AcDbEntity
  8
0
 62
     4
100
AcDbPolyline
 90
        4
 70
     1
 43
0.0
 10
148.0094389271079
 20
118.0843084611395
 10
148.4946899891199
 20
118.6172905041485
 10
145.9403735844149
 20
120.9428561856874
 10
145.4551225224028
 20
120.4098741426785
  0
LWPOLYLINE
  5
40A
330
1F
100
AcDbEntity
  8
0
 62
     4
100
AcDbPolyline
 90
        4
 70
     1
 43
0.0
 10
149.5249062557614
 20
123.2274584702025
 10
149.5249062557614
 20
115.7412199380924
 10
154.6249062557614
 20
115.7412199380924
 10
154.6249062557614
 20
123.2274584702025
  0
CIRCLE
  5
40B
330
1F
100
AcDbEntity
  8
0
 62
     4
100
AcDbCircle
 10
152.0749062557614
 20
119.5135823234134
 30
0.0
 40
1.871559633027521
  0
LWPOLYLINE
  5
40C
330
1F
100
AcDbEntity
  8
0
 62
     4
100
AcDbPolyline
 90
        4
 70
     1
 43
0.0
 10
153.1094389271079
 20
118.0843084611395
 10
153.5946899891199
 20
118.6172905041485
 10
151.0403735844149
 20
120.9428561856874
 10
150.5551225224028
 20
120.4098741426785
  0
LWPOLYLINE
  5
40D
330
1F
100
AcDbEntity
  8
0
 62
     4
100
AcDbPolyline
 90
        4
 70
     1
 43
0.0
 10
154.6249062557614
 20
123.2274584702025
 10
154.6249062557614
 20
115.7412199380924
 10
159.7249062557613
 20
115.7412199380924
 10
159.7249062557613
 20
123.2274584702025
  0
CIRCLE
  5
40E
330
1F
100
AcDbEntity
  8
0
 62
     4
100
AcDbCircle
 10
157.1749062557613
 20
119.5135823234134
 30
0.0
 40
1.871559633027521
  0
LWPOLYLINE
  5
40F
330
1F
100
AcDbEntity
  8
0
 62
     4
100
AcDbPolyline
 90
        4
 70
     1
 43
0.0
 10
158.2094389271078
 20
118.0843084611395
 10
158.6946899891199
 20
118.6172905041485
 10
156.1403735844149
 20
120.9428561856874
 10
155.6551225224028
 20
120.4098741426785
  0
LWPOLYLINE
  5
410
330
1F
100
AcDbEntity
  8
0
 62
     4
100
AcDbPolyline
 90
        4
 70
     1
 43
0.0
 10
159.7249062557613
 20
123.2274584702025
 10
159.7249062557613
 20
115.7412199380924
 10
164.8249062557614
 20
115.7412199380924
 10
164.8249062557614
 20
123.2274584702025
  0
CIRCLE
  5
411
330
1F
100
AcDbEntity
  8
0
 62
     4
100
AcDbCircle
 10
162.2749062557613
 20
119.5135823234134
 30
0.0
 40
1.871559633027521
  0
LWPOLYLINE
  5
412
330
1F
100
AcDbEntity
  8
0
 62
     4
100
AcDbPolyline
 90
        4
 70
     1
 43
0.0
 10
163.3094389271078
 20
118.0843084611395
 10
163.7946899891199
 20
118.6172905041485
 10
161.2403735844149
 20
120.9428561856874
 10
160.7551225224028
 20
120.4098741426785
  0
LWPOLYLINE
  5
413
330
1F
100
AcDbEntity
  8
0
 62
     4
100
AcDbPolyline
 90
        4
 70
     1
 43
0.0
 10
164.8249062557614
 20
123.2274584702025
 10
164.8249062557614
 20
115.7412199380924
 10
169.9249062557613
 20
115.7412199380924
 10
169.9249062557613
 20
123.2274584702025
  0
CIRCLE
  5
414
330
1F
100
AcDbEntity
  8
0
 62
     4
100
AcDbCircle
 10
167.3749062557613
 20
119.5135823234134
 30
0.0
 40
1.871559633027521
  0
LWPOLYLINE
  5
415
330
1F
100
AcDbEntity
  8
0
 62
     4
100
AcDbPolyline
 90
        4
 70
     1
 43
0.0
 10
168.4094389271079
 20
118.0843084611395
 10
168.8946899891199
 20
118.6172905041485
 10
166.3403735844149
 20
120.9428561856874
 10
165.8551225224027
 20
120.4098741426785
  0
LWPOLYLINE
  5
416
330
1F
100
AcDbEntity
  8
0
 62
     4
100
AcDbPolyline
 90
        4
 70
     1
 43
0.0
 10
169.9249062557613
 20
123.2274584702025
 10
169.9249062557613
 20
115.7412199380924
 10
175.0249062557614
 20
115.7412199380924
 10
175.0249062557614
 20
123.2274584702025
  0
CIRCLE
  5
417
330
1F
100
AcDbEntity
  8
0
 62
     4
100
AcDbCircle
 10
172.4749062557614
 20
119.5135823234134
 30
0.0
 40
1.871559633027521
  0
LWPOLYLINE
  5
418
330
1F
100
AcDbEntity
  8
0
 62
     4
100
AcDbPolyline
 90
        4
 70
     1
 43
0.0
 10
173.5094389271079
 20
118.0843084611395
 10
173.9946899891199
 20
118.6172905041485
 10
171.4403735844149
 20
120.9428561856874
 10
170.9551225224028
 20
120.4098741426785
  0
LWPOLYLINE
  5
419
330
1F
100
AcDbEntity
  8
0
 62
     4
100
AcDbPolyline
 90
        4
 70
     0
 43
0.0
 10
83.22490625576142
 20
128.9912199380924
 10
83.22490625576142
 20
115.7412199380924
 10
175.0249062557614
 20
115.7997061766246
 10
175.0249062557614
 20
128.9912199380924
  0
LWPOLYLINE
  5
41A
330
1F
100
AcDbEntity
  8
0
 62
     4
100
AcDbPolyline
 90
        4
 70
     0
 43
0.0
 10
94.1249062557614
 20
229.4912199380924
 10
94.1249062557614
 20
235.2549814059824
 10
104.3249062557614
 20
235.2549814059824
 10
104.3249062557614
 20
229.4912199380924
  0
LWPOLYLINE
  5
41B
330
1F
100
AcDbEntity
  8
0
 62
     4
100
AcDbPolyline
 90
        4
 70
     0
 43
0.0
 10
109.4249062557614
 20
229.4912199380924
 10
109.4249062557614
 20
235.2549814059824
 10
124.7249062557614
 20
235.2549814059824
 10
124.7249062557614
 20
229.4912199380924
  0
LWPOLYLINE
  5
41C
330
1F
100
AcDbEntity
  8
0
 62
     4
100
AcDbPolyline
 90
        4
 70
     0
 43
0.0
 10
134.9249062557614
 20
229.4912199380924
 10
134.9249062557614
 20
235.2549814059824
 10
165.5249062557615
 20
235.2549814059824
 10
165.5249062557615
 20
229.4912199380924
  0
LINE
  5
41D
330
1F
100
AcDbEntity
  8
0
100
AcDbLine
 10
70.3749062557614
 20
74.35062722824049
 30
0.0
 11
70.3749062557614
 21
69.35062722824049
 31
0.0
  0
LINE
  5
41E
330
1F
100
AcDbEntity
  8
0
100
AcDbLine
 10
70.3749062557614
 20
68.3506272282405
 30
0.0
 11
70.3749062557614
 21
25.35062722824049
 31
0.0
  0
LINE
  5
41F
330
1F
100
AcDbEntity
  8
0
100
AcDbLine
 10
70.3749062557614
 20
25.35062722824049
 30
0.0
 11
119.0186950329904
 21
25.35062722824049
 31
0.0
  0
LINE
  5
420
330
1F
100
AcDbEntity
  8
0
100
AcDbLine
 10
140.2311174768079
 20
25.35062722824049
 30
0.0
 11
188.874906254037
 21
25.35062722824049
 31
0.0
  0
LINE
  5
421
330
1F
100
AcDbEntity
  8
0
100
AcDbLine
 10
188.874906254037
 20
25.35062722824049
 30
0.0
 11
188.874906254037
 21
74.35062722824049
 31
0.0
  0
LINE
  5
422
330
1F
100
AcDbEntity
  8
0
100
AcDbLine
 10
187.8749062540371
 20
75.3506272282405
 30
0.0
 11
71.37490625576152
 21
75.3506272282405
 31
0.0
  0
LINE
  5
423
330
1F
100
AcDbEntity
  8
0
100
AcDbLine
 10
70.3749062557614
 20
69.35062722824049
 30
0.0
 11
188.874906254037
 21
69.35062722824049
 31
0.0
  0
LINE
  5
424
330
1F
100
AcDbEntity
  8
0
100
AcDbLine
 10
70.3749062557614
 20
49.35062722824049
 30
0.0
 11
188.874906254037
 21
49.35062722824049
 31
0.0
  0
LINE
  5
425
330
1F
100
AcDbEntity
  8
0
100
AcDbLine
 10
70.3749062557614
 20
49.35062722824049
 30
0.0
 11
70.3749062557614
 21
29.3506272282405
 31
0.0
  0
LINE
  5
426
330
1F
100
AcDbEntity
  8
0
100
AcDbLine
 10
70.3749062557614
 20
29.3506272282405
 30
0.0
 11
188.874906254037
 21
29.3506272282405
 31
0.0
  0
LINE
  5
427
330
1F
100
AcDbEntity
  8
0
100
AcDbLine
 10
70.3749062557614
 20
25.35062722824049
 30
0.0
 11
70.3749062557614
 21
20.35062722824049
 31
0.0
  0
LINE
  5
428
102
{ACAD_REACTORS
330
4CC
102
}
330
1F
100
AcDbEntity
  8
0
100
AcDbLine
 10
70.3749062557614
 20
20.35062722824049
 30
0.0
 11
188.874906254037
 21
20.35062722824049
 31
0.0
  0
LINE
  5
429
330
1F
100
AcDbEntity
  8
0
100
AcDbLine
 10
188.874906254037
 20
20.35062722824049
 30
0.0
 11
188.874906254037
 21
25.35062722824049
 31
0.0
  0
LINE
  5
42A
330
1F
100
AcDbEntity
  8
0
100
AcDbLine
 10
70.3749062557614
 20
69.35062722824049
 30
0.0
 11
80.3749062557614
 21
69.35062722824049
 31
0.0
  0
LINE
  5
42B
330
1F
100
AcDbEntity
  8
0
100
AcDbLine
 10
70.3749062557614
 20
69.35062722824049
 30
0.0
 11
75.3749062557614
 21
69.35062722824049
 31
0.0
  0
LINE
  5
42C
330
1F
100
AcDbEntity
  8
0
100
AcDbLine
 10
78.6249062548992
 20
69.35062722824049
 30
0.0
 11
78.6249062548992
 21
49.35062722824049
 31
0.0
  0
LWPOLYLINE
  5
42D
330
1F
100
AcDbEntity
  8
0
100
AcDbPolyline
 90
        4
 70
     1
 43
0.0
 10
78.6249062548992
 20
49.35062722824049
 10
80.62490625489919
 20
49.35062722824049
 10
80.62490625489919
 20
69.35062722824049
 10
78.6249062548992
 20
69.35062722824049
  0
LWPOLYLINE
  5
42E
330
1F
100
AcDbEntity
  8
0
100
AcDbPolyline
 90
        4
 70
     1
 43
0.0
 10
80.62490625489919
 20
49.35062722824049
 10
82.6249062548992
 20
49.35062722824049
 10
82.6249062548992
 20
69.35062722824049
 10
80.62490625489919
 20
69.35062722824049
  0
LWPOLYLINE
  5
42F
330
1F
100
AcDbEntity
  8
0
100
AcDbPolyline
 90
        4
 70
     1
 43
0.0
 10
82.6249062548992
 20
49.35062722824049
 10
84.6249062548992
 20
49.35062722824049
 10
84.6249062548992
 20
69.35062722824049
 10
82.6249062548992
 20
69.35062722824049
  0
LWPOLYLINE
  5
430
330
1F
100
AcDbEntity
  8
0
100
AcDbPolyline
 90
        4
 70
     1
 43
0.0
 10
84.6249062548992
 20
49.35062722824049
 10
86.62490625489921
 20
49.35062722824049
 10
86.62490625489921
 20
69.35062722824049
 10
84.6249062548992
 20
69.35062722824049
  0
LWPOLYLINE
  5
431
330
1F
100
AcDbEntity
  8
0
100
AcDbPolyline
 90
        4
 70
     1
 43
0.0
 10
86.62490625489921
 20
49.35062722824049
 10
88.6249062548992
 20
49.35062722824049
 10
88.6249062548992
 20
69.35062722824049
 10
86.62490625489921
 20
69.35062722824049
  0
LWPOLYLINE
  5
432
330
1F
100
AcDbEntity
  8
0
100
AcDbPolyline
 90
        4
 70
     1
 43
0.0
 10
88.6249062548992
 20
49.35062722824049
 10
90.62490625489919
 20
49.35062722824049
 10
90.62490625489919
 20
69.35062722824049
 10
88.6249062548992
 20
69.35062722824049
  0
LWPOLYLINE
  5
433
330
1F
100
AcDbEntity
  8
0
100
AcDbPolyline
 90
        4
 70
     1
 43
0.0
 10
90.62490625489919
 20
49.35062722824049
 10
92.6249062548992
 20
49.35062722824049
 10
92.6249062548992
 20
69.35062722824049
 10
90.62490625489919
 20
69.35062722824049
  0
LWPOLYLINE
  5
434
330
1F
100
AcDbEntity
  8
0
100
AcDbPolyline
 90
        4
 70
     1
 43
0.0
 10
92.6249062548992
 20
49.35062722824049
 10
94.6249062548992
 20
49.35062722824049
 10
94.6249062548992
 20
69.35062722824049
 10
92.6249062548992
 20
69.35062722824049
  0
LWPOLYLINE
  5
435
330
1F
100
AcDbEntity
  8
0
100
AcDbPolyline
 90
        4
 70
     1
 43
0.0
 10
94.6249062548992
 20
49.35062722824049
 10
96.62490625489921
 20
49.35062722824049
 10
96.62490625489921
 20
69.35062722824049
 10
94.6249062548992
 20
69.35062722824049
  0
LWPOLYLINE
  5
436
330
1F
100
AcDbEntity
  8
0
100
AcDbPolyline
 90
        4
 70
     1
 43
0.0
 10
96.62490625489921
 20
49.35062722824049
 10
98.6249062548992
 20
49.35062722824049
 10
98.6249062548992
 20
69.35062722824049
 10
96.62490625489921
 20
69.35062722824049
  0
LWPOLYLINE
  5
437
330
1F
100
AcDbEntity
  8
0
100
AcDbPolyline
 90
        4
 70
     1
 43
0.0
 10
98.6249062548992
 20
49.35062722824049
 10
100.6249062548991
 20
49.35062722824049
 10
100.6249062548991
 20
69.35062722824049
 10
98.6249062548992
 20
69.35062722824049
  0
LWPOLYLINE
  5
438
330
1F
100
AcDbEntity
  8
0
100
AcDbPolyline
 90
        4
 70
     1
 43
0.0
 10
100.6249062548991
 20
49.35062722824049
 10
102.6249062548991
 20
49.35062722824049
 10
102.6249062548991
 20
69.35062722824049
 10
100.6249062548991
 20
69.35062722824049
  0
LWPOLYLINE
  5
439
330
1F
100
AcDbEntity
  8
0
100
AcDbPolyline
 90
        4
 70
     1
 43
0.0
 10
102.6249062548991
 20
49.35062722824049
 10
104.6249062548991
 20
49.35062722824049
 10
104.6249062548991
 20
69.35062722824049
 10
102.6249062548991
 20
69.35062722824049
  0
LWPOLYLINE
  5
43A
330
1F
100
AcDbEntity
  8
0
100
AcDbPolyline
 90
        4
 70
     1
 43
0.0
 10
104.6249062548991
 20
49.35062722824049
 10
106.6249062548991
 20
49.35062722824049
 10
106.6249062548991
 20
69.35062722824049
 10
104.6249062548991
 20
69.35062722824049
  0
LWPOLYLINE
  5
43B
330
1F
100
AcDbEntity
  8
0
100
AcDbPolyline
 90
        4
 70
     1
 43
0.0
 10
106.6249062548991
 20
49.35062722824049
 10
108.6249062548992
 20
49.35062722824049
 10
108.6249062548992
 20
69.35062722824049
 10
106.6249062548991
 20
69.35062722824049
  0
LWPOLYLINE
  5
43C
330
1F
100
AcDbEntity
  8
0
100
AcDbPolyline
 90
        4
 70
     1
 43
0.0
 10
108.6249062548992
 20
49.35062722824049
 10
110.6249062548992
 20
49.35062722824049
 10
110.6249062548992
 20
69.35062722824049
 10
108.6249062548992
 20
69.35062722824049
  0
LWPOLYLINE
  5
43D
330
1F
100
AcDbEntity
  8
0
100
AcDbPolyline
 90
        4
 70
     1
 43
0.0
 10
110.6249062548992
 20
49.35062722824049
 10
112.6249062548992
 20
49.35062722824049
 10
112.6249062548992
 20
69.35062722824049
 10
110.6249062548992
 20
69.35062722824049
  0
LWPOLYLINE
  5
43E
330
1F
100
AcDbEntity
  8
0
100
AcDbPolyline
 90
        4
 70
     1
 43
0.0
 10
112.6249062548992
 20
49.35062722824049
 10
114.6249062548992
 20
49.35062722824049
 10
114.6249062548992
 20
69.35062722824049
 10
112.6249062548992
 20
69.35062722824049
  0
LWPOLYLINE
  5
43F
330
1F
100
AcDbEntity
  8
0
100
AcDbPolyline
 90
        4
 70
     1
 43
0.0
 10
114.6249062548992
 20
49.35062722824049
 10
116.6249062548992
 20
49.35062722824049
 10
116.6249062548992
 20
69.35062722824049
 10
114.6249062548992
 20
69.35062722824049
  0
LWPOLYLINE
  5
440
330
1F
100
AcDbEntity
  8
0
100
AcDbPolyline
 90
        4
 70
     1
 43
0.0
 10
116.6249062548992
 20
49.35062722824049
 10
118.6249062548991
 20
49.35062722824049
 10
118.6249062548991
 20
69.35062722824049
 10
116.6249062548992
 20
69.35062722824049
  0
LWPOLYLINE
  5
441
330
1F
100
AcDbEntity
  8
0
100
AcDbPolyline
 90
        4
 70
     1
 43
0.0
 10
118.6249062548991
 20
49.35062722824049
 10
120.6249062548991
 20
49.35062722824049
 10
120.6249062548991
 20
69.35062722824049
 10
118.6249062548991
 20
69.35062722824049
  0
LWPOLYLINE
  5
442
330
1F
100
AcDbEntity
  8
0
100
AcDbPolyline
 90
        4
 70
     1
 43
0.0
 10
120.6249062548991
 20
49.35062722824049
 10
122.6249062548991
 20
49.35062722824049
 10
122.6249062548991
 20
69.35062722824049
 10
120.6249062548991
 20
69.35062722824049
  0
LWPOLYLINE
  5
443
330
1F
100
AcDbEntity
  8
0
100
AcDbPolyline
 90
        4
 70
     1
 43
0.0
 10
122.6249062548991
 20
49.35062722824049
 10
124.6249062548991
 20
49.35062722824049
 10
124.6249062548991
 20
69.35062722824049
 10
122.6249062548991
 20
69.35062722824049
  0
LWPOLYLINE
  5
444
330
1F
100
AcDbEntity
  8
0
100
AcDbPolyline
 90
        4
 70
     1
 43
0.0
 10
124.6249062548991
 20
49.35062722824049
 10
126.6249062548991
 20
49.35062722824049
 10
126.6249062548991
 20
69.35062722824049
 10
124.6249062548991
 20
69.35062722824049
  0
LWPOLYLINE
  5
445
330
1F
100
AcDbEntity
  8
0
100
AcDbPolyline
 90
        4
 70
     1
 43
0.0
 10
126.6249062548991
 20
49.35062722824049
 10
128.6249062548991
 20
49.35062722824049
 10
128.6249062548991
 20
69.35062722824049
 10
126.6249062548991
 20
69.35062722824049
  0
LWPOLYLINE
  5
446
330
1F
100
AcDbEntity
  8
0
100
AcDbPolyline
 90
        4
 70
     1
 43
0.0
 10
128.6249062548991
 20
49.35062722824049
 10
130.6249062548991
 20
49.35062722824049
 10
130.6249062548991
 20
69.35062722824049
 10
128.6249062548991
 20
69.35062722824049
  0
LWPOLYLINE
  5
447
330
1F
100
AcDbEntity
  8
0
100
AcDbPolyline
 90
        4
 70
     1
 43
0.0
 10
130.6249062548991
 20
49.35062722824049
 10
132.6249062548991
 20
49.35062722824049
 10
132.6249062548991
 20
69.35062722824049
 10
130.6249062548991
 20
69.35062722824049
  0
LWPOLYLINE
  5
448
330
1F
100
AcDbEntity
  8
0
100
AcDbPolyline
 90
        4
 70
     1
 43
0.0
 10
132.6249062548991
 20
49.35062722824049
 10
134.6249062548992
 20
49.35062722824049
 10
134.6249062548992
 20
69.35062722824049
 10
132.6249062548991
 20
69.35062722824049
  0
LWPOLYLINE
  5
449
330
1F
100
AcDbEntity
  8
0
100
AcDbPolyline
 90
        4
 70
     1
 43
0.0
 10
134.6249062548992
 20
49.35062722824049
 10
136.6249062548992
 20
49.35062722824049
 10
136.6249062548992
 20
69.35062722824049
 10
134.6249062548992
 20
69.35062722824049
  0
LWPOLYLINE
  5
44A
330
1F
100
AcDbEntity
  8
0
100
AcDbPolyline
 90
        4
 70
     1
 43
0.0
 10
136.6249062548992
 20
49.35062722824049
 10
138.6249062548992
 20
49.35062722824049
 10
138.6249062548992
 20
69.35062722824049
 10
136.6249062548992
 20
69.35062722824049
  0
LWPOLYLINE
  5
44B
330
1F
100
AcDbEntity
  8
0
100
AcDbPolyline
 90
        4
 70
     1
 43
0.0
 10
138.6249062548992
 20
49.35062722824049
 10
140.6249062548992
 20
49.35062722824049
 10
140.6249062548992
 20
69.35062722824049
 10
138.6249062548992
 20
69.35062722824049
  0
LWPOLYLINE
  5
44C
330
1F
100
AcDbEntity
  8
0
100
AcDbPolyline
 90
        4
 70
     1
 43
0.0
 10
140.6249062548992
 20
49.35062722824049
 10
142.6249062548992
 20
49.35062722824049
 10
142.6249062548992
 20
69.35062722824049
 10
140.6249062548992
 20
69.35062722824049
  0
LWPOLYLINE
  5
44D
330
1F
100
AcDbEntity
  8
0
100
AcDbPolyline
 90
        4
 70
     1
 43
0.0
 10
142.6249062548992
 20
49.35062722824049
 10
144.6249062548991
 20
49.35062722824049
 10
144.6249062548991
 20
69.35062722824049
 10
142.6249062548992
 20
69.35062722824049
  0
LWPOLYLINE
  5
44E
330
1F
100
AcDbEntity
  8
0
100
AcDbPolyline
 90
        4
 70
     1
 43
0.0
 10
144.6249062548991
 20
49.35062722824049
 10
146.6249062548991
 20
49.35062722824049
 10
146.6249062548991
 20
69.35062722824049
 10
144.6249062548991
 20
69.35062722824049
  0
LWPOLYLINE
  5
44F
330
1F
100
AcDbEntity
  8
0
100
AcDbPolyline
 90
        4
 70
     1
 43
0.0
 10
146.6249062548991
 20
49.35062722824049
 10
148.6249062548991
 20
49.35062722824049
 10
148.6249062548991
 20
69.35062722824049
 10
146.6249062548991
 20
69.35062722824049
  0
LWPOLYLINE
  5
450
330
1F
100
AcDbEntity
  8
0
100
AcDbPolyline
 90
        4
 70
     1
 43
0.0
 10
148.6249062548991
 20
49.35062722824049
 10
150.6249062548991
 20
49.35062722824049
 10
150.6249062548991
 20
69.35062722824049
 10
148.6249062548991
 20
69.35062722824049
  0
LWPOLYLINE
  5
451
330
1F
100
AcDbEntity
  8
0
100
AcDbPolyline
 90
        4
 70
     1
 43
0.0
 10
150.6249062548991
 20
49.35062722824049
 10
152.6249062548991
 20
49.35062722824049
 10
152.6249062548991
 20
69.35062722824049
 10
150.6249062548991
 20
69.35062722824049
  0
LWPOLYLINE
  5
452
330
1F
100
AcDbEntity
  8
0
100
AcDbPolyline
 90
        4
 70
     1
 43
0.0
 10
152.6249062548991
 20
49.35062722824049
 10
154.6249062548991
 20
49.35062722824049
 10
154.6249062548991
 20
69.35062722824049
 10
152.6249062548991
 20
69.35062722824049
  0
LWPOLYLINE
  5
453
330
1F
100
AcDbEntity
  8
0
100
AcDbPolyline
 90
        4
 70
     1
 43
0.0
 10
154.6249062548991
 20
49.35062722824049
 10
156.6249062548991
 20
49.35062722824049
 10
156.6249062548991
 20
69.35062722824049
 10
154.6249062548991
 20
69.35062722824049
  0
LWPOLYLINE
  5
454
330
1F
100
AcDbEntity
  8
0
100
AcDbPolyline
 90
        4
 70
     1
 43
0.0
 10
156.6249062548991
 20
49.35062722824049
 10
158.6249062548992
 20
49.35062722824049
 10
158.6249062548992
 20
69.35062722824049
 10
156.6249062548991
 20
69.35062722824049
  0
LWPOLYLINE
  5
455
330
1F
100
AcDbEntity
  8
0
100
AcDbPolyline
 90
        4
 70
     1
 43
0.0
 10
158.6249062548992
 20
49.35062722824049
 10
160.6249062548992
 20
49.35062722824049
 10
160.6249062548992
 20
69.35062722824049
 10
158.6249062548992
 20
69.35062722824049
  0
LWPOLYLINE
  5
456
330
1F
100
AcDbEntity
  8
0
100
AcDbPolyline
 90
        4
 70
     1
 43
0.0
 10
160.6249062548992
 20
49.35062722824049
 10
162.6249062548992
 20
49.35062722824049
 10
162.6249062548992
 20
69.35062722824049
 10
160.6249062548992
 20
69.35062722824049
  0
LWPOLYLINE
  5
457
330
1F
100
AcDbEntity
  8
0
100
AcDbPolyline
 90
        4
 70
     1
 43
0.0
 10
162.6249062548992
 20
49.35062722824049
 10
164.6249062548992
 20
49.35062722824049
 10
164.6249062548992
 20
69.35062722824049
 10
162.6249062548992
 20
69.35062722824049
  0
LWPOLYLINE
  5
458
330
1F
100
AcDbEntity
  8
0
100
AcDbPolyline
 90
        4
 70
     1
 43
0.0
 10
164.6249062548992
 20
49.35062722824049
 10
166.6249062548992
 20
49.35062722824049
 10
166.6249062548992
 20
69.35062722824049
 10
164.6249062548992
 20
69.35062722824049
  0
LWPOLYLINE
  5
459
330
1F
100
AcDbEntity
  8
0
100
AcDbPolyline
 90
        4
 70
     1
 43
0.0
 10
166.6249062548992
 20
49.35062722824049
 10
168.6249062548992
 20
49.35062722824049
 10
168.6249062548992
 20
69.35062722824049
 10
166.6249062548992
 20
69.35062722824049
  0
LWPOLYLINE
  5
45A
330
1F
100
AcDbEntity
  8
0
100
AcDbPolyline
 90
        4
 70
     1
 43
0.0
 10
168.6249062548992
 20
49.35062722824049
 10
170.6249062548991
 20
49.35062722824049
 10
170.6249062548991
 20
69.35062722824049
 10
168.6249062548992
 20
69.35062722824049
  0
LWPOLYLINE
  5
45B
330
1F
100
AcDbEntity
  8
0
100
AcDbPolyline
 90
        4
 70
     1
 43
0.0
 10
170.6249062548991
 20
49.35062722824049
 10
172.6249062548991
 20
49.35062722824049
 10
172.6249062548991
 20
69.35062722824049
 10
170.6249062548991
 20
69.35062722824049
  0
LWPOLYLINE
  5
45C
330
1F
100
AcDbEntity
  8
0
100
AcDbPolyline
 90
        4
 70
     1
 43
0.0
 10
172.6249062548991
 20
49.35062722824049
 10
174.6249062548991
 20
49.35062722824049
 10
174.6249062548991
 20
69.35062722824049
 10
172.6249062548991
 20
69.35062722824049
  0
LWPOLYLINE
  5
45D
330
1F
100
AcDbEntity
  8
0
100
AcDbPolyline
 90
        4
 70
     1
 43
0.0
 10
174.6249062548991
 20
49.35062722824049
 10
176.6249062548991
 20
49.35062722824049
 10
176.6249062548991
 20
69.35062722824049
 10
174.6249062548991
 20
69.35062722824049
  0
LWPOLYLINE
  5
45E
330
1F
100
AcDbEntity
  8
0
100
AcDbPolyline
 90
        4
 70
     1
 43
0.0
 10
176.6249062548991
 20
49.35062722824049
 10
178.6249062548991
 20
49.35062722824049
 10
178.6249062548991
 20
69.35062722824049
 10
176.6249062548991
 20
69.35062722824049
  0
LWPOLYLINE
  5
45F
330
1F
100
AcDbEntity
  8
0
100
AcDbPolyline
 90
        4
 70
     1
 43
0.0
 10
178.6249062548991
 20
49.35062722824049
 10
180.6249062548991
 20
49.35062722824049
 10
180.6249062548991
 20
69.35062722824049
 10
178.6249062548991
 20
69.35062722824049
  0
LWPOLYLINE
  5
460
330
1F
100
AcDbEntity
  8
0
100
AcDbPolyline
 90
        4
 70
     1
 43
0.0
 10
119.0186950329904
 20
26.28993281557705
 10
140.2311174768079
 20
26.28993281557705
 10
140.2311174768079
 20
23.04437241541863
 10
119.0186950329904
 20
23.04437241541863
  0
LWPOLYLINE
  5
461
330
1F
100
AcDbEntity
  8
0
100
AcDbPolyline
 90
        4
 70
     1
 43
0.0
 10
126.4936387570521
 20
23.04437241541863
 10
132.7014861787387
 20
23.04437241541863
 10
132.7014861787387
 20
20.35062722824049
 10
126.4936387570521
 20
20.35062722824049
  0
LINE
  5
462
330
1F
100
AcDbEntity
  8
0
100
AcDbLine
 10
125.9936387570521
 20
23.04437241541863
 30
0.0
 11
125.9936387570521
 21
20.35062722824049
 31
0.0
  0
LINE
  5
463
330
1F
100
AcDbEntity
  8
0
100
AcDbLine
 10
132.7014861787387
 20
23.04437241541863
 30
0.0
 11
133.2014861787387
 21
23.04437241541863
 31
0.0
  0
LINE
  5
464
330
1F
100
AcDbEntity
  8
0
100
AcDbLine
 10
133.2014861787387
 20
23.04437241541863
 30
0.0
 11
133.2014861787387
 21
20.35062722824049
 31
0.0
  0
LINE
  5
465
330
1F
100
AcDbEntity
  8
0
100
AcDbLine
 10
78.6249062548992
 20
47.35062722824049
 30
0.0
 11
78.6249062548992
 21
29.3506272282405
 31
0.0
  0
LINE
  5
466
330
1F
100
AcDbEntity
  8
0
100
AcDbLine
 10
180.6249062548991
 20
47.35062722824049
 30
0.0
 11
180.6249062548991
 21
29.3506272282405
 31
0.0
  0
LINE
  5
467
330
1F
100
AcDbEntity
  8
0
100
AcDbLine
 10
180.6249062548991
 20
47.35062722824049
 30
0.0
 11
78.6249062548992
 21
47.35062722824049
 31
0.0
  0
LWPOLYLINE
  5
468
330
1F
100
AcDbEntity
  8
0
 62
     4
100
AcDbPolyline
 90
        4
 70
     0
 43
0.0
 10
99.62490625489909
 20
46.06406393521528
 10
79.62490625489897
 20
46.06406393521528
 10
79.62490625489897
 20
30.06406393521528
 10
99.62490625489909
 20
30.06406393521528
  0
LWPOLYLINE
  5
469
330
1F
100
AcDbEntity
  8
0
 62
     4
100
AcDbPolyline
 90
        2
 70
     0
 43
0.0
 10
99.62490625489909
 20
31.56406393521529
 10
99.62490625489909
 20
38.06406393521529
  0
LINE
  5
46A
330
1F
100
AcDbEntity
  8
0
 62
     4
100
AcDbLine
 10
89.62490625489909
 20
31.56406393521529
 30
0.0
 11
89.62490625489909
 21
38.06406393521529
 31
0.0
  0
LINE
  5
46B
330
1F
100
AcDbEntity
  8
0
 62
     4
100
AcDbLine
 10
99.62490625489909
 20
38.06406393521529
 30
0.0
 11
79.62490625489897
 21
38.06406393521529
 31
0.0
  0
LINE
  5
46C
330
1F
100
AcDbEntity
  8
0
 62
     4
100
AcDbLine
 10
94.62490625489909
 20
31.56406393521529
 30
0.0
 11
94.62490625489909
 21
38.06406393521529
 31
0.0
  0
LINE
  5
46D
330
1F
100
AcDbEntity
  8
0
 62
     4
100
AcDbLine
 10
84.62490625489909
 20
31.56406393521529
 30
0.0
 11
84.62490625489909
 21
38.06406393521529
 31
0.0
  0
LINE
  5
46E
330
1F
100
AcDbEntity
  8
0
 62
     4
100
AcDbLine
 10
99.62490625489909
 20
31.56406393521529
 30
0.0
 11
79.62490625489897
 21
31.56406393521529
 31
0.0
  0
LWPOLYLINE
  5
46F
330
1F
100
AcDbEntity
  8
0
 62
     4
100
AcDbPolyline
 90
        4
 70
     1
 43
0.0
 10
99.24900675511992
 20
32.54221214688896
 10
95.00028064404705
 20
32.54221214688896
 10
95.00028064404705
 20
37.8367564037333
 10
99.24900675511992
 20
37.8367564037333
  0
LWPOLYLINE
  5
470
330
1F
100
AcDbEntity
  8
0
 62
     4
100
AcDbPolyline
 90
        4
 70
     1
 43
0.0
 10
94.24848164448883
 20
32.54221214688896
 10
89.99975553341597
 20
32.54221214688896
 10
89.99975553341597
 20
37.8367564037333
 10
94.24848164448883
 20
37.8367564037333
  0
LWPOLYLINE
  5
471
330
1F
100
AcDbEntity
  8
0
 62
     4
100
AcDbPolyline
 90
        4
 70
     1
 43
0.0
 10
89.26058330778506
 20
32.54221214688896
 10
85.01185719671218
 20
32.54221214688896
 10
85.01185719671218
 20
37.8367564037333
 10
89.26058330778506
 20
37.8367564037333
  0
LWPOLYLINE
  5
472
330
1F
100
AcDbEntity
  8
0
 62
     4
100
AcDbPolyline
 90
        4
 70
     1
 43
0.0
 10
84.24241591023781
 20
32.54221214688896
 10
79.99368979916482
 20
32.54221214688896
 10
79.99368979916482
 20
37.8367564037333
 10
84.24241591023781
 20
37.8367564037333
  0
LINE
  5
473
330
1F
100
AcDbEntity
  8
0
 62
     0
100
AcDbLine
 10
99.24900675511992
 20
36.04058191802624
 30
0.0
 11
95.00028064404705
 21
36.04058191802624
 31
0.0
  0
LINE
  5
474
330
1F
100
AcDbEntity
  8
0
 62
     0
100
AcDbLine
 10
94.24848164448883
 20
36.04058191802624
 30
0.0
 11
89.99975553341597
 21
36.04058191802624
 31
0.0
  0
LINE
  5
475
330
1F
100
AcDbEntity
  8
0
 62
     0
100
AcDbLine
 10
89.26058330778506
 20
36.04058191802624
 30
0.0
 11
85.01185719671218
 21
36.04058191802624
 31
0.0
  0
LINE
  5
476
330
1F
100
AcDbEntity
  8
0
 62
     0
100
AcDbLine
 10
84.24241591023781
 20
36.04058191802624
 30
0.0
 11
79.99368979916482
 21
36.04058191802624
 31
0.0
  0
LINE
  5
477
330
1F
100
AcDbEntity
  8
0
 62
     4
100
AcDbLine
 10
99.62490625489909
 20
45.56406393521529
 30
0.0
 11
79.62490625489897
 21
45.56406393521529
 31
0.0
  0
LWPOLYLINE
  5
478
330
1F
100
AcDbEntity
  8
0
 62
     4
100
AcDbPolyline
 90
        2
 70
     0
 43
0.0
 10
99.62490625489909
 20
38.06406393521529
 10
99.62490625489909
 20
31.56406393521529
  0
LWPOLYLINE
  5
479
330
1F
100
AcDbEntity
  8
0
 62
     4
100
AcDbPolyline
 90
        2
 70
     0
 43
0.0
 10
99.62490625489909
 20
30.06406393521528
 10
119.6249062548991
 20
30.06406393521528
  0
LWPOLYLINE
  5
47A
330
1F
100
AcDbEntity
  8
0
 62
     4
100
AcDbPolyline
 90
        2
 70
     0
 43
0.0
 10
119.6249062548991
 20
31.56406393521529
 10
119.6249062548991
 20
38.06406393521529
  0
LWPOLYLINE
  5
47B
330
1F
100
AcDbEntity
  8
0
 62
     4
100
AcDbPolyline
 90
        2
 70
     0
 43
0.0
 10
119.6249062548991
 20
46.06406393521528
 10
99.62490625489909
 20
46.06406393521528
  0
LINE
  5
47C
330
1F
100
AcDbEntity
  8
0
 62
     4
100
AcDbLine
 10
109.6249062548991
 20
31.56406393521529
 30
0.0
 11
109.6249062548991
 21
38.06406393521529
 31
0.0
  0
LINE
  5
47D
330
1F
100
AcDbEntity
  8
0
 62
     4
100
AcDbLine
 10
119.6249062548991
 20
38.06406393521529
 30
0.0
 11
99.62490625489909
 21
38.06406393521529
 31
0.0
  0
LINE
  5
47E
330
1F
100
AcDbEntity
  8
0
 62
     4
100
AcDbLine
 10
114.6249062548991
 20
31.56406393521529
 30
0.0
 11
114.6249062548991
 21
38.06406393521529
 31
0.0
  0
LINE
  5
47F
330
1F
100
AcDbEntity
  8
0
 62
     4
100
AcDbLine
 10
104.6249062548991
 20
31.56406393521529
 30
0.0
 11
104.6249062548991
 21
38.06406393521529
 31
0.0
  0
LINE
  5
480
330
1F
100
AcDbEntity
  8
0
 62
     4
100
AcDbLine
 10
119.6249062548991
 20
31.56406393521529
 30
0.0
 11
99.62490625489909
 21
31.56406393521529
 31
0.0
  0
LWPOLYLINE
  5
481
330
1F
100
AcDbEntity
  8
0
 62
     4
100
AcDbPolyline
 90
        4
 70
     1
 43
0.0
 10
119.2490067551199
 20
32.54221214688896
 10
115.0002806440471
 20
32.54221214688896
 10
115.0002806440471
 20
37.8367564037333
 10
119.2490067551199
 20
37.8367564037333
  0
LWPOLYLINE
  5
482
330
1F
100
AcDbEntity
  8
0
 62
     4
100
AcDbPolyline
 90
        4
 70
     1
 43
0.0
 10
114.2484816444888
 20
32.54221214688896
 10
109.999755533416
 20
32.54221214688896
 10
109.999755533416
 20
37.8367564037333
 10
114.2484816444888
 20
37.8367564037333
  0
LWPOLYLINE
  5
483
330
1F
100
AcDbEntity
  8
0
 62
     4
100
AcDbPolyline
 90
        4
 70
     1
 43
0.0
 10
109.260583307785
 20
32.54221214688896
 10
105.0118571967122
 20
32.54221214688896
 10
105.0118571967122
 20
37.8367564037333
 10
109.260583307785
 20
37.8367564037333
  0
LWPOLYLINE
  5
484
330
1F
100
AcDbEntity
  8
0
 62
     4
100
AcDbPolyline
 90
        4
 70
     1
 43
0.0
 10
104.2424159102378
 20
32.54221214688896
 10
99.99368979916495
 20
32.54221214688896
 10
99.99368979916495
 20
37.8367564037333
 10
104.2424159102378
 20
37.8367564037333
  0
LINE
  5
485
330
1F
100
AcDbEntity
  8
0
 62
     0
100
AcDbLine
 10
119.2490067551199
 20
36.04058191802624
 30
0.0
 11
115.0002806440471
 21
36.04058191802624
 31
0.0
  0
LINE
  5
486
330
1F
100
AcDbEntity
  8
0
 62
     0
100
AcDbLine
 10
114.2484816444888
 20
36.04058191802624
 30
0.0
 11
109.999755533416
 21
36.04058191802624
 31
0.0
  0
LINE
  5
487
330
1F
100
AcDbEntity
  8
0
 62
     0
100
AcDbLine
 10
109.260583307785
 20
36.04058191802624
 30
0.0
 11
105.0118571967122
 21
36.04058191802624
 31
0.0
  0
LINE
  5
488
330
1F
100
AcDbEntity
  8
0
 62
     0
100
AcDbLine
 10
104.2424159102378
 20
36.04058191802624
 30
0.0
 11
99.99368979916495
 21
36.04058191802624
 31
0.0
  0
LINE
  5
489
330
1F
100
AcDbEntity
  8
0
 62
     4
100
AcDbLine
 10
119.6249062548991
 20
45.56406393521529
 30
0.0
 11
99.62490625489909
 21
45.56406393521529
 31
0.0
  0
LWPOLYLINE
  5
48A
330
1F
100
AcDbEntity
  8
0
 62
     4
100
AcDbPolyline
 90
        2
 70
     0
 43
0.0
 10
119.6249062548991
 20
38.06406393521529
 10
119.6249062548991
 20
31.56406393521529
  0
LWPOLYLINE
  5
48B
330
1F
100
AcDbEntity
  8
0
 62
     4
100
AcDbPolyline
 90
        2
 70
     0
 43
0.0
 10
119.6249062548991
 20
30.06406393521528
 10
139.6249062548992
 20
30.06406393521528
  0
LWPOLYLINE
  5
48C
330
1F
100
AcDbEntity
  8
0
 62
     4
100
AcDbPolyline
 90
        2
 70
     0
 43
0.0
 10
139.6249062548992
 20
31.56406393521529
 10
139.6249062548992
 20
38.06406393521529
  0
LWPOLYLINE
  5
48D
330
1F
100
AcDbEntity
  8
0
 62
     4
100
AcDbPolyline
 90
        2
 70
     0
 43
0.0
 10
139.6249062548992
 20
46.06406393521528
 10
119.6249062548991
 20
46.06406393521528
  0
LINE
  5
48E
330
1F
100
AcDbEntity
  8
0
 62
     4
100
AcDbLine
 10
129.6249062548991
 20
30.06406393521528
 30
0.0
 11
129.6249062548991
 21
46.06406393521528
 31
0.0
  0
LINE
  5
48F
330
1F
100
AcDbEntity
  8
0
 62
     4
100
AcDbLine
 10
139.6249062548992
 20
38.06406393521529
 30
0.0
 11
119.6249062548991
 21
38.06406393521529
 31
0.0
  0
LINE
  5
490
330
1F
100
AcDbEntity
  8
0
 62
     4
100
AcDbLine
 10
134.6249062548992
 20
31.56406393521529
 30
0.0
 11
134.6249062548992
 21
38.06406393521529
 31
0.0
  0
LINE
  5
491
330
1F
100
AcDbEntity
  8
0
 62
     4
100
AcDbLine
 10
124.6249062548991
 20
31.56406393521529
 30
0.0
 11
124.6249062548991
 21
38.06406393521529
 31
0.0
  0
LINE
  5
492
330
1F
100
AcDbEntity
  8
0
 62
     4
100
AcDbLine
 10
139.6249062548992
 20
31.56406393521529
 30
0.0
 11
119.6249062548991
 21
31.56406393521529
 31
0.0
  0
LWPOLYLINE
  5
493
330
1F
100
AcDbEntity
  8
0
 62
     4
100
AcDbPolyline
 90
        4
 70
     1
 43
0.0
 10
139.24900675512
 20
32.54221214688896
 10
135.0002806440471
 20
32.54221214688896
 10
135.0002806440471
 20
37.8367564037333
 10
139.24900675512
 20
37.8367564037333
  0
LWPOLYLINE
  5
494
330
1F
100
AcDbEntity
  8
0
 62
     4
100
AcDbPolyline
 90
        4
 70
     1
 43
0.0
 10
134.2484816444889
 20
32.54221214688896
 10
129.999755533416
 20
32.54221214688896
 10
129.999755533416
 20
37.8367564037333
 10
134.2484816444889
 20
37.8367564037333
  0
LWPOLYLINE
  5
495
330
1F
100
AcDbEntity
  8
0
 62
     4
100
AcDbPolyline
 90
        4
 70
     1
 43
0.0
 10
129.2605833077851
 20
32.54221214688896
 10
125.0118571967123
 20
32.54221214688896
 10
125.0118571967123
 20
37.8367564037333
 10
129.2605833077851
 20
37.8367564037333
  0
LWPOLYLINE
  5
496
330
1F
100
AcDbEntity
  8
0
 62
     4
100
AcDbPolyline
 90
        4
 70
     1
 43
0.0
 10
124.2424159102379
 20
32.54221214688896
 10
119.993689799165
 20
32.54221214688896
 10
119.993689799165
 20
37.8367564037333
 10
124.2424159102379
 20
37.8367564037333
  0
LINE
  5
497
330
1F
100
AcDbEntity
  8
0
 62
     0
100
AcDbLine
 10
139.24900675512
 20
36.04058191802624
 30
0.0
 11
135.0002806440471
 21
36.04058191802624
 31
0.0
  0
LINE
  5
498
330
1F
100
AcDbEntity
  8
0
 62
     0
100
AcDbLine
 10
134.2484816444889
 20
36.04058191802624
 30
0.0
 11
129.999755533416
 21
36.04058191802624
 31
0.0
  0
LINE
  5
499
330
1F
100
AcDbEntity
  8
0
 62
     0
100
AcDbLine
 10
129.2605833077851
 20
36.04058191802624
 30
0.0
 11
125.0118571967123
 21
36.04058191802624
 31
0.0
  0
LINE
  5
49A
330
1F
100
AcDbEntity
  8
0
 62
     0
100
AcDbLine
 10
124.2424159102379
 20
36.04058191802624
 30
0.0
 11
119.993689799165
 21
36.04058191802624
 31
0.0
  0
LINE
  5
49B
330
1F
100
AcDbEntity
  8
0
 62
     4
100
AcDbLine
 10
139.6249062548992
 20
45.56406393521529
 30
0.0
 11
119.6249062548991
 21
45.56406393521529
 31
0.0
  0
LWPOLYLINE
  5
49C
330
1F
100
AcDbEntity
  8
0
 62
     4
100
AcDbPolyline
 90
        2
 70
     0
 43
0.0
 10
139.6249062548992
 20
38.06406393521529
 10
139.6249062548992
 20
31.56406393521529
  0
LWPOLYLINE
  5
49D
330
1F
100
AcDbEntity
  8
0
 62
     4
100
AcDbPolyline
 90
        2
 70
     0
 43
0.0
 10
139.6249062548992
 20
30.06406393521528
 10
159.6249062548992
 20
30.06406393521528
  0
LWPOLYLINE
  5
49E
330
1F
100
AcDbEntity
  8
0
 62
     4
100
AcDbPolyline
 90
        2
 70
     0
 43
0.0
 10
159.6249062548992
 20
31.56406393521529
 10
159.6249062548992
 20
38.06406393521529
  0
LWPOLYLINE
  5
49F
330
1F
100
AcDbEntity
  8
0
 62
     4
100
AcDbPolyline
 90
        2
 70
     0
 43
0.0
 10
159.6249062548992
 20
46.06406393521528
 10
139.6249062548992
 20
46.06406393521528
  0
LINE
  5
4A0
330
1F
100
AcDbEntity
  8
0
 62
     4
100
AcDbLine
 10
149.6249062548992
 20
31.56406393521529
 30
0.0
 11
149.6249062548992
 21
38.06406393521529
 31
0.0
  0
LINE
  5
4A1
330
1F
100
AcDbEntity
  8
0
 62
     4
100
AcDbLine
 10
159.6249062548992
 20
38.06406393521529
 30
0.0
 11
139.6249062548992
 21
38.06406393521529
 31
0.0
  0
LINE
  5
4A2
330
1F
100
AcDbEntity
  8
0
 62
     4
100
AcDbLine
 10
154.6249062548992
 20
31.56406393521529
 30
0.0
 11
154.6249062548992
 21
38.06406393521529
 31
0.0
  0
LINE
  5
4A3
330
1F
100
AcDbEntity
  8
0
 62
     4
100
AcDbLine
 10
144.6249062548992
 20
31.56406393521529
 30
0.0
 11
144.6249062548992
 21
38.06406393521529
 31
0.0
  0
LINE
  5
4A4
330
1F
100
AcDbEntity
  8
0
 62
     4
100
AcDbLine
 10
159.6249062548992
 20
31.56406393521529
 30
0.0
 11
139.6249062548992
 21
31.56406393521529
 31
0.0
  0
LWPOLYLINE
  5
4A5
330
1F
100
AcDbEntity
  8
0
 62
     4
100
AcDbPolyline
 90
        4
 70
     1
 43
0.0
 10
159.24900675512
 20
32.54221214688896
 10
155.0002806440472
 20
32.54221214688896
 10
155.0002806440472
 20
37.8367564037333
 10
159.24900675512
 20
37.8367564037333
  0
LWPOLYLINE
  5
4A6
330
1F
100
AcDbEntity
  8
0
 62
     4
100
AcDbPolyline
 90
        4
 70
     1
 43
0.0
 10
154.248481644489
 20
32.54221214688896
 10
149.9997555334161
 20
32.54221214688896
 10
149.9997555334161
 20
37.8367564037333
 10
154.248481644489
 20
37.8367564037333
  0
LWPOLYLINE
  5
4A7
330
1F
100
AcDbEntity
  8
0
 62
     4
100
AcDbPolyline
 90
        4
 70
     1
 43
0.0
 10
149.2605833077852
 20
32.54221214688896
 10
145.0118571967123
 20
32.54221214688896
 10
145.0118571967123
 20
37.8367564037333
 10
149.2605833077852
 20
37.8367564037333
  0
LWPOLYLINE
  5
4A8
330
1F
100
AcDbEntity
  8
0
 62
     4
100
AcDbPolyline
 90
        4
 70
     1
 43
0.0
 10
144.2424159102379
 20
32.54221214688896
 10
139.993689799165
 20
32.54221214688896
 10
139.993689799165
 20
37.8367564037333
 10
144.2424159102379
 20
37.8367564037333
  0
LINE
  5
4A9
330
1F
100
AcDbEntity
  8
0
 62
     0
100
AcDbLine
 10
159.24900675512
 20
36.04058191802624
 30
0.0
 11
155.0002806440472
 21
36.04058191802624
 31
0.0
  0
LINE
  5
4AA
330
1F
100
AcDbEntity
  8
0
 62
     0
100
AcDbLine
 10
154.248481644489
 20
36.04058191802624
 30
0.0
 11
149.9997555334161
 21
36.04058191802624
 31
0.0
  0
LINE
  5
4AB
330
1F
100
AcDbEntity
  8
0
 62
     0
100
AcDbLine
 10
149.2605833077852
 20
36.04058191802624
 30
0.0
 11
145.0118571967123
 21
36.04058191802624
 31
0.0
  0
LINE
  5
4AC
330
1F
100
AcDbEntity
  8
0
 62
     0
100
AcDbLine
 10
144.2424159102379
 20
36.04058191802624
 30
0.0
 11
139.993689799165
 21
36.04058191802624
 31
0.0
  0
LINE
  5
4AD
330
1F
100
AcDbEntity
  8
0
 62
     4
100
AcDbLine
 10
159.6249062548992
 20
45.56406393521529
 30
0.0
 11
139.6249062548992
 21
45.56406393521529
 31
0.0
  0
LWPOLYLINE
  5
4AE
330
1F
100
AcDbEntity
  8
0
 62
     4
100
AcDbPolyline
 90
        2
 70
     0
 43
0.0
 10
159.6249062548992
 20
38.06406393521529
 10
159.6249062548992
 20
31.56406393521529
  0
LWPOLYLINE
  5
4AF
330
1F
100
AcDbEntity
  8
0
 62
     4
100
AcDbPolyline
 90
        4
 70
     0
 43
0.0
 10
159.6249062548992
 20
30.06406393521528
 10
179.6249062548993
 20
30.06406393521528
 10
179.6249062548993
 20
46.06406393521528
 10
159.6249062548992
 20
46.06406393521528
  0
LINE
  5
4B0
330
1F
100
AcDbEntity
  8
0
 62
     4
100
AcDbLine
 10
169.6249062548993
 20
31.56406393521529
 30
0.0
 11
169.6249062548993
 21
38.06406393521529
 31
0.0
  0
LINE
  5
4B1
330
1F
100
AcDbEntity
  8
0
 62
     4
100
AcDbLine
 10
179.6249062548993
 20
38.06406393521529
 30
0.0
 11
159.6249062548992
 21
38.06406393521529
 31
0.0
  0
LINE
  5
4B2
330
1F
100
AcDbEntity
  8
0
 62
     4
100
AcDbLine
 10
174.6249062548993
 20
31.56406393521529
 30
0.0
 11
174.6249062548993
 21
38.06406393521529
 31
0.0
  0
LINE
  5
4B3
330
1F
100
AcDbEntity
  8
0
 62
     4
100
AcDbLine
 10
179.6249062548993
 20
30.06406393521528
 30
0.0
 11
179.6249062548993
 21
31.56406393521529
 31
0.0
  0
LINE
  5
4B4
330
1F
100
AcDbEntity
  8
0
 62
     4
100
AcDbLine
 10
164.6249062548993
 20
31.56406393521529
 30
0.0
 11
164.6249062548993
 21
38.06406393521529
 31
0.0
  0
LINE
  5
4B5
330
1F
100
AcDbEntity
  8
0
 62
     4
100
AcDbLine
 10
179.6249062548993
 20
31.56406393521529
 30
0.0
 11
159.6249062548992
 21
31.56406393521529
 31
0.0
  0
LWPOLYLINE
  5
4B6
330
1F
100
AcDbEntity
  8
0
 62
     4
100
AcDbPolyline
 90
        4
 70
     1
 43
0.0
 10
179.2490067551201
 20
32.54221214688896
 10
175.0002806440472
 20
32.54221214688896
 10
175.0002806440472
 20
37.8367564037333
 10
179.2490067551201
 20
37.8367564037333
  0
LWPOLYLINE
  5
4B7
330
1F
100
AcDbEntity
  8
0
 62
     4
100
AcDbPolyline
 90
        4
 70
     1
 43
0.0
 10
174.248481644489
 20
32.54221214688896
 10
169.9997555334161
 20
32.54221214688896
 10
169.9997555334161
 20
37.8367564037333
 10
174.248481644489
 20
37.8367564037333
  0
LWPOLYLINE
  5
4B8
330
1F
100
AcDbEntity
  8
0
 62
     4
100
AcDbPolyline
 90
        4
 70
     1
 43
0.0
 10
169.2605833077852
 20
32.54221214688896
 10
165.0118571967124
 20
32.54221214688896
 10
165.0118571967124
 20
37.8367564037333
 10
169.2605833077852
 20
37.8367564037333
  0
LWPOLYLINE
  5
4B9
330
1F
100
AcDbEntity
  8
0
 62
     4
100
AcDbPolyline
 90
        4
 70
     1
 43
0.0
 10
164.242415910238
 20
32.54221214688896
 10
159.9936897991651
 20
32.54221214688896
 10
159.9936897991651
 20
37.8367564037333
 10
164.242415910238
 20
37.8367564037333
  0
LINE
  5
4BA
330
1F
100
AcDbEntity
  8
0
 62
     0
100
AcDbLine
 10
179.2490067551201
 20
36.04058191802624
 30
0.0
 11
175.0002806440472
 21
36.04058191802624
 31
0.0
  0
LINE
  5
4BB
330
1F
100
AcDbEntity
  8
0
 62
     0
100
AcDbLine
 10
174.248481644489
 20
36.04058191802624
 30
0.0
 11
169.9997555334161
 21
36.04058191802624
 31
0.0
  0
LINE
  5
4BC
330
1F
100
AcDbEntity
  8
0
 62
     0
100
AcDbLine
 10
169.2605833077852
 20
36.04058191802624
 30
0.0
 11
165.0118571967124
 21
36.04058191802624
 31
0.0
  0
LINE
  5
4BD
330
1F
100
AcDbEntity
  8
0
 62
     0
100
AcDbLine
 10
164.242415910238
 20
36.04058191802624
 30
0.0
 11
159.9936897991651
 21
36.04058191802624
 31
0.0
  0
LINE
  5
4BE
330
1F
100
AcDbEntity
  8
0
 62
     4
100
AcDbLine
 10
179.6249062548993
 20
46.06406393521528
 30
0.0
 11
179.6249062548993
 21
45.56406393521529
 31
0.0
  0
LINE
  5
4BF
330
1F
100
AcDbEntity
  8
0
 62
     4
100
AcDbLine
 10
179.6249062548993
 20
45.56406393521529
 30
0.0
 11
159.6249062548992
 21
45.56406393521529
 31
0.0
  0
ARC
  5
4C0
102
{ACAD_REACTORS
330
4C9
330
4CC
102
}
330
1F
100
AcDbEntity
  8
0
100
AcDbCircle
 10
71.65523634165106
 20
74.07029714235095
 30
0.0
 40
1.310660171779521
100
AcDbArc
 50
102.3501001262013
 51
167.6498998738017
  0
ARC
  5
4C1
330
1F
100
AcDbEntity
  8
0
100
AcDbCircle
 10
71.65523634165106
 20
68.07029714235095
 30
0.0
 40
1.310660171779521
100
AcDbArc
 50
102.3501001262013
 51
167.6498998738017
  0
LINE
  5
4C2
330
1F
100
AcDbEntity
  8
0
100
AcDbLine
 10
70.3749062557614
 20
69.35062722824049
 30
0.0
 11
70.3749062557614
 21
68.3506272282405
 31
0.0
  0
ARC
  5
4C3
330
1F
100
AcDbEntity
  8
0
100
AcDbCircle
 10
71.65523634165106
 20
48.07029714235095
 30
0.0
 40
1.310660171779521
100
AcDbArc
 50
102.3501001262013
 51
167.6498998738017
  0
ARC
  5
4C4
102
{ACAD_REACTORS
330
4C9
102
}
330
1F
100
AcDbEntity
  8
0
100
AcDbCircle
 10
187.6002516847429
 20
74.07597265894655
 30
0.0
 40
1.303909277310461
100
AcDbArc
 50
12.15982091124337
 51
77.84017908875601
  0
ARC
  5
4C5
330
1F
100
AcDbEntity
  8
0
100
AcDbCircle
 10
187.6002516847429
 20
68.07597265894655
 30
0.0
 40
1.303909277310461
100
AcDbArc
 50
12.15982091124337
 51
77.84017908875601
  0
ARC
  5
4C6
330
1F
100
AcDbEntity
  8
0
100
AcDbCircle
 10
187.6002516847429
 20
48.07597265894655
 30
0.0
 40
1.303909277310461
100
AcDbArc
 50
12.15982091124337
 51
77.84017908875601
  0
DIMENSION
  5
4C7
102
{ACAD_XDICTIONARY
360
4C8
102
}
102
{ACAD_REACTORS
330
4C9
102
}
330
1F
100
AcDbEntity
  8
0
370
    40
100
AcDbDimension
  2
*D12
 10
188.874906254037
 20
86.2548255401583
 30
0.0
 11
129.6249062548992
 21
97.00507554015828
 31
0.0
 70
    32
  1
{\H0.7667x;\C256;119}
 71
     5
 42
118.4999999982756
  3
TRIEU
100
AcDbAlignedDimension
 13
70.37490625576139
 23
74.35062722824054
 33
0.0
 14
188.874906254037
 24
74.35062722824054
 34
0.0
100
AcDbRotatedDimension
  0
DIMENSION
  5
4CA
102
{ACAD_XDICTIONARY
360
4CB
102
}
102
{ACAD_REACTORS
330
4CC
102
}
330
1F
100
AcDbEntity
  8
0
370
    40
100
AcDbDimension
  2
*D13
 10
57.19032158036469
 20
75.3506272282405
 30
0.0
 11
46.44007158036467
 21
47.85062722824051
 31
0.0
 70
    32
  1
{\H0.7667x;\C256;55}
 71
     5
 42
55.0
  3
TRIEU
100
AcDbAlignedDimension
 13
70.3749062557614
 23
20.35062722824049
 33
0.0
 14
71.3749062557614
 24
75.3506272282405
 34
0.0
 50
90.0
100
AcDbRotatedDimension
  0
LINE
  5
4CD
330
1F
100
AcDbEntity
  8
0
100
AcDbLine
 10
226.5797804293429
 20
19.6371905212657
 30
0.0
 11
259.2826797119836
 21
19.6371905212657
 31
0.0
  0
LINE
  5
4CE
330
1F
100
AcDbEntity
  8
0
100
AcDbLine
 10
289.2479760616286
 20
19.6371905212657
 30
0.0
 11
326.5797804293429
 21
19.6371905212657
 31
0.0
  0
LINE
  5
4CF
330
1F
100
AcDbEntity
  8
0
100
AcDbLine
 10
326.5797804293429
 20
19.6371905212657
 30
0.0
 11
326.5797804293429
 21
47.6371905212657
 31
0.0
  0
LINE
  5
4D0
330
1F
100
AcDbEntity
  8
0
100
AcDbLine
 10
226.5797804293429
 20
47.6371905212657
 30
0.0
 11
226.5797804293429
 21
19.6371905212657
 31
0.0
  0
LINE
  5
4D1
330
1F
100
AcDbEntity
  8
0
100
AcDbLine
 10
226.5797804293429
 20
24.63719052126571
 30
0.0
 11
326.5797804293429
 21
24.63719052126571
 31
0.0
  0
LINE
  5
4D2
330
1F
100
AcDbEntity
  8
0
100
AcDbLine
 10
226.5797804293429
 20
28.63719052126571
 30
0.0
 11
326.5797804293429
 21
28.63719052126571
 31
0.0
  0
LINE
  5
4D3
330
1F
100
AcDbEntity
  8
0
100
AcDbLine
 10
296.5797804293428
 20
24.63719052126571
 30
0.0
 11
276.5797804293429
 21
24.63719052126571
 31
0.0
  0
LINE
  5
4D4
330
1F
100
AcDbEntity
  8
0
100
AcDbLine
 10
256.5797804293429
 20
24.63719052126571
 30
0.0
 11
256.5797804293429
 21
19.6371905212657
 31
0.0
  0
LINE
  5
4D5
330
1F
100
AcDbEntity
  8
0
100
AcDbLine
 10
296.5797804293428
 20
24.63719052126571
 30
0.0
 11
296.5797804293428
 21
19.6371905212657
 31
0.0
  0
LINE
  5
4D6
330
1F
100
AcDbEntity
  8
0
100
AcDbLine
 10
296.5797804293428
 20
22.68260472516867
 30
0.0
 11
289.2479760616286
 21
21.15989762321742
 31
0.0
  0
LINE
  5
4D7
330
1F
100
AcDbEntity
  8
0
100
AcDbLine
 10
289.2479760616286
 20
21.15989762321742
 30
0.0
 11
289.2479760616286
 21
19.6371905212657
 31
0.0
  0
LINE
  5
4D8
330
1F
100
AcDbEntity
  8
0
100
AcDbLine
 10
256.5797804293429
 20
19.6371905212657
 30
0.0
 11
259.2826797119835
 21
19.6371905212657
 31
0.0
  0
LINE
  5
4D9
330
1F
100
AcDbEntity
  8
0
100
AcDbLine
 10
259.2826797119835
 20
19.6371905212657
 30
0.0
 11
263.8797804293429
 21
22.1371905212657
 31
0.0
  0
LINE
  5
4DA
330
1F
100
AcDbEntity
  8
0
100
AcDbLine
 10
263.8797804293429
 20
22.1371905212657
 30
0.0
 11
263.8797804293429
 21
22.75502956924701
 31
0.0
  0
LINE
  5
4DB
330
1F
100
AcDbEntity
  8
0
100
AcDbLine
 10
263.0002913922821
 20
23.37286861722786
 30
0.0
 11
256.5797804293429
 21
23.37286861722786
 31
0.0
  0
LINE
  5
4DC
330
1F
100
AcDbEntity
  8
0
100
AcDbLine
 10
263.8797804293429
 20
22.75502956924701
 30
0.0
 11
263.000291392282
 21
23.37286861722786
 31
0.0
  0
LWPOLYLINE
  5
4DD
330
1F
100
AcDbEntity
  8
0
100
AcDbPolyline
 90
        4
 70
     1
 43
0.0
 10
272.2347295059967
 20
30.28751684892408
 10
280.6047188086643
 20
30.28751684892408
 10
280.6047188086643
 20
34.61915635493487
 10
272.2347295059967
 20
34.61915635493487
  0
LINE
  5
4DE
330
1F
100
AcDbEntity
  8
0
100
AcDbLine
 10
272.2347295059967
 20
33.72042391268751
 30
0.0
 11
280.6047188086643
 21
33.72042391268751
 31
0.0
  0
LINE
  5
4DF
330
1F
100
AcDbEntity
  8
0
100
AcDbLine
 10
226.5797804293429
 20
28.63719052126571
 30
0.0
 11
226.5797804293429
 21
47.6371905212657
 31
0.0
  0
LINE
  5
4E0
330
1F
100
AcDbEntity
  8
0
100
AcDbLine
 10
227.579780429343
 20
48.63719052126571
 30
0.0
 11
239.5797804293429
 21
48.63719052126571
 31
0.0
  0
LINE
  5
4E1
330
1F
100
AcDbEntity
  8
0
100
AcDbLine
 10
313.5797804293428
 20
48.63719052126571
 30
0.0
 11
325.5797804293429
 21
48.63719052126571
 31
0.0
  0
LINE
  5
4E2
330
1F
100
AcDbEntity
  8
0
100
AcDbLine
 10
239.5042100056153
 20
68.63719052126571
 30
0.0
 11
247.5797804293429
 21
68.63719052126594
 31
0.0
  0
LINE
  5
4E3
330
1F
100
AcDbEntity
  8
0
100
AcDbLine
 10
305.5797804293429
 20
68.63719052126571
 30
0.0
 11
313.5797804293428
 21
68.63719052126571
 31
0.0
  0
LINE
  5
4E4
330
1F
100
AcDbEntity
  8
0
100
AcDbLine
 10
239.5797804293429
 20
48.63719052126571
 30
0.0
 11
239.5797804293429
 21
67.65610675233102
 31
0.0
  0
LINE
  5
4E5
330
1F
100
AcDbEntity
  8
0
100
AcDbLine
 10
325.5797804293427
 20
48.63719052126571
 30
0.0
 11
313.5797804293428
 21
48.63719052126571
 31
0.0
  0
LINE
  5
4E6
330
1F
100
AcDbEntity
  8
0
100
AcDbLine
 10
313.5797804293428
 20
48.63719052126571
 30
0.0
 11
313.5797804293428
 21
67.63719052126571
 31
0.0
  0
LINE
  5
4E7
330
1F
100
AcDbEntity
  8
0
100
AcDbLine
 10
239.5797804293429
 20
68.63719052126571
 30
0.0
 11
247.5797804293429
 21
68.63719052126571
 31
0.0
  0
LINE
  5
4E8
330
1F
100
AcDbEntity
  8
0
100
AcDbLine
 10
247.5797804293429
 20
68.63719052126571
 30
0.0
 11
247.5797804293429
 21
73.63719052126571
 31
0.0
  0
LINE
  5
4E9
330
1F
100
AcDbEntity
  8
0
100
AcDbLine
 10
313.5797804293428
 20
68.63719052126571
 30
0.0
 11
305.5797804293429
 21
68.63719052126571
 31
0.0
  0
LINE
  5
4EA
330
1F
100
AcDbEntity
  8
0
100
AcDbLine
 10
305.5797804293429
 20
68.63719052126571
 30
0.0
 11
305.5797804293429
 21
73.63719052126571
 31
0.0
  0
LINE
  5
4EB
330
1F
100
AcDbEntity
  8
0
100
AcDbLine
 10
239.5797804293429
 20
68.63719052126571
 30
0.0
 11
239.504210005615
 21
68.63719052126571
 31
0.0
  0
LINE
  5
4EC
330
1F
100
AcDbEntity
  8
0
100
AcDbLine
 10
238.5797804293428
 20
67.65610675233102
 30
0.0
 11
238.5797804293428
 21
48.63719052126571
 31
0.0
  0
LINE
  5
4ED
330
1F
100
AcDbEntity
  8
0
100
AcDbLine
 10
313.5797804293428
 20
48.63719052126571
 30
0.0
 11
314.5797804293429
 21
48.63719052126571
 31
0.0
  0
LINE
  5
4EE
330
1F
100
AcDbEntity
  8
0
100
AcDbLine
 10
314.5797804293429
 20
48.63719052126571
 30
0.0
 11
314.5797804293429
 21
67.63719052126571
 31
0.0
  0
LINE
  5
4EF
330
1F
100
AcDbEntity
  8
0
100
AcDbLine
 10
276.5797804293429
 20
74.6371905212657
 30
0.0
 11
274.0797804293428
 21
74.6371905212657
 31
0.0
  0
LINE
  5
4F0
330
1F
100
AcDbEntity
  8
0
100
AcDbLine
 10
276.5797804293429
 20
74.6371905212657
 30
0.0
 11
279.0797804293429
 21
74.6371905212657
 31
0.0
  0
LINE
  5
4F1
330
1F
100
AcDbEntity
  8
0
100
AcDbLine
 10
274.9854143857189
 20
74.6371905212657
 30
0.0
 11
271.9854143857189
 21
74.6371905212657
 31
0.0
  0
LINE
  5
4F2
330
1F
100
AcDbEntity
  8
0
100
AcDbLine
 10
276.5797804293429
 20
74.6371905212657
 30
0.0
 11
279.5797804293429
 21
74.6371905212657
 31
0.0
  0
LINE
  5
4F3
330
1F
100
AcDbEntity
  8
0
100
AcDbLine
 10
248.579780429343
 20
74.6371905212657
 30
0.0
 11
274.9854143857189
 21
74.6371905212657
 31
0.0
  0
LINE
  5
4F4
102
{ACAD_REACTORS
330
51D
102
}
330
1F
100
AcDbEntity
  8
0
100
AcDbLine
 10
277.6269634511548
 20
74.6371905212657
 30
0.0
 11
304.5797804293428
 21
74.6371905212657
 31
0.0
  0
ARC
  5
4F5
330
1F
100
AcDbEntity
  8
0
100
AcDbCircle
 10
248.8601105152325
 20
73.35686043537616
 30
0.0
 40
1.310660171779521
100
AcDbArc
 50
102.3501001262013
 51
167.6498998737891
  0
ARC
  5
4F6
330
1F
100
AcDbEntity
  8
0
100
AcDbCircle
 10
239.8601105152325
 20
67.37577666644124
 30
0.0
 40
1.310660171779521
100
AcDbArc
 50
105.7561011091561
 51
167.6498998737891
  0
ARC
  5
4F7
330
1F
100
AcDbEntity
  8
0
100
AcDbCircle
 10
227.8601105152325
 20
47.35686043537616
 30
0.0
 40
1.310660171779521
100
AcDbArc
 50
102.3501001262013
 51
167.6498998737891
  0
ARC
  5
4F8
330
1F
100
AcDbEntity
  8
0
100
AcDbCircle
 10
240.8601105152325
 20
67.37577666644124
 30
0.0
 40
1.310660171779521
100
AcDbArc
 50
105.7561011091591
 51
167.6498998737891
  0
ARC
  5
4F9
102
{ACAD_REACTORS
330
51D
102
}
330
1F
100
AcDbEntity
  8
0
100
AcDbCircle
 10
304.3051258600489
 20
73.36253595197177
 30
0.0
 40
1.303909277310461
100
AcDbArc
 50
12.15982091124337
 51
77.84017908875933
  0
ARC
  5
4FA
330
1F
100
AcDbEntity
  8
0
100
AcDbCircle
 10
313.3051258600488
 20
67.36253595197176
 30
0.0
 40
1.303909277310461
100
AcDbArc
 50
12.15982091124337
 51
77.84017908875933
  0
ARC
  5
4FB
330
1F
100
AcDbEntity
  8
0
100
AcDbCircle
 10
325.3051258600488
 20
47.36253595197176
 30
0.0
 40
1.303909277310461
100
AcDbArc
 50
12.15982091124337
 51
77.84017908875933
  0
ARC
  5
4FC
330
1F
100
AcDbEntity
  8
0
100
AcDbCircle
 10
312.3051258600488
 20
67.36253595197176
 30
0.0
 40
1.303909277310461
100
AcDbArc
 50
12.15982091124337
 51
77.84017908875933
  0
LINE
  5
4FD
330
1F
100
AcDbEntity
  8
0
100
AcDbLine
 10
226.5797804293429
 20
29.3506272282405
 30
0.0
 11
326.5797804293429
 21
29.3506272282405
 31
0.0
  0
LINE
  5
4FE
330
1F
100
AcDbEntity
  8
0
 62
     4
100
AcDbLine
 10
326.5797804293429
 20
29.3506272282405
 30
0.0
 11
338.5797804293428
 21
29.3506272282405
 31
0.0
  0
LINE
  5
4FF
330
1F
100
AcDbEntity
  8
0
 62
     4
100
AcDbLine
 10
338.5797804293428
 20
29.3506272282405
 30
0.0
 11
338.5797804293428
 21
45.3506272282405
 31
0.0
  0
LINE
  5
500
330
1F
100
AcDbEntity
  8
0
 62
     4
100
AcDbLine
 10
338.5797804293428
 20
45.3506272282405
 30
0.0
 11
332.0797804293428
 21
45.3506272282405
 31
0.0
  0
LINE
  5
501
330
1F
100
AcDbEntity
  8
0
 62
     4
100
AcDbLine
 10
330.5797804293429
 20
39.86146236392351
 30
0.0
 11
330.5797804293429
 21
29.3506272282405
 31
0.0
  0
LINE
  5
502
330
1F
100
AcDbEntity
  8
0
 62
     4
100
AcDbLine
 10
330.5797804293429
 20
37.3506272282405
 30
0.0
 11
326.5797804293429
 21
37.3506272282405
 31
0.0
  0
LINE
  5
503
330
1F
100
AcDbEntity
  8
0
 62
     4
100
AcDbLine
 10
332.0797804293428
 20
45.3506272282405
 30
0.0
 11
330.5797804293429
 21
39.86146236392351
 31
0.0
  0
LINE
  5
504
330
1F
100
AcDbEntity
  8
0
 62
     4
100
AcDbLine
 10
330.5797804293429
 20
38.25631885619468
 30
0.0
 11
328.255503333386
 21
37.80347304221759
 31
0.0
  0
LINE
  5
505
330
1F
100
AcDbEntity
  8
0
 62
     4
100
AcDbLine
 10
328.255503333386
 20
37.80347304221759
 30
0.0
 11
328.255503333386
 21
37.3506272282405
 31
0.0
  0
LINE
  5
506
330
1F
100
AcDbEntity
  8
0
 62
     4
100
AcDbLine
 10
338.5797804293428
 20
45.3506272282405
 30
0.0
 11
337.7797804293428
 21
45.3506272282405
 31
0.0
  0
LINE
  5
507
330
1F
100
AcDbEntity
  8
0
 62
     4
100
AcDbLine
 10
226.5797804293429
 20
29.3506272282405
 30
0.0
 11
214.5797804293429
 21
29.3506272282405
 31
0.0
  0
LINE
  5
508
330
1F
100
AcDbEntity
  8
0
 62
     4
100
AcDbLine
 10
214.5797804293429
 20
29.3506272282405
 30
0.0
 11
214.5797804293429
 21
45.3506272282405
 31
0.0
  0
LINE
  5
509
330
1F
100
AcDbEntity
  8
0
 62
     4
100
AcDbLine
 10
214.5797804293429
 20
45.3506272282405
 30
0.0
 11
221.0797804293428
 21
45.3506272282405
 31
0.0
  0
LINE
  5
50A
330
1F
100
AcDbEntity
  8
0
 62
     4
100
AcDbLine
 10
214.5797804293429
 20
29.3506272282405
 30
0.0
 11
222.5797804293429
 21
29.3506272282405
 31
0.0
  0
LINE
  5
50B
330
1F
100
AcDbEntity
  8
0
 62
     4
100
AcDbLine
 10
222.5797804293429
 20
29.3506272282405
 30
0.0
 11
222.5797804293429
 21
39.86146236392351
 31
0.0
  0
LINE
  5
50C
330
1F
100
AcDbEntity
  8
0
 62
     4
100
AcDbLine
 10
222.5797804293429
 20
37.3506272282405
 30
0.0
 11
226.5797804293429
 21
37.3506272282405
 31
0.0
  0
LINE
  5
50D
330
1F
100
AcDbEntity
  8
0
 62
     4
100
AcDbLine
 10
226.5797804293429
 20
37.3506272282405
 30
0.0
 11
224.8797804293429
 21
37.3506272282405
 31
0.0
  0
LINE
  5
50E
330
1F
100
AcDbEntity
  8
0
 62
     4
100
AcDbLine
 10
224.8797804293429
 20
37.3506272282405
 30
0.0
 11
224.8797804293429
 21
37.8506272282405
 31
0.0
  0
LINE
  5
50F
330
1F
100
AcDbEntity
  8
0
 62
     4
100
AcDbLine
 10
222.5797804293429
 20
38.25631885619468
 30
0.0
 11
224.8797804293429
 21
37.8506272282405
 31
0.0
  0
LINE
  5
510
330
1F
100
AcDbEntity
  8
0
 62
     4
100
AcDbLine
 10
214.5797804293429
 20
45.3506272282405
 30
0.0
 11
221.0797804293429
 21
45.3506272282405
 31
0.0
  0
LINE
  5
511
330
1F
100
AcDbEntity
  8
0
 62
     4
100
AcDbLine
 10
221.0797804293429
 20
45.3506272282405
 30
0.0
 11
222.5797804293429
 21
39.86146236392351
 31
0.0
  0
LINE
  5
512
330
1F
100
AcDbEntity
  8
0
 62
     4
100
AcDbLine
 10
214.5797804293429
 20
29.3506272282405
 30
0.0
 11
215.3797804293429
 21
29.3506272282405
 31
0.0
  0
LWPOLYLINE
  5
513
330
1F
100
AcDbEntity
  8
0
100
AcDbPolyline
 90
        4
 70
     1
 43
0.0
 10
226.5797804293429
 20
19.6371905212657
 10
222.9995324468577
 20
19.6371905212657
 10
222.9995324468577
 20
22.33093570844384
 10
226.5797804293429
 20
22.33093570844384
  0
LINE
  5
514
102
{ACAD_REACTORS
330
51A
102
}
330
1F
100
AcDbEntity
  8
0
 62
     4
100
AcDbLine
 10
214.5797804293429
 20
29.3506272282405
 30
0.0
 11
215.0796721843402
 21
29.34022370548614
 31
0.0
  0
LINE
  5
515
330
1F
100
AcDbEntity
  8
0
 62
     4
100
AcDbLine
 10
215.0796721843402
 20
29.34022370548614
 30
0.0
 11
215.0796721843402
 21
45.3506272282405
 31
0.0
  0
LINE
  5
516
102
{ACAD_REACTORS
330
51A
102
}
330
1F
100
AcDbEntity
  8
0
 62
     4
100
AcDbLine
 10
338.5797804293428
 20
29.3506272282405
 30
0.0
 11
338.0797804293429
 21
29.3506272282405
 31
0.0
  0
LINE
  5
517
330
1F
100
AcDbEntity
  8
0
 62
     4
100
AcDbLine
 10
338.0797804293429
 20
29.3506272282405
 30
0.0
 11
338.0797804293429
 21
45.3506272282405
 31
0.0
  0
DIMENSION
  5
518
102
{ACAD_XDICTIONARY
360
519
102
}
102
{ACAD_REACTORS
330
51A
102
}
330
1F
100
AcDbEntity
  8
0
370
    40
100
AcDbDimension
  2
*D14
 10
338.5797804293428
 20
85.54138883318346
 30
0.0
 11
276.5797804293429
 21
96.29163883318348
 31
0.0
 70
    32
  1
{\H0.7667x;\C256;124}
 71
     5
 42
124.0
  3
TRIEU
100
AcDbAlignedDimension
 13
214.5797804293429
 23
29.3506272282405
 33
0.0
 14
338.5797804293428
 24
29.3506272282405
 34
0.0
100
AcDbRotatedDimension
  0
DIMENSION
  5
51B
102
{ACAD_XDICTIONARY
360
51C
102
}
102
{ACAD_REACTORS
330
51D
102
}
330
1F
100
AcDbEntity
  8
0
370
    40
100
AcDbDimension
  2
*D15
 10
364.8629921786104
 20
19.63719052126567
 30
0.0
 11
354.1127421786105
 21
47.13719052126573
 31
0.0
 70
    32
  1
{\H0.7667x;\C256;55}
 71
     5
 42
55.0
  3
TRIEU
100
AcDbAlignedDimension
 13
304.579780429343
 23
74.6371905212657
 33
0.0
 14
304.579780429343
 24
19.6371905212657
 34
0.0
 50
90.0
100
AcDbRotatedDimension
  0
DIMENSION
  5
51E
330
1F
100
AcDbEntity
  8
0
370
    40
100
AcDbDimension
  2
*D10
 10
214.2634851489582
 20
128.9912199395548
 30
0.0
 11
203.5132351489582
 21
179.2412199388237
 31
0.0
 70
    32
  1
{\H0.7667x;\C256;101}
 71
     5
 42
100.4999999985375
  3
TRIEU
100
AcDbAlignedDimension
 13
188.874906254037
 23
229.4912199380924
 33
0.0
 14
188.874906254037
 24
128.9912199395549
 34
0.0
 50
90.0
100
AcDbRotatedDimension
  0
DIMENSION
  5
51F
330
1F
100
AcDbEntity
  8
0
370
    40
100
AcDbDimension
  2
*D11
 10
242.2341286597547
 20
116.5336511324124
 30
0.0
 11
231.4838786597547
 21
179.2412199388381
 31
0.0
 70
    32
  1
{\H0.7667x;\C256;125}
 71
     5
 42
125.4151376128513
  3
TRIEU
100
AcDbAlignedDimension
 13
180.1249062541643
 23
241.9487887452638
 33
0.0
 14
180.1249062541643
 24
116.5336511324124
 34
0.0
 50
90.0
100
AcDbRotatedDimension
  0
DIMENSION
  5
520
102
{ACAD_XDICTIONARY
360
521
102
}
102
{ACAD_REACTORS
330
522
102
}
330
1F
100
AcDbEntity
  8
0
370
    40
100
AcDbDimension
  2
*D16
 10
188.874906254037
 20
253.4239724585737
 30
0.0
 11
129.6249062548992
 21
264.1742224585737
 31
0.0
 70
    32
  1
{\H0.7667x;\C256;119}
 71
     5
 42
118.4999999982756
  3
TRIEU
100
AcDbAlignedDimension
 13
70.3749062557614
 23
229.4912199380924
 33
0.0
 14
188.874906254037
 24
229.4912199380924
 34
0.0
100
AcDbRotatedDimension
  0
ENDSEC
  0
SECTION
  2
OBJECTS
  0
DICTIONARY
  5
C
330
0
100
AcDbDictionary
281
     1
  3
ACAD_COLOR
350
73
  3
ACAD_GROUP
350
D
  3
ACAD_LAYOUT
350
1A
  3
ACAD_MATERIAL
350
72
  3
ACAD_MLINESTYLE
350
17
  3
ACAD_PLOTSETTINGS
350
19
  3
ACAD_PLOTSTYLENAME
350
E
  3
ACAD_TABLESTYLE
350
86
  3
ACAD_VISUALSTYLE
350
99
  3
AcDbVariableDictionary
350
66
  3
DWGPROPS
350
59D
  0
DICTIONARY
  5
116
330
2
100
AcDbDictionary
280
     1
281
     1
  3
ACAD_LAYERSTATES
360
117
  0
DICTIONARY
  5
4C8
330
4C7
100
AcDbDictionary
280
     1
281
     1
  3
ACAD_DIMASSOC
360
4C9
  0
DICTIONARY
  5
4CB
330
4CA
100
AcDbDictionary
280
     1
281
     1
  3
ACAD_DIMASSOC
360
4CC
  0
DICTIONARY
  5
519
330
518
100
AcDbDictionary
280
     1
281
     1
  3
ACAD_DIMASSOC
360
51A
  0
DICTIONARY
  5
51C
330
51B
100
AcDbDictionary
280
     1
281
     1
  3
ACAD_DIMASSOC
360
51D
  0
DICTIONARY
  5
521
330
520
100
AcDbDictionary
280
     1
281
     1
  3
ACAD_DIMASSOC
360
522
  0
DICTIONARY
  5
73
102
{ACAD_REACTORS
330
C
102
}
330
C
100
AcDbDictionary
281
     1
  0
DICTIONARY
  5
D
102
{ACAD_REACTORS
330
C
102
}
330
C
100
AcDbDictionary
281
     1
  0
DICTIONARY
  5
1A
102
{ACAD_REACTORS
330
C
102
}
330
C
100
AcDbDictionary
281
     1
  3
Layout1
350
59
  3
Layout2
350
5E
  3
Model
350
22
  0
DICTIONARY
  5
72
102
{ACAD_REACTORS
330
C
102
}
330
C
100
AcDbDictionary
281
     1
  3
ByBlock
350
97
  3
ByLayer
350
96
  3
Global
350
98
  0
DICTIONARY
  5
17
102
{ACAD_REACTORS
330
C
102
}
330
C
100
AcDbDictionary
281
     1
  3
Standard
350
18
  0
DICTIONARY
  5
19
102
{ACAD_REACTORS
330
C
102
}
330
C
100
AcDbDictionary
281
     1
  0
ACDBDICTIONARYWDFLT
  5
E
102
{ACAD_REACTORS
330
C
102
}
330
C
100
AcDbDictionary
281
     1
  3
Normal
350
F
100
AcDbDictionaryWithDefault
340
F
  0
DICTIONARY
  5
86
102
{ACAD_REACTORS
330
C
102
}
330
C
100
AcDbDictionary
281
     1
  3
Standard
350
87
  0
DICTIONARY
  5
99
102
{ACAD_REACTORS
330
C
102
}
330
C
100
AcDbDictionary
281
     1
  3
2dWireframe
350
9F
  3
3D Hidden
350
A1
  3
3dWireframe
350
A0
  3
Basic
350
9E
  3
Brighten
350
A5
  3
ColorChange
350
A9
  3
Conceptual
350
A2
  3
Dim
350
A4
  3
Facepattern
350
A8
  3
Flat
350
9A
  3
FlatWithEdges
350
9B
  3
Gouraud
350
9C
  3
GouraudWithEdges
350
9D
  3
Linepattern
350
A7
  3
Realistic
350
A3
  3
Thicken
350
A6
  0
DICTIONARY
  5
66
102
{ACAD_REACTORS
330
C
102
}
330
C
100
AcDbDictionary
281
     1
  3
CTABLESTYLE
350
89
  3
DIMASSOC
350
67
  3
HIDETEXT
350
6B
  3
INDEXCTL
350
59C
  3
SORTENTS
350
59B
  0
XRECORD
  5
59D
102
{ACAD_REACTORS
330
C
102
}
330
C
100
AcDbXrecord
280
     1
  1
DWGPROPS COOKIE
  2

  3

  4

  6

  7

  8
Administrator
  9

300
=
301
=
302
=
303
=
304
=
305
=
306
=
307
=
308
=
309
=
 40
0.0004836921296296
 41
2458472.385606053
 42
2458472.386087084
  1

 90
        0
  0
DICTIONARY
  5
117
102
{ACAD_REACTORS
330
116
102
}
330
116
100
AcDbDictionary
281
     1
  0
DIMASSOC
  5
4C9
102
{ACAD_REACTORS
330
4C8
102
}
330
4C8
100
AcDbDimAssoc
330
4C7
 90
        3
 70
     0
 71
     0
  1
AcDbOsnapPointRef
 72
     1
331
4C0
 73
     2
 91
        0
 40
2.926042743436616
 10
0.0
 20
0.0
 30
2.000000000000000E+50
 75
     0
  1
AcDbOsnapPointRef
 72
    13
331
4C4
 73
     2
 91
        0
 40
0.2122289113540576
 10
0.0
 20
0.0
 30
2.000000000000000E+50
 75
     0
  0
DIMASSOC
  5
4CC
102
{ACAD_REACTORS
330
4CB
102
}
330
4CB
100
AcDbDimAssoc
330
4CA
 90
        3
 70
     0
 71
     0
  1
AcDbOsnapPointRef
 72
    13
331
428
 73
     2
 91
        0
 40
0.0
 10
0.0
 20
0.0
 30
2.000000000000000E+50
 75
     0
  1
AcDbOsnapPointRef
 72
    13
331
4C0
 73
     2
 91
        0
 40
1.786346236948073
 10
0.0
 20
0.0
 30
2.000000000000000E+50
 75
     0
  0
DIMASSOC
  5
51A
102
{ACAD_REACTORS
330
519
102
}
330
519
100
AcDbDimAssoc
330
518
 90
        3
 70
     0
 71
     0
  1
AcDbOsnapPointRef
 72
    13
331
514
 73
     2
 91
        0
 40
0.0
 10
0.0
 20
0.0
 30
2.000000000000000E+50
 75
     0
  1
AcDbOsnapPointRef
 72
    13
331
516
 73
     2
 91
        0
 40
0.0
 10
0.0
 20
0.0
 30
2.000000000000000E+50
 75
     0
  0
DIMASSOC
  5
51D
102
{ACAD_REACTORS
330
51C
102
}
330
51C
100
AcDbDimAssoc
330
51B
 90
        1
 70
     0
 71
     0
  1
AcDbOsnapPointRef
 72
     6
331
4F4
 73
     2
 91
        0
 40
1.0
 10
0.0
 20
0.0
 30
0.0
332
4F9
 74
     2
 92
        0
 75
     0
  0
DIMASSOC
  5
522
102
{ACAD_REACTORS
330
521
102
}
330
521
100
AcDbDimAssoc
330
520
 90
        1
 70
     0
 71
     0
  1
AcDbOsnapPointRef
 72
     1
331
33C
 73
     2
 91
        1
 40
1.0
 10
0.0
 20
0.0
 30
2.000000000000000E+50
 75
     0
  0
LAYOUT
  5
59
102
{ACAD_XDICTIONARY
360
5A0
102
}
102
{ACAD_REACTORS
330
1A
102
}
330
1A
100
AcDbPlotSettings
  1

  2
None
  4

  6

 40
0.0
 41
0.0
 42
0.0
 43
0.0
 44
0.0
 45
0.0
 46
0.0
 47
0.0
 48
0.0
 49
0.0
140
0.0
141
0.0
142
1.0
143
1.0
 70
   688
 72
     0
 73
     0
 74
     5
  7

 75
    16
147
1.0
148
0.0
149
0.0
100
AcDbLayout
  1
Layout1
 70
     1
 71
     1
 10
0.0
 20
0.0
 11
12.0
 21
9.0
 12
0.0
 22
0.0
 32
0.0
 14
0.0
 24
0.0
 34
0.0
 15
0.0
 25
0.0
 35
0.0
146
0.0
 13
0.0
 23
0.0
 33
0.0
 16
1.0
 26
0.0
 36
0.0
 17
0.0
 27
1.0
 37
0.0
 76
     0
330
58
  0
LAYOUT
  5
5E
102
{ACAD_XDICTIONARY
360
5A2
102
}
102
{ACAD_REACTORS
330
1A
102
}
330
1A
100
AcDbPlotSettings
  1

  2
None
  4

  6

 40
0.0
 41
0.0
 42
0.0
 43
0.0
 44
0.0
 45
0.0
 46
0.0
 47
0.0
 48
0.0
 49
0.0
140
0.0
141
0.0
142
1.0
143
1.0
 70
   688
 72
     0
 73
     0
 74
     5
  7

 75
    16
147
1.0
148
0.0
149
0.0
100
AcDbLayout
  1
Layout2
 70
     1
 71
     2
 10
0.0
 20
0.0
 11
12.0
 21
9.0
 12
0.0
 22
0.0
 32
0.0
 14
0.0
 24
0.0
 34
0.0
 15
0.0
 25
0.0
 35
0.0
146
0.0
 13
0.0
 23
0.0
 33
0.0
 16
1.0
 26
0.0
 36
0.0
 17
0.0
 27
1.0
 37
0.0
 76
     0
330
5D
  0
LAYOUT
  5
22
102
{ACAD_XDICTIONARY
360
59E
102
}
102
{ACAD_REACTORS
330
1A
102
}
330
1A
100
AcDbPlotSettings
  1

  2
none_device
  4
ANSI_A_(8.50_x_11.00_Inches)
  6

 40
6.349999904632568
 41
19.04999923706055
 42
6.350006103515625
 43
19.04998779296875
 44
215.8999938964844
 45
279.3999938964844
 46
0.0
 47
0.0
 48
0.0
 49
0.0
140
0.0
141
0.0
142
1.0
143
2.584895464708373
 70
 11952
 72
     0
 73
     1
 74
     0
  7

 75
     0
147
0.3868628397755418
148
0.0
149
0.0
100
AcDbLayout
  1
Model
 70
     1
 71
     0
 10
0.0
 20
0.0
 11
12.0
 21
9.0
 12
0.0
 22
0.0
 32
0.0
 14
0.0
 24
0.0
 34
0.0
 15
0.0
 25
0.0
 35
0.0
146
0.0
 13
0.0
 23
0.0
 33
0.0
 16
1.0
 26
0.0
 36
0.0
 17
0.0
 27
1.0
 37
0.0
 76
     0
330
1F
331
94
  0
MATERIAL
  5
97
102
{ACAD_XDICTIONARY
360
5A8
102
}
102
{ACAD_REACTORS
330
72
102
}
330
72
100
AcDbMaterial
  1
ByBlock
  0
MATERIAL
  5
96
102
{ACAD_XDICTIONARY
360
5A6
102
}
102
{ACAD_REACTORS
330
72
102
}
330
72
100
AcDbMaterial
  1
ByLayer
  0
MATERIAL
  5
98
102
{ACAD_XDICTIONARY
360
5AA
102
}
102
{ACAD_REACTORS
330
72
102
}
330
72
100
AcDbMaterial
  1
Global
  0
MLINESTYLE
  5
18
102
{ACAD_REACTORS
330
17
102
}
330
17
100
AcDbMlineStyle
  2
STANDARD
 70
     0
  3

 62
   256
 51
90.0
 52
90.0
 71
     2
 49
0.5
 62
   256
  6
BYLAYER
 49
-0.5
 62
   256
  6
BYLAYER
  0
ACDBPLACEHOLDER
  5
F
102
{ACAD_REACTORS
330
E
102
}
330
E
  0
TABLESTYLE
  5
87
102
{ACAD_XDICTIONARY
360
5A4
102
}
102
{ACAD_REACTORS
330
86
102
}
330
86
100
AcDbTableStyle
  3
Standard
 70
     0
 71
     0
 40
0.06
 41
0.06
280
     0
281
     0
  7
Standard
140
0.18
170
     2
 62
     0
 63
     7
283
     0
274
    -2
284
     1
 64
     0
275
    -2
285
     1
 65
     0
276
    -2
286
     1
 66
     0
277
    -2
287
     1
 67
     0
278
    -2
288
     1
 68
     0
279
    -2
289
     1
 69
     0
  7
Standard
140
0.25
170
     5
 62
     0
 63
     7
283
     0
274
    -2
284
     1
 64
     0
275
    -2
285
     1
 65
     0
276
    -2
286
     1
 66
     0
277
    -2
287
     1
 67
     0
278
    -2
288
     1
 68
     0
279
    -2
289
     1
 69
     0
  7
Standard
140
0.18
170
     5
 62
     0
 63
     7
283
     0
274
    -2
284
     1
 64
     0
275
    -2
285
     1
 65
     0
276
    -2
286
     1
 66
     0
277
    -2
287
     1
 67
     0
278
    -2
288
     1
 68
     0
279
    -2
289
     1
 69
     0
  0
VISUALSTYLE
  5
9F
102
{ACAD_REACTORS
330
99
102
}
330
99
100
AcDbVisualStyle
  2
2dWireframe
 70
     4
 71
     0
 72
     2
 73
     1
 90
        0
 40
-0.6
 41
-30.0
 62
     5
 63
     7
 74
     1
 91
        4
 64
     7
 65
   257
 75
     1
175
     1
 42
1.0
 92
        0
 66
   257
 43
1.0
 76
     1
 77
     6
 78
     2
 67
     7
 79
     5
170
     0
171
     0
290
     0
174
     0
 93
        1
 44
0.0
173
     0
291
     0
 45
0.0
1001
ACAD
1000
AcDbSavedByObjectVersion
1070
     0
  0
VISUALSTYLE
  5
A1
102
{ACAD_REACTORS
330
99
102
}
330
99
100
AcDbVisualStyle
  2
3D Hidden
 70
     6
 71
     1
 72
     2
 73
     2
 90
        0
 40
-0.6
 41
-30.0
 62
     5
 63
     7
 74
     2
 91
        2
 64
     7
 65
   257
 75
     2
175
     1
 42
40.0
 92
        0
 66
   257
 43
1.0
 76
     1
 77
     6
 78
     2
 67
     7
 79
     3
170
     0
171
     0
290
     0
174
     0
 93
        1
 44
0.0
173
     0
291
     0
 45
0.0
1001
ACAD
1000
AcDbSavedByObjectVersion
1070
     0
  0
VISUALSTYLE
  5
A0
102
{ACAD_REACTORS
330
99
102
}
330
99
100
AcDbVisualStyle
  2
3dWireframe
 70
     5
 71
     0
 72
     2
 73
     1
 90
        0
 40
-0.6
 41
-30.0
 62
     5
 63
     7
 74
     1
 91
        4
 64
     7
 65
   257
 75
     1
175
     1
 42
1.0
 92
        0
 66
   257
 43
1.0
 76
     1
 77
     6
 78
     2
 67
     7
 79
     5
170
     0
171
     0
290
     0
174
     0
 93
        1
 44
0.0
173
     0
291
     0
 45
0.0
1001
ACAD
1000
AcDbSavedByObjectVersion
1070
     0
  0
VISUALSTYLE
  5
9E
102
{ACAD_REACTORS
330
99
102
}
330
99
100
AcDbVisualStyle
  2
Basic
 70
     7
 71
     1
 72
     0
 73
     1
 90
        0
 40
-0.6
 41
-30.0
 62
     5
 63
     7
 74
     0
 91
        4
 64
     7
 65
   257
 75
     1
175
     1
 42
1.0
 92
        8
 66
     7
 43
1.0
 76
     1
 77
     6
 78
     2
 67
     7
 79
     5
170
     0
171
     0
290
     0
174
     0
 93
        1
 44
0.0
173
     0
291
     1
 45
0.0
1001
ACAD
1000
AcDbSavedByObjectVersion
1070
     0
  0
VISUALSTYLE
  5
A5
102
{ACAD_REACTORS
330
99
102
}
330
99
100
AcDbVisualStyle
  2
Brighten
 70
    12
 71
     2
 72
     2
 73
     1
 90
        0
 40
-0.6
 41
-30.0
 62
     5
 63
     7
 74
     1
 91
        4
 64
     7
 65
   257
 75
     1
175
     1
 42
1.0
 92
        8
 66
     7
 43
1.0
 76
     1
 77
     6
 78
     2
 67
     7
 79
     5
170
     0
171
     0
290
     0
174
     0
 93
        1
 44
50.0
173
     0
291
     1
 45
0.0
1001
ACAD
1000
AcDbSavedByObjectVersion
1070
     0
  0
VISUALSTYLE
  5
A9
102
{ACAD_REACTORS
330
99
102
}
330
99
100
AcDbVisualStyle
  2
ColorChange
 70
    16
 71
     2
 72
     2
 73
     3
 90
        0
 40
-0.6
 41
-30.0
 62
     5
 63
     8
 74
     1
 91
        4
 64
     7
 65
   257
 75
     1
175
     1
 42
1.0
 92
        8
 66
     8
 43
1.0
 76
     1
 77
     6
 78
     2
 67
     7
 79
     5
170
     0
171
     0
290
     0
174
     0
 93
        1
 44
0.0
173
     0
291
     1
 45
0.0
1001
ACAD
1000
AcDbSavedByObjectVersion
1070
     0
  0
VISUALSTYLE
  5
A2
102
{ACAD_REACTORS
330
99
102
}
330
99
100
AcDbVisualStyle
  2
Conceptual
 70
     9
 71
     3
 72
     2
 73
     1
 90
        0
 40
-0.6
 41
-30.0
 62
     5
 63
     7
 74
     2
 91
        2
 64
     7
 65
   257
 75
     1
175
     1
 42
40.0
 92
        8
 66
     7
 43
1.0
 76
     1
 77
     6
 78
     2
 67
     7
 79
     3
170
     0
171
     0
290
     0
174
     0
 93
        1
 44
0.0
173
     0
291
     0
 45
0.0
1001
ACAD
1000
AcDbSavedByObjectVersion
1070
     0
  0
VISUALSTYLE
  5
A4
102
{ACAD_REACTORS
330
99
102
}
330
99
100
AcDbVisualStyle
  2
Dim
 70
    11
 71
     2
 72
     2
 73
     1
 90
        0
 40
-0.6
 41
-30.0
 62
     5
 63
     7
 74
     1
 91
        4
 64
     7
 65
   257
 75
     1
175
     1
 42
1.0
 92
        8
 66
     7
 43
1.0
 76
     1
 77
     6
 78
     2
 67
     7
 79
     5
170
     0
171
     0
290
     0
174
     0
 93
        1
 44
-50.0
173
     0
291
     1
 45
0.0
1001
ACAD
1000
AcDbSavedByObjectVersion
1070
     0
  0
VISUALSTYLE
  5
A8
102
{ACAD_REACTORS
330
99
102
}
330
99
100
AcDbVisualStyle
  2
Facepattern
 70
    15
 71
     2
 72
     2
 73
     1
 90
        0
 40
-0.6
 41
-30.0
 62
     5
 63
     7
 74
     1
 91
        4
 64
     7
 65
   257
 75
     1
175
     1
 42
1.0
 92
        8
 66
     7
 43
1.0
 76
     1
 77
     6
 78
     2
 67
     7
 79
     5
170
     0
171
     0
290
     0
174
     0
 93
        1
 44
0.0
173
     0
291
     1
 45
0.0
1001
ACAD
1000
AcDbSavedByObjectVersion
1070
     0
  0
VISUALSTYLE
  5
9A
102
{ACAD_REACTORS
330
99
102
}
330
99
100
AcDbVisualStyle
  2
Flat
 70
     0
 71
     2
 72
     1
 73
     1
 90
        2
 40
-0.6
 41
30.0
 62
     5
 63
     7
 74
     0
 91
        4
 64
     7
 65
   257
 75
     1
175
     1
 42
1.0
 92
        8
 66
     7
 43
1.0
 76
     1
 77
     6
 78
     2
 67
     7
 79
     5
170
     0
171
     0
290
     0
174
     0
 93
        1
 44
0.0
173
     0
291
     1
 45
0.0
1001
ACAD
1000
AcDbSavedByObjectVersion
1070
     0
  0
VISUALSTYLE
  5
9B
102
{ACAD_REACTORS
330
99
102
}
330
99
100
AcDbVisualStyle
  2
FlatWithEdges
 70
     1
 71
     2
 72
     1
 73
     1
 90
        2
 40
-0.6
 41
30.0
 62
     5
 63
     7
 74
     1
 91
        4
 64
     7
 65
   257
 75
     1
175
     1
 42
1.0
 92
        0
 66
   257
 43
1.0
 76
     1
 77
     6
 78
     2
 67
     7
 79
     5
170
     0
171
     0
290
     0
174
     0
 93
        1
 44
0.0
173
     0
291
     1
 45
0.0
1001
ACAD
1000
AcDbSavedByObjectVersion
1070
     0
  0
VISUALSTYLE
  5
9C
102
{ACAD_REACTORS
330
99
102
}
330
99
100
AcDbVisualStyle
  2
Gouraud
 70
     2
 71
     2
 72
     2
 73
     1
 90
        2
 40
-0.6
 41
30.0
 62
     5
 63
     7
 74
     0
 91
        4
 64
     7
 65
   257
 75
     1
175
     1
 42
1.0
 92
        0
 66
     7
 43
1.0
 76
     1
 77
     6
 78
     2
 67
     7
 79
     5
170
     0
171
     0
290
     0
174
     0
 93
        1
 44
0.0
173
     0
291
     1
 45
0.0
1001
ACAD
1000
AcDbSavedByObjectVersion
1070
     0
  0
VISUALSTYLE
  5
9D
102
{ACAD_REACTORS
330
99
102
}
330
99
100
AcDbVisualStyle
  2
GouraudWithEdges
 70
     3
 71
     2
 72
     2
 73
     1
 90
        2
 40
-0.6
 41
30.0
 62
     5
 63
     7
 74
     1
 91
        4
 64
     7
 65
   257
 75
     1
175
     1
 42
1.0
 92
        0
 66
   257
 43
1.0
 76
     1
 77
     6
 78
     2
 67
     7
 79
     5
170
     0
171
     0
290
     0
174
     0
 93
        1
 44
0.0
173
     0
291
     1
 45
0.0
1001
ACAD
1000
AcDbSavedByObjectVersion
1070
     0
  0
VISUALSTYLE
  5
A7
102
{ACAD_REACTORS
330
99
102
}
330
99
100
AcDbVisualStyle
  2
Linepattern
 70
    14
 71
     2
 72
     2
 73
     1
 90
        0
 40
-0.6
 41
-30.0
 62
     5
 63
     7
 74
     1
 91
        4
 64
     7
 65
   257
 75
     7
175
     7
 42
1.0
 92
        8
 66
     7
 43
1.0
 76
     1
 77
     6
 78
     2
 67
     7
 79
     5
170
     0
171
     0
290
     0
174
     0
 93
        1
 44
0.0
173
     0
291
     1
 45
0.0
1001
ACAD
1000
AcDbSavedByObjectVersion
1070
     0
  0
VISUALSTYLE
  5
A3
102
{ACAD_REACTORS
330
99
102
}
330
99
100
AcDbVisualStyle
  2
Realistic
 70
     8
 71
     2
 72
     2
 73
     1
 90
        0
 40
-0.6
 41
-30.0
 62
     5
 63
     7
 74
     1
 91
        0
 64
     7
 65
   257
 75
     1
175
     1
 42
1.0
 92
        8
 66
     8
 43
1.0
 76
     1
 77
     6
 78
     2
 67
     7
 79
     5
170
     0
171
     0
290
     0
174
     0
 93
       13
 44
0.0
173
     0
291
     0
 45
0.0
1001
ACAD
1000
AcDbSavedByObjectVersion
1070
     0
  0
VISUALSTYLE
  5
A6
102
{ACAD_REACTORS
330
99
102
}
330
99
100
AcDbVisualStyle
  2
Thicken
 70
    13
 71
     2
 72
     2
 73
     1
 90
        0
 40
-0.6
 41
-30.0
 62
     5
 63
     7
 74
     1
 91
        4
 64
     7
 65
   257
 75
     1
175
     1
 42
1.0
 92
       12
 66
     7
 43
1.0
 76
     1
 77
     6
 78
     2
 67
     7
 79
     5
170
     0
171
     0
290
     0
174
     0
 93
        1
 44
0.0
173
     0
291
     1
 45
0.0
1001
ACAD
1000
AcDbSavedByObjectVersion
1070
     0
  0
DICTIONARYVAR
  5
89
102
{ACAD_REACTORS
330
66
102
}
330
66
100
DictionaryVariables
280
     0
  1
STANDARD
  0
DICTIONARYVAR
  5
67
102
{ACAD_REACTORS
330
66
102
}
330
66
100
DictionaryVariables
280
     0
  1
2
  0
DICTIONARYVAR
  5
6B
102
{ACAD_REACTORS
330
66
102
}
330
66
100
DictionaryVariables
280
     0
  1
1
  0
DICTIONARYVAR
  5
59C
102
{ACAD_REACTORS
330
66
102
}
330
66
100
DictionaryVariables
280
     0
  1
0
  0
DICTIONARYVAR
  5
59B
102
{ACAD_REACTORS
330
66
102
}
330
66
100
DictionaryVariables
280
     0
  1
127
  0
DICTIONARY
  5
5A0
330
59
100
AcDbDictionary
280
     1
281
     1
  3
ACAD_XREC_ROUNDTRIP
360
5A1
  0
DICTIONARY
  5
5A2
330
5E
100
AcDbDictionary
280
     1
281
     1
  3
ACAD_XREC_ROUNDTRIP
360
5A3
  0
DICTIONARY
  5
59E
330
22
100
AcDbDictionary
280
     1
281
     1
  3
ACAD_XREC_ROUNDTRIP
360
59F
  0
DICTIONARY
  5
5A8
330
97
100
AcDbDictionary
280
     1
281
     1
  3
ACAD_XREC_ROUNDTRIP
360
5A9
  0
DICTIONARY
  5
5A6
330
96
100
AcDbDictionary
280
     1
281
     1
  3
ACAD_XREC_ROUNDTRIP
360
5A7
  0
DICTIONARY
  5
5AA
330
98
100
AcDbDictionary
280
     1
281
     1
  3
ACAD_XREC_ROUNDTRIP
360
5AB
  0
DICTIONARY
  5
5A4
330
87
100
AcDbDictionary
280
     1
281
     1
  3
ACAD_XREC_ROUNDTRIP
360
5A5
  0
XRECORD
  5
5A1
102
{ACAD_REACTORS
330
5A0
102
}
330
5A0
100
AcDbXrecord
280
     1
102
SHADEPLOT
 70
     0
102
SHADEPLOTRESLEVEL
 70
     2
102
SHADEPLOTCUSTOMDPI
 70
   300
  0
XRECORD
  5
5A3
102
{ACAD_REACTORS
330
5A2
102
}
330
5A2
100
AcDbXrecord
280
     1
102
SHADEPLOT
 70
     0
102
SHADEPLOTRESLEVEL
 70
     2
102
SHADEPLOTCUSTOMDPI
 70
   300
  0
XRECORD
  5
59F
102
{ACAD_REACTORS
330
59E
102
}
330
59E
100
AcDbXrecord
280
     1
102
SHADEPLOT
 70
     0
102
SHADEPLOTRESLEVEL
 70
     2
102
SHADEPLOTCUSTOMDPI
 70
   300
  0
XRECORD
  5
5A9
102
{ACAD_REACTORS
330
5A8
102
}
330
5A8
100
AcDbXrecord
280
     1
102
MATERIAL
148
0.0
149
0.0
149
0.0
 93
        0
 94
       63
282
     0
 72
     1
 77
     1
171
     1
175
     1
179
     1
273
     0
  0
XRECORD
  5
5A7
102
{ACAD_REACTORS
330
5A6
102
}
330
5A6
100
AcDbXrecord
280
     1
102
MATERIAL
148
0.0
149
0.0
149
0.0
 93
        0
 94
       63
282
     0
 72
     1
 77
     1
171
     1
175
     1
179
     1
273
     0
  0
XRECORD
  5
5AB
102
{ACAD_REACTORS
330
5AA
102
}
330
5AA
100
AcDbXrecord
280
     1
102
MATERIAL
148
0.0
149
0.0
149
0.0
 93
        0
 94
       63
282
     0
 72
     1
 77
     1
171
     1
175
     1
179
     1
273
     0
  0
XRECORD
  5
5A5
102
{ACAD_REACTORS
330
5A4
102
}
330
5A4
100
AcDbXrecord
280
     1
102
ACAD_ROUNDTRIP_PRE2007_TABLESTYLE
 90
      512
 91
        0
  1

 92
      512
 93
        0
  2

 94
      512
 95
        0
  3

  0
ENDSEC
  0
EOF
