  0
SECTION
  2
HEADER
  9
$ACADVER
  1
AC1015
  9
$ACADMAINTVER
 70
    20
  9
$DWGCODEPAGE
  3
ANSI_1252
  9
$INSBASE
 10
0.0
 20
0.0
 30
0.0
  9
$EXTMIN
 10
44.60240270955819
 20
20.93008054666166
 30
-0.0015258207003583
  9
$EXTMAX
 10
256.4618558561981
 20
165.8063090975362
 30
0.0000000349246037
  9
$LIMMIN
 10
0.0
 20
0.0
  9
$LIMMAX
 10
12.0
 20
9.0
  9
$ORTHOMODE
 70
     0
  9
$REGENMODE
 70
     1
  9
$FILLMODE
 70
     1
  9
$QTEXTMODE
 70
     0
  9
$MIRRTEXT
 70
     0
  9
$LTSCALE
 40
1.0
  9
$ATTMODE
 70
     1
  9
$TEXTSIZE
 40
0.2
  9
$TRACEWID
 40
0.05
  9
$TEXTSTYLE
  7
Standard
  9
$CLAYER
  8
0
  9
$CELTYPE
  6
ByLayer
  9
$CECOLOR
 62
   256
  9
$CELTSCALE
 40
1.0
  9
$DISPSILH
 70
     0
  9
$DIMSCALE
 40
1.0
  9
$DIMASZ
 40
0.18
  9
$DIMEXO
 40
0.0625
  9
$DIMDLI
 40
0.38
  9
$DIMRND
 40
0.0
  9
$DIMDLE
 40
0.0
  9
$DIMEXE
 40
0.18
  9
$DIMTP
 40
0.0
  9
$DIMTM
 40
0.0
  9
$DIMTXT
 40
0.18
  9
$DIMCEN
 40
0.09
  9
$DIMTSZ
 40
0.0
  9
$DIMTOL
 70
     0
  9
$DIMLIM
 70
     0
  9
$DIMTIH
 70
     1
  9
$DIMTOH
 70
     1
  9
$DIMSE1
 70
     0
  9
$DIMSE2
 70
     0
  9
$DIMTAD
 70
     0
  9
$DIMZIN
 70
     0
  9
$DIMBLK
  1

  9
$DIMASO
 70
     1
  9
$DIMSHO
 70
     1
  9
$DIMPOST
  1

  9
$DIMAPOST
  1

  9
$DIMALT
 70
     0
  9
$DIMALTD
 70
     2
  9
$DIMALTF
 40
25.4
  9
$DIMLFAC
 40
1.0
  9
$DIMTOFL
 70
     0
  9
$DIMTVP
 40
0.0
  9
$DIMTIX
 70
     0
  9
$DIMSOXD
 70
     0
  9
$DIMSAH
 70
     0
  9
$DIMBLK1
  1

  9
$DIMBLK2
  1

  9
$DIMSTYLE
  2
Standard
  9
$DIMCLRD
 70
     0
  9
$DIMCLRE
 70
     0
  9
$DIMCLRT
 70
     0
  9
$DIMTFAC
 40
1.0
  9
$DIMGAP
 40
0.09
  9
$DIMJUST
 70
     0
  9
$DIMSD1
 70
     0
  9
$DIMSD2
 70
     0
  9
$DIMTOLJ
 70
     1
  9
$DIMTZIN
 70
     0
  9
$DIMALTZ
 70
     0
  9
$DIMALTTZ
 70
     0
  9
$DIMUPT
 70
     0
  9
$DIMDEC
 70
     4
  9
$DIMTDEC
 70
     4
  9
$DIMALTU
 70
     2
  9
$DIMALTTD
 70
     2
  9
$DIMTXSTY
  7
Standard
  9
$DIMAUNIT
 70
     0
  9
$DIMADEC
 70
     0
  9
$DIMALTRND
 40
0.0
  9
$DIMAZIN
 70
     0
  9
$DIMDSEP
 70
    46
  9
$DIMATFIT
 70
     3
  9
$DIMFRAC
 70
     0
  9
$DIMLDRBLK
  1

  9
$DIMLUNIT
 70
     2
  9
$DIMLWD
 70
    -2
  9
$DIMLWE
 70
    -2
  9
$DIMTMOVE
 70
     0
  9
$LUNITS
 70
     2
  9
$LUPREC
 70
     4
  9
$SKETCHINC
 40
0.1
  9
$FILLETRAD
 40
0.0
  9
$AUNITS
 70
     0
  9
$AUPREC
 70
     0
  9
$MENU
  1
.
  9
$ELEVATION
 40
0.0
  9
$PELEVATION
 40
0.0
  9
$THICKNESS
 40
0.0
  9
$LIMCHECK
 70
     0
  9
$CHAMFERA
 40
0.0
  9
$CHAMFERB
 40
0.0
  9
$CHAMFERC
 40
0.0
  9
$CHAMFERD
 40
0.0
  9
$SKPOLY
 70
     0
  9
$TDCREATE
 40
2458472.448126643
  9
$TDUCREATE
 40
2458472.156459977
  9
$TDUPDATE
 40
2458472.449955509
  9
$TDUUPDATE
 40
2458472.158288842
  9
$TDINDWG
 40
0.0018311111
  9
$TDUSRTIMER
 40
0.0018310301
  9
$USRTIMER
 70
     1
  9
$ANGBASE
 50
0.0
  9
$ANGDIR
 70
     0
  9
$PDMODE
 70
     0
  9
$PDSIZE
 40
0.0
  9
$PLINEWID
 40
0.0
  9
$SPLFRAME
 70
     0
  9
$SPLINETYPE
 70
     6
  9
$SPLINESEGS
 70
     8
  9
$HANDSEED
  5
35C
  9
$SURFTAB1
 70
     6
  9
$SURFTAB2
 70
     6
  9
$SURFTYPE
 70
     6
  9
$SURFU
 70
     6
  9
$SURFV
 70
     6
  9
$UCSBASE
  2

  9
$UCSNAME
  2

  9
$UCSORG
 10
0.0
 20
0.0
 30
0.0
  9
$UCSXDIR
 10
1.0
 20
0.0
 30
0.0
  9
$UCSYDIR
 10
0.0
 20
1.0
 30
0.0
  9
$UCSORTHOREF
  2

  9
$UCSORTHOVIEW
 70
     0
  9
$UCSORGTOP
 10
0.0
 20
0.0
 30
0.0
  9
$UCSORGBOTTOM
 10
0.0
 20
0.0
 30
0.0
  9
$UCSORGLEFT
 10
0.0
 20
0.0
 30
0.0
  9
$UCSORGRIGHT
 10
0.0
 20
0.0
 30
0.0
  9
$UCSORGFRONT
 10
0.0
 20
0.0
 30
0.0
  9
$UCSORGBACK
 10
0.0
 20
0.0
 30
0.0
  9
$PUCSBASE
  2

  9
$PUCSNAME
  2

  9
$PUCSORG
 10
0.0
 20
0.0
 30
0.0
  9
$PUCSXDIR
 10
1.0
 20
0.0
 30
0.0
  9
$PUCSYDIR
 10
0.0
 20
1.0
 30
0.0
  9
$PUCSORTHOREF
  2

  9
$PUCSORTHOVIEW
 70
     0
  9
$PUCSORGTOP
 10
0.0
 20
0.0
 30
0.0
  9
$PUCSORGBOTTOM
 10
0.0
 20
0.0
 30
0.0
  9
$PUCSORGLEFT
 10
0.0
 20
0.0
 30
0.0
  9
$PUCSORGRIGHT
 10
0.0
 20
0.0
 30
0.0
  9
$PUCSORGFRONT
 10
0.0
 20
0.0
 30
0.0
  9
$PUCSORGBACK
 10
0.0
 20
0.0
 30
0.0
  9
$USERI1
 70
     0
  9
$USERI2
 70
     0
  9
$USERI3
 70
     0
  9
$USERI4
 70
     0
  9
$USERI5
 70
     0
  9
$USERR1
 40
0.0
  9
$USERR2
 40
0.0
  9
$USERR3
 40
0.0
  9
$USERR4
 40
0.0
  9
$USERR5
 40
0.0
  9
$WORLDVIEW
 70
     1
  9
$SHADEDGE
 70
     3
  9
$SHADEDIF
 70
    70
  9
$TILEMODE
 70
     1
  9
$MAXACTVP
 70
    64
  9
$PINSBASE
 10
0.0
 20
0.0
 30
0.0
  9
$PLIMCHECK
 70
     0
  9
$PEXTMIN
 10
0.0
 20
0.0
 30
0.0
  9
$PEXTMAX
 10
0.0
 20
0.0
 30
0.0
  9
$PLIMMIN
 10
0.0
 20
0.0
  9
$PLIMMAX
 10
12.0
 20
9.0
  9
$UNITMODE
 70
     0
  9
$VISRETAIN
 70
     1
  9
$PLINEGEN
 70
     0
  9
$PSLTSCALE
 70
     1
  9
$TREEDEPTH
 70
  3020
  9
$CMLSTYLE
  2
Standard
  9
$CMLJUST
 70
     0
  9
$CMLSCALE
 40
1.0
  9
$PROXYGRAPHICS
 70
     1
  9
$MEASUREMENT
 70
     0
  9
$CELWEIGHT
370
    -1
  9
$ENDCAPS
280
     0
  9
$JOINSTYLE
280
     0
  9
$LWDISPLAY
290
     0
  9
$INSUNITS
 70
     1
  9
$HYPERLINKBASE
  1

  9
$STYLESHEET
  1

  9
$XEDIT
290
     1
  9
$CEPSNTYPE
380
     0
  9
$PSTYLEMODE
290
     1
  9
$FINGERPRINTGUID
  2
{6415FC09-6A2C-4E55-990B-C5698C6C2CD1}
  9
$VERSIONGUID
  2
{12F89900-AC82-4E51-8E0E-06C8CDEBA21B}
  9
$EXTNAMES
290
     1
  9
$PSVPSCALE
 40
0.0
  9
$OLESTARTUP
290
     0
  0
ENDSEC
  0
SECTION
  2
CLASSES
  0
CLASS
  1
ACDBDICTIONARYWDFLT
  2
AcDbDictionaryWithDefault
  3
ObjectDBX Classes
 90
        0
280
     0
281
     0
  0
CLASS
  1
ACDBPLACEHOLDER
  2
AcDbPlaceHolder
  3
ObjectDBX Classes
 90
        0
280
     0
281
     0
  0
CLASS
  1
LAYOUT
  2
AcDbLayout
  3
ObjectDBX Classes
 90
        0
280
     0
281
     0
  0
CLASS
  1
DICTIONARYVAR
  2
AcDbDictionaryVar
  3
ObjectDBX Classes
 90
        0
280
     0
281
     0
  0
CLASS
  1
TABLESTYLE
  2
AcDbTableStyle
  3
ObjectDBX Classes
 90
     4095
280
     0
281
     0
  0
CLASS
  1
MATERIAL
  2
AcDbMaterial
  3
ObjectDBX Classes
 90
     1153
280
     0
281
     0
  0
CLASS
  1
VISUALSTYLE
  2
AcDbVisualStyle
  3
ObjectDBX Classes
 90
     4095
280
     0
281
     0
  0
CLASS
  1
DIMASSOC
  2
AcDbDimAssoc
  3
"AcDbDimAssoc|Product Desc:     AcDim ARX App For Dimension|Company:          Autodesk, Inc.|WEB Address:      www.autodesk.com"
 90
        0
280
     0
281
     0
  0
CLASS
  1
SORTENTSTABLE
  2
AcDbSortentsTable
  3
ObjectDBX Classes
 90
        0
280
     0
281
     0
  0
ENDSEC
  0
SECTION
  2
TABLES
  0
TABLE
  2
VPORT
  5
8
330
0
100
AcDbSymbolTable
 70
     1
  0
VPORT
  5
94
330
8
100
AcDbSymbolTableRecord
100
AcDbViewportTableRecord
  2
*Active
 70
     0
 10
0.0
 20
0.0
 11
1.0
 21
1.0
 12
150.7436286049362
 22
85.01413603966502
 13
0.0
 23
0.0
 14
0.5
 24
0.5
 15
0.5
 25
0.5
 16
0.0
 26
0.0
 36
1.0
 17
0.0
 27
0.0
 37
0.0
 40
333.8909175920853
 41
2.189852700490998
 42
50.0
 43
0.0
 44
0.0
 50
0.0
 51
0.0
 71
     0
 72
  1000
 73
     1
 74
     3
 75
     0
 76
     0
 77
     0
 78
     0
281
     0
 65
     1
110
0.0
120
0.0
130
0.0
111
1.0
121
0.0
131
0.0
112
0.0
122
1.0
132
0.0
 79
     0
146
0.0
  0
ENDTAB
  0
TABLE
  2
LTYPE
  5
5
330
0
100
AcDbSymbolTable
 70
     1
  0
LTYPE
  5
14
330
5
100
AcDbSymbolTableRecord
100
AcDbLinetypeTableRecord
  2
ByBlock
 70
     0
  3

 72
    65
 73
     0
 40
0.0
  0
LTYPE
  5
15
330
5
100
AcDbSymbolTableRecord
100
AcDbLinetypeTableRecord
  2
ByLayer
 70
     0
  3

 72
    65
 73
     0
 40
0.0
  0
LTYPE
  5
16
330
5
100
AcDbSymbolTableRecord
100
AcDbLinetypeTableRecord
  2
Continuous
 70
     0
  3
Solid line
 72
    65
 73
     0
 40
0.0
  0
ENDTAB
  0
TABLE
  2
LAYER
  5
2
102
{ACAD_XDICTIONARY
360
10E
102
}
330
0
100
AcDbSymbolTable
 70
     2
  0
LAYER
  5
10
330
2
100
AcDbSymbolTableRecord
100
AcDbLayerTableRecord
  2
0
 70
     0
 62
     7
  6
Continuous
370
    -3
390
F
  0
LAYER
  5
109
330
2
100
AcDbSymbolTableRecord
100
AcDbLayerTableRecord
  2
Defpoints
 70
     0
 62
     7
  6
Continuous
290
     0
370
    -3
390
F
  0
ENDTAB
  0
TABLE
  2
STYLE
  5
3
330
0
100
AcDbSymbolTable
 70
     3
  0
STYLE
  5
11
330
3
100
AcDbSymbolTableRecord
100
AcDbTextStyleTableRecord
  2
Standard
 70
     0
 40
0.0
 41
1.0
 50
0.0
 71
     0
 42
0.2
  3
txt
  4

  0
STYLE
  5
10A
330
3
100
AcDbSymbolTableRecord
100
AcDbTextStyleTableRecord
  2
Binh
 70
     0
 40
0.0
 41
1.0
 50
0.0
 71
     0
 42
25.0
  3

  4

1001
ACAD
1000
VNI-Helve-Condense
1071
        2
  0
ENDTAB
  0
TABLE
  2
VIEW
  5
6
330
0
100
AcDbSymbolTable
 70
     0
  0
ENDTAB
  0
TABLE
  2
UCS
  5
7
330
0
100
AcDbSymbolTable
 70
     0
  0
ENDTAB
  0
TABLE
  2
APPID
  5
9
330
0
100
AcDbSymbolTable
 70
     2
  0
APPID
  5
12
330
9
100
AcDbSymbolTableRecord
100
AcDbRegAppTableRecord
  2
ACAD
 70
     0
  0
APPID
  5
10D
330
9
100
AcDbSymbolTableRecord
100
AcDbRegAppTableRecord
  2
ACAD_PSEXT
 70
     0
  0
ENDTAB
  0
TABLE
  2
DIMSTYLE
  5
A
330
0
100
AcDbSymbolTable
 70
     4
100
AcDbDimStyleTable
 71
     1
340
27
  0
DIMSTYLE
105
27
330
A
100
AcDbSymbolTableRecord
100
AcDbDimStyleTableRecord
  2
Standard
 70
     0
340
11
  0
DIMSTYLE
105
10B
330
A
100
AcDbSymbolTableRecord
100
AcDbDimStyleTableRecord
  2
SS
 70
     0
 40
1.5
 41
3.0
 42
2.0
 43
1.0
 44
2.0
 73
     0
 74
     0
 77
     1
140
3.0
147
0.5
176
     1
177
     1
178
     7
340
11
  0
DIMSTYLE
105
10C
102
{ACAD_REACTORS
330
1B3
330
1B6
330
1B9
330
1BC
330
1BF
330
1C2
330
26E
330
271
330
274
330
277
330
27A
330
27D
102
}
330
A
100
AcDbSymbolTableRecord
100
AcDbDimStyleTableRecord
  2
TRIEU
 70
     0
 40
0.5
 41
30.0
 42
0.0
 43
0.0
 44
20.0
 73
     0
 77
     3
 78
     8
140
30.0
141
0.0
146
0.0000052631578947
147
10.0
172
     1
174
     1
176
     8
177
     8
178
     3
271
     0
272
     0
275
     1
279
     2
284
     8
340
10A
342
B9
  0
ENDTAB
  0
TABLE
  2
BLOCK_RECORD
  5
1
330
0
100
AcDbSymbolTable
 70
    16
  0
BLOCK_RECORD
  5
1F
330
1
100
AcDbSymbolTableRecord
100
AcDbBlockTableRecord
  2
*Model_Space
340
22
  0
BLOCK_RECORD
  5
58
330
1
100
AcDbSymbolTableRecord
100
AcDbBlockTableRecord
  2
*Paper_Space
340
59
  0
BLOCK_RECORD
  5
5D
330
1
100
AcDbSymbolTableRecord
100
AcDbBlockTableRecord
  2
*Paper_Space0
340
5E
  0
BLOCK_RECORD
  5
B9
330
1
100
AcDbSymbolTableRecord
100
AcDbBlockTableRecord
  2
_Oblique
340
0
102
{BLKREFS
331
C2
331
C3
331
CE
331
CF
331
DA
331
DB
331
E8
331
E9
331
F6
331
F7
331
102
331
103
331
290
331
291
331
2C4
331
2C5
331
2CF
331
2D0
331
2DA
331
2DB
331
2E3
331
2E4
331
2EE
331
2EF
102
}
  0
BLOCK_RECORD
  5
BD
330
1
100
AcDbSymbolTableRecord
100
AcDbBlockTableRecord
  2
*D2
340
0
  0
BLOCK_RECORD
  5
C9
330
1
100
AcDbSymbolTableRecord
100
AcDbBlockTableRecord
  2
*D3
340
0
  0
BLOCK_RECORD
  5
D5
330
1
100
AcDbSymbolTableRecord
100
AcDbBlockTableRecord
  2
*D4
340
0
  0
BLOCK_RECORD
  5
E1
330
1
100
AcDbSymbolTableRecord
100
AcDbBlockTableRecord
  2
*D5
340
0
  0
BLOCK_RECORD
  5
EF
330
1
100
AcDbSymbolTableRecord
100
AcDbBlockTableRecord
  2
*D6
340
0
  0
BLOCK_RECORD
  5
FD
330
1
100
AcDbSymbolTableRecord
100
AcDbBlockTableRecord
  2
*D7
340
0
  0
BLOCK_RECORD
  5
280
330
1
100
AcDbSymbolTableRecord
100
AcDbBlockTableRecord
  2
*D9
340
0
  0
BLOCK_RECORD
  5
28C
330
1
100
AcDbSymbolTableRecord
100
AcDbBlockTableRecord
  2
*D10
340
0
  0
BLOCK_RECORD
  5
298
330
1
100
AcDbSymbolTableRecord
100
AcDbBlockTableRecord
  2
*D11
340
0
  0
BLOCK_RECORD
  5
2A4
330
1
100
AcDbSymbolTableRecord
100
AcDbBlockTableRecord
  2
*D12
340
0
  0
BLOCK_RECORD
  5
2B2
330
1
100
AcDbSymbolTableRecord
100
AcDbBlockTableRecord
  2
*D13
340
0
  0
BLOCK_RECORD
  5
2C0
330
1
100
AcDbSymbolTableRecord
100
AcDbBlockTableRecord
  2
*D14
340
0
  0
ENDTAB
  0
ENDSEC
  0
SECTION
  2
BLOCKS
  0
BLOCK
  5
20
330
1F
100
AcDbEntity
  8
0
100
AcDbBlockBegin
  2
*Model_Space
 70
     0
 10
0.0
 20
0.0
 30
0.0
  3
*Model_Space
  1

  0
ENDBLK
  5
21
330
1F
100
AcDbEntity
  8
0
100
AcDbBlockEnd
  0
BLOCK
  5
5A
330
58
100
AcDbEntity
 67
     1
  8
0
100
AcDbBlockBegin
  2
*Paper_Space
 70
     0
 10
0.0
 20
0.0
 30
0.0
  3
*Paper_Space
  1

  0
ENDBLK
  5
5B
330
58
100
AcDbEntity
 67
     1
  8
0
100
AcDbBlockEnd
  0
BLOCK
  5
5F
330
5D
100
AcDbEntity
 67
     1
  8
0
100
AcDbBlockBegin
  2
*Paper_Space0
 70
     0
 10
0.0
 20
0.0
 30
0.0
  3
*Paper_Space0
  1

  0
ENDBLK
  5
60
330
5D
100
AcDbEntity
 67
     1
  8
0
100
AcDbBlockEnd
  0
BLOCK
  5
BA
330
B9
100
AcDbEntity
  8
0
100
AcDbBlockBegin
  2
_Oblique
 70
     0
 10
0.0
 20
0.0
 30
0.0
  3
_Oblique
  1

  0
LINE
  5
BB
330
B9
100
AcDbEntity
  8
0
  6
ByBlock
 62
     0
370
    -2
100
AcDbLine
 10
-0.5
 20
-0.5
 30
0.0
 11
0.5
 21
0.5
 31
0.0
  0
ENDBLK
  5
BC
330
B9
100
AcDbEntity
  8
0
100
AcDbBlockEnd
  0
BLOCK
  5
BE
330
BD
100
AcDbEntity
  8
0
370
    40
100
AcDbBlockBegin
  2
*D2
 70
     1
 10
0.0
 20
0.0
 30
0.0
  3
*D2
  1

  0
LINE
  5
BF
330
BD
100
AcDbEntity
  8
0
 62
     8
370
    -2
100
AcDbLine
 10
-724.6332736236353
 20
-1678.830267271481
 30
0.0
 11
-724.6332736236353
 21
-1653.282549617925
 31
0.0
  0
LINE
  5
C0
330
BD
100
AcDbEntity
  8
0
 62
     8
370
    -2
100
AcDbLine
 10
-654.6296701637808
 20
-1678.830267271481
 30
0.0
 11
-654.6296701637808
 21
-1653.282549617925
 31
0.0
  0
LINE
  5
C1
330
BD
100
AcDbEntity
  8
0
 62
     8
370
    -2
100
AcDbLine
 10
-724.6332736236353
 20
-1663.282549617925
 30
0.0
 11
-654.6296701637808
 21
-1663.282549617925
 31
0.0
  0
INSERT
  5
C2
330
BD
100
AcDbEntity
  8
0
 62
     8
370
    -2
100
AcDbBlockReference
  2
_Oblique
 10
-724.6332736236353
 20
-1663.282549617925
 30
0.0
 41
15.0
 42
15.0
 43
15.0
 50
180.0
  0
INSERT
  5
C3
330
BD
100
AcDbEntity
  8
0
 62
     8
370
    -2
100
AcDbBlockReference
  2
_Oblique
 10
-654.6296701637808
 20
-1663.282549617925
 30
0.0
 41
15.0
 42
15.0
 43
15.0
  0
MTEXT
  5
C4
330
BD
100
AcDbEntity
  8
0
 62
     3
370
    40
100
AcDbMText
 10
-689.631471893708
 20
-1652.532299617925
 30
0.0
 40
15.0
 41
0.0
 71
     5
 72
     1
  1
\A1;{\H0.7667x;\C256;70}
  7
Binh
 73
     1
 44
1.0
1001
ACAD
1000
MTEXTBEGIN
1070
    73
1070
     1
1070
    44
1040
1.0
1070
    74
1070
     0
1000
MTEXTEND
  0
POINT
  5
C5
330
BD
100
AcDbEntity
  8
Defpoints
 62
     0
370
    40
100
AcDbPoint
 10
-724.6332736236353
 20
-1678.830267271481
 30
0.0
  0
POINT
  5
C6
330
BD
100
AcDbEntity
  8
Defpoints
 62
     0
370
    40
100
AcDbPoint
 10
-654.6296701637808
 20
-1678.830267271481
 30
0.0
  0
POINT
  5
C7
330
BD
100
AcDbEntity
  8
Defpoints
 62
     0
370
    40
100
AcDbPoint
 10
-654.6296701637808
 20
-1663.282549617925
 30
0.0
  0
ENDBLK
  5
C8
330
BD
100
AcDbEntity
  8
0
370
    40
100
AcDbBlockEnd
  0
BLOCK
  5
CA
330
C9
100
AcDbEntity
  8
0
370
    40
100
AcDbBlockBegin
  2
*D3
 70
     1
 10
0.0
 20
0.0
 30
0.0
  3
*D3
  1

  0
LINE
  5
CB
330
C9
100
AcDbEntity
  8
0
 62
     8
370
    -2
100
AcDbLine
 10
-719.9628636460058
 20
-1673.830267271481
 30
0.0
 11
-749.9821971434605
 21
-1673.830267271481
 31
0.0
  0
LINE
  5
CC
330
C9
100
AcDbEntity
  8
0
 62
     8
370
    -2
100
AcDbLine
 10
-719.7191677631736
 20
-1718.830267271481
 30
0.0
 11
-749.9821971434605
 21
-1718.830267271481
 31
0.0
  0
LINE
  5
CD
330
C9
100
AcDbEntity
  8
0
 62
     8
370
    -2
100
AcDbLine
 10
-739.9821971434605
 20
-1673.830267271481
 30
0.0
 11
-739.9821971434605
 21
-1718.830267271481
 31
0.0
  0
INSERT
  5
CE
330
C9
100
AcDbEntity
  8
0
 62
     8
370
    -2
100
AcDbBlockReference
  2
_Oblique
 10
-739.9821971434605
 20
-1673.830267271481
 30
0.0
 41
15.0
 42
15.0
 43
15.0
 50
90.0
  0
INSERT
  5
CF
330
C9
100
AcDbEntity
  8
0
 62
     8
370
    -2
100
AcDbBlockReference
  2
_Oblique
 10
-739.9821971434605
 20
-1718.830267271481
 30
0.0
 41
15.0
 42
15.0
 43
15.0
 50
270.0
  0
MTEXT
  5
D0
330
C9
100
AcDbEntity
  8
0
 62
     3
370
    40
100
AcDbMText
 10
-750.7324471434603
 20
-1696.330267271481
 30
0.0
 40
15.0
 41
0.0
 71
     5
 72
     1
  1
\A1;{\H0.7667x;\C256;45}
  7
Binh
 11
0.0000000000000001
 21
1.0
 31
0.0
 73
     1
 44
1.0
1001
ACAD
1000
MTEXTBEGIN
1070
    73
1070
     1
1070
    44
1040
1.0
1070
    74
1070
     0
1000
MTEXTEND
  0
POINT
  5
D1
330
C9
100
AcDbEntity
  8
Defpoints
 62
     0
370
    40
100
AcDbPoint
 10
-719.9628636460058
 20
-1673.830267271481
 30
0.0
  0
POINT
  5
D2
330
C9
100
AcDbEntity
  8
Defpoints
 62
     0
370
    40
100
AcDbPoint
 10
-719.7191677631736
 20
-1718.830267271481
 30
0.0
  0
POINT
  5
D3
330
C9
100
AcDbEntity
  8
Defpoints
 62
     0
370
    40
100
AcDbPoint
 10
-739.9821971434605
 20
-1718.830267271481
 30
0.0
  0
ENDBLK
  5
D4
330
C9
100
AcDbEntity
  8
0
370
    40
100
AcDbBlockEnd
  0
BLOCK
  5
D6
330
D5
100
AcDbEntity
  8
0
370
    40
100
AcDbBlockBegin
  2
*D4
 70
     1
 10
0.0
 20
0.0
 30
0.0
  3
*D4
  1

  0
LINE
  5
D7
330
D5
100
AcDbEntity
  8
0
 62
     8
370
    -2
100
AcDbLine
 10
-724.6322532652483
 20
-1760.079166432791
 30
0.0
 11
-724.6322532652483
 21
-1737.655358976473
 31
0.0
  0
LINE
  5
D8
330
D5
100
AcDbEntity
  8
0
 62
     8
370
    -2
100
AcDbLine
 10
-654.6332746146892
 20
-1760.079166432791
 30
0.0
 11
-654.6332746146892
 21
-1737.655358976473
 31
0.0
  0
LINE
  5
D9
330
D5
100
AcDbEntity
  8
0
 62
     8
370
    -2
100
AcDbLine
 10
-724.6322532652483
 20
-1747.655358976473
 30
0.0
 11
-654.6332746146892
 21
-1747.655358976473
 31
0.0
  0
INSERT
  5
DA
330
D5
100
AcDbEntity
  8
0
 62
     8
370
    -2
100
AcDbBlockReference
  2
_Oblique
 10
-724.6322532652483
 20
-1747.655358976473
 30
0.0
 41
15.0
 42
15.0
 43
15.0
 50
180.0
  0
INSERT
  5
DB
330
D5
100
AcDbEntity
  8
0
 62
     8
370
    -2
100
AcDbBlockReference
  2
_Oblique
 10
-654.6332746146892
 20
-1747.655358976473
 30
0.0
 41
15.0
 42
15.0
 43
15.0
  0
MTEXT
  5
DC
330
D5
100
AcDbEntity
  8
0
 62
     3
370
    40
100
AcDbMText
 10
-689.6327639399687
 20
-1737.655108976473
 30
0.0
 40
15.0
 41
0.0
 71
     5
 72
     1
  1
\A1;{\H0.6667x;\C256;70}
  7
Binh
 73
     1
 44
1.0
1001
ACAD
1000
MTEXTBEGIN
1070
    73
1070
     1
1070
    44
1040
1.0
1070
    74
1070
     0
1000
MTEXTEND
  0
POINT
  5
DD
330
D5
100
AcDbEntity
  8
Defpoints
 62
     0
370
    40
100
AcDbPoint
 10
-724.6322532652483
 20
-1760.079166432791
 30
0.0
  0
POINT
  5
DE
330
D5
100
AcDbEntity
  8
Defpoints
 62
     0
370
    40
100
AcDbPoint
 10
-654.6332746146892
 20
-1760.079166432791
 30
0.0
  0
POINT
  5
DF
330
D5
100
AcDbEntity
  8
Defpoints
 62
     0
370
    40
100
AcDbPoint
 10
-654.6332746146892
 20
-1747.655358976473
 30
0.0
  0
ENDBLK
  5
E0
330
D5
100
AcDbEntity
  8
0
370
    40
100
AcDbBlockEnd
  0
BLOCK
  5
E2
330
E1
100
AcDbEntity
  8
0
370
    40
100
AcDbBlockBegin
  2
*D5
 70
     1
 10
0.0
 20
0.0
 30
0.0
  3
*D5
  1

  0
LINE
  5
E3
330
E1
100
AcDbEntity
  8
0
 62
     8
370
    -2
100
AcDbLine
 10
-723.268474810809
 20
-1758.647577561478
 30
0.0
 11
-750.4467736237917
 21
-1758.647577561478
 31
0.0
  0
LINE
  5
E4
330
E1
100
AcDbEntity
  8
0
 62
     8
370
    -2
100
AcDbLine
 10
-723.268474810809
 20
-1776.647472205677
 30
0.0
 11
-750.4467736237917
 21
-1776.647472205677
 31
0.0
  0
LINE
  5
E5
330
E1
100
AcDbEntity
  8
0
 62
     8
370
    -2
100
AcDbLine
 10
-740.4467736237917
 20
-1758.647577561478
 30
0.0
 11
-740.4467736237917
 21
-1743.647577561478
 31
0.0
  0
LINE
  5
E6
330
E1
100
AcDbEntity
  8
0
 62
     8
370
    -2
100
AcDbLine
 10
-740.4467736237917
 20
-1776.647472205677
 30
0.0
 11
-740.4467736237917
 21
-1791.647472205677
 31
0.0
  0
LINE
  5
E7
330
E1
100
AcDbEntity
  8
0
 62
     8
370
    -2
100
AcDbLine
 10
-740.4467736237917
 20
-1758.647577561478
 30
0.0
 11
-740.4467736237917
 21
-1776.647472205677
 31
0.0
  0
INSERT
  5
E8
330
E1
100
AcDbEntity
  8
0
 62
     8
370
    -2
100
AcDbBlockReference
  2
_Oblique
 10
-740.4467736237917
 20
-1758.647577561478
 30
0.0
 41
15.0
 42
15.0
 43
15.0
 50
270.0
  0
INSERT
  5
E9
330
E1
100
AcDbEntity
  8
0
 62
     8
370
    -2
100
AcDbBlockReference
  2
_Oblique
 10
-740.4467736237917
 20
-1776.647472205677
 30
0.0
 41
15.0
 42
15.0
 43
15.0
 50
90.0
  0
MTEXT
  5
EA
330
E1
100
AcDbEntity
  8
0
 62
     3
370
    40
100
AcDbMText
 10
-750.4470236237915
 20
-1767.647524883578
 30
0.0
 40
15.0
 41
0.0
 71
     5
 72
     1
  1
\A1;{\H0.6667x;\C256;18}
  7
Binh
 11
0.0000000000000001
 21
1.0
 31
0.0
 73
     1
 44
1.0
1001
ACAD
1000
MTEXTBEGIN
1070
    73
1070
     1
1070
    44
1040
1.0
1070
    74
1070
     0
1000
MTEXTEND
  0
POINT
  5
EB
330
E1
100
AcDbEntity
  8
Defpoints
 62
     0
370
    40
100
AcDbPoint
 10
-723.268474810809
 20
-1758.647577561478
 30
0.0
  0
POINT
  5
EC
330
E1
100
AcDbEntity
  8
Defpoints
 62
     0
370
    40
100
AcDbPoint
 10
-723.268474810809
 20
-1776.647472205677
 30
0.0
  0
POINT
  5
ED
330
E1
100
AcDbEntity
  8
Defpoints
 62
     0
370
    40
100
AcDbPoint
 10
-740.4467736237917
 20
-1776.647472205677
 30
0.0
  0
ENDBLK
  5
EE
330
E1
100
AcDbEntity
  8
0
370
    40
100
AcDbBlockEnd
  0
BLOCK
  5
F0
330
EF
100
AcDbEntity
  8
0
370
    40
100
AcDbBlockBegin
  2
*D6
 70
     1
 10
0.0
 20
0.0
 30
0.0
  3
*D6
  1

  0
LINE
  5
F1
330
EF
100
AcDbEntity
  8
0
 62
     8
370
    -2
100
AcDbLine
 10
-583.2882692066441
 20
-1758.645943976842
 30
0.0
 11
-544.6498609452858
 21
-1758.645943976842
 31
0.0
  0
LINE
  5
F2
330
EF
100
AcDbEntity
  8
0
 62
     8
370
    -2
100
AcDbLine
 10
-583.2882692066441
 20
-1776.647629474971
 30
0.0
 11
-544.6498609452858
 21
-1776.647629474971
 31
0.0
  0
LINE
  5
F3
330
EF
100
AcDbEntity
  8
0
 62
     8
370
    -2
100
AcDbLine
 10
-554.6498609452859
 20
-1758.645943976842
 30
0.0
 11
-554.6498609452859
 21
-1743.645943976843
 31
0.0
  0
LINE
  5
F4
330
EF
100
AcDbEntity
  8
0
 62
     8
370
    -2
100
AcDbLine
 10
-554.6498609452859
 20
-1776.647629474971
 30
0.0
 11
-554.6498609452859
 21
-1791.647629474971
 31
0.0
  0
LINE
  5
F5
330
EF
100
AcDbEntity
  8
0
 62
     8
370
    -2
100
AcDbLine
 10
-554.6498609452859
 20
-1758.645943976842
 30
0.0
 11
-554.6498609452859
 21
-1776.647629474971
 31
0.0
  0
INSERT
  5
F6
330
EF
100
AcDbEntity
  8
0
 62
     8
370
    -2
100
AcDbBlockReference
  2
_Oblique
 10
-554.6498609452859
 20
-1758.645943976842
 30
0.0
 41
15.0
 42
15.0
 43
15.0
 50
270.0
  0
INSERT
  5
F7
330
EF
100
AcDbEntity
  8
0
 62
     8
370
    -2
100
AcDbBlockReference
  2
_Oblique
 10
-554.6498609452859
 20
-1776.647629474971
 30
0.0
 41
15.0
 42
15.0
 43
15.0
 50
90.0
  0
MTEXT
  5
F8
330
EF
100
AcDbEntity
  8
0
 62
     3
370
    40
100
AcDbMText
 10
-564.6501109452857
 20
-1767.646786725907
 30
0.0
 40
15.0
 41
0.0
 71
     5
 72
     1
  1
\A1;{\H0.6667x;\C256;18}
  7
Binh
 11
0.0000000000000001
 21
1.0
 31
0.0
 73
     1
 44
1.0
1001
ACAD
1000
MTEXTBEGIN
1070
    73
1070
     1
1070
    44
1040
1.0
1070
    74
1070
     0
1000
MTEXTEND
  0
POINT
  5
F9
330
EF
100
AcDbEntity
  8
Defpoints
 62
     0
370
    40
100
AcDbPoint
 10
-583.2882692066441
 20
-1758.645943976842
 30
0.0
  0
POINT
  5
FA
330
EF
100
AcDbEntity
  8
Defpoints
 62
     0
370
    40
100
AcDbPoint
 10
-583.2882692066441
 20
-1776.647629474971
 30
0.0
  0
POINT
  5
FB
330
EF
100
AcDbEntity
  8
Defpoints
 62
     0
370
    40
100
AcDbPoint
 10
-554.6498609452859
 20
-1776.647629474971
 30
0.0
  0
ENDBLK
  5
FC
330
EF
100
AcDbEntity
  8
0
370
    40
100
AcDbBlockEnd
  0
BLOCK
  5
FE
330
FD
100
AcDbEntity
  8
0
370
    40
100
AcDbBlockBegin
  2
*D7
 70
     1
 10
0.0
 20
0.0
 30
0.0
  3
*D7
  1

  0
LINE
  5
FF
330
FD
100
AcDbEntity
  8
0
 62
     8
370
    -2
100
AcDbLine
 10
-626.8559992342523
 20
-1760.006950659954
 30
0.0
 11
-626.8559992342523
 21
-1737.270210868175
 31
0.0
  0
LINE
  5
100
330
FD
100
AcDbEntity
  8
0
 62
     8
370
    -2
100
AcDbLine
 10
-581.8578223118594
 20
-1760.006950659954
 30
0.0
 11
-581.8578223118594
 21
-1737.270210868175
 31
0.0
  0
LINE
  5
101
330
FD
100
AcDbEntity
  8
0
 62
     8
370
    -2
100
AcDbLine
 10
-626.8559992342523
 20
-1747.270210868175
 30
0.0
 11
-581.8578223118594
 21
-1747.270210868175
 31
0.0
  0
INSERT
  5
102
330
FD
100
AcDbEntity
  8
0
 62
     8
370
    -2
100
AcDbBlockReference
  2
_Oblique
 10
-626.8559992342523
 20
-1747.270210868175
 30
0.0
 41
15.0
 42
15.0
 43
15.0
 50
180.0
  0
INSERT
  5
103
330
FD
100
AcDbEntity
  8
0
 62
     8
370
    -2
100
AcDbBlockReference
  2
_Oblique
 10
-581.8578223118594
 20
-1747.270210868175
 30
0.0
 41
15.0
 42
15.0
 43
15.0
  0
MTEXT
  5
104
330
FD
100
AcDbEntity
  8
0
 62
     3
370
    40
100
AcDbMText
 10
-604.3569107730559
 20
-1737.269960868175
 30
0.0
 40
15.0
 41
0.0
 71
     5
 72
     1
  1
\A1;{\H0.6667x;\C256;45}
  7
Binh
 73
     1
 44
1.0
1001
ACAD
1000
MTEXTBEGIN
1070
    73
1070
     1
1070
    44
1040
1.0
1070
    74
1070
     0
1000
MTEXTEND
  0
POINT
  5
105
330
FD
100
AcDbEntity
  8
Defpoints
 62
     0
370
    40
100
AcDbPoint
 10
-626.8559992342523
 20
-1760.006950659954
 30
0.0
  0
POINT
  5
106
330
FD
100
AcDbEntity
  8
Defpoints
 62
     0
370
    40
100
AcDbPoint
 10
-581.8578223118594
 20
-1760.006950659954
 30
0.0
  0
POINT
  5
107
330
FD
100
AcDbEntity
  8
Defpoints
 62
     0
370
    40
100
AcDbPoint
 10
-581.8578223118594
 20
-1747.270210868175
 30
0.0
  0
ENDBLK
  5
108
330
FD
100
AcDbEntity
  8
0
370
    40
100
AcDbBlockEnd
  0
BLOCK
  5
28A
330
280
100
AcDbEntity
  8
0
100
AcDbBlockBegin
  2
*D9
 70
     1
 10
0.0
 20
0.0
 30
0.0
  3
*D9
  1

  0
LINE
  5
2CC
330
280
100
AcDbEntity
  8
0
 62
     8
370
    -2
100
AcDbLine
 10
76.47061622487337
 20
133.7530312053726
 30
0.0
 11
76.47061622487337
 21
159.3007488589289
 31
0.0
  0
LINE
  5
2CD
330
280
100
AcDbEntity
  8
0
 62
     8
370
    -2
100
AcDbLine
 10
146.4742196847278
 20
133.7530312053726
 30
0.0
 11
146.4742196847278
 21
159.3007488589289
 31
0.0
  0
LINE
  5
2CE
330
280
100
AcDbEntity
  8
0
 62
     8
370
    -2
100
AcDbLine
 10
76.47061622487337
 20
149.3007488589289
 30
0.0
 11
146.4742196847278
 21
149.3007488589289
 31
0.0
  0
INSERT
  5
2CF
330
280
100
AcDbEntity
  8
0
 62
     8
370
    -2
100
AcDbBlockReference
  2
_Oblique
 10
76.47061622487337
 20
149.3007488589289
 30
0.0
 41
15.0
 42
15.0
 43
15.0
 50
180.0
  0
INSERT
  5
2D0
330
280
100
AcDbEntity
  8
0
 62
     8
370
    -2
100
AcDbBlockReference
  2
_Oblique
 10
146.4742196847278
 20
149.3007488589289
 30
0.0
 41
15.0
 42
15.0
 43
15.0
  0
MTEXT
  5
2D1
330
280
100
AcDbEntity
  8
0
 62
     3
370
    40
100
AcDbMText
 10
111.4724179548006
 20
160.0509988589289
 30
0.0
 40
15.0
 41
0.0
 71
     5
 72
     1
  1
\A1;{\H0.7667x;\C256;70}
  7
Binh
 73
     1
 44
1.0
1001
ACAD
1000
MTEXTBEGIN
1070
    73
1070
     1
1070
    44
1040
1.0
1070
    74
1070
     0
1000
MTEXTEND
  0
POINT
  5
2D2
330
280
100
AcDbEntity
  8
Defpoints
 62
     0
100
AcDbPoint
 10
76.47061622487337
 20
133.7530312053726
 30
0.0
  0
POINT
  5
2D3
330
280
100
AcDbEntity
  8
Defpoints
 62
     0
100
AcDbPoint
 10
146.4742196847278
 20
133.7530312053726
 30
0.0
  0
POINT
  5
2D4
330
280
100
AcDbEntity
  8
Defpoints
 62
     0
100
AcDbPoint
 10
146.4742196847278
 20
149.3007488589289
 30
0.0
  0
ENDBLK
  5
28B
330
280
100
AcDbEntity
  8
0
100
AcDbBlockEnd
  0
BLOCK
  5
296
330
28C
100
AcDbEntity
  8
0
100
AcDbBlockBegin
  2
*D10
 70
     1
 10
0.0
 20
0.0
 30
0.0
  3
*D10
  1

  0
LINE
  5
28D
330
28C
100
AcDbEntity
  8
0
 62
     8
370
    -2
100
AcDbLine
 10
81.14102620250282
 20
138.7530312053726
 30
0.0
 11
51.12169270504814
 21
138.7530312053726
 31
0.0
  0
LINE
  5
28E
330
28C
100
AcDbEntity
  8
0
 62
     8
370
    -2
100
AcDbLine
 10
81.38472208533499
 20
93.75303120537262
 30
0.0
 11
51.12169270504813
 21
93.75303120537262
 31
0.0
  0
LINE
  5
28F
330
28C
100
AcDbEntity
  8
0
 62
     8
370
    -2
100
AcDbLine
 10
61.12169270504814
 20
138.7530312053726
 30
0.0
 11
61.12169270504813
 21
93.75303120537262
 31
0.0
  0
INSERT
  5
290
330
28C
100
AcDbEntity
  8
0
 62
     8
370
    -2
100
AcDbBlockReference
  2
_Oblique
 10
61.12169270504814
 20
138.7530312053726
 30
0.0
 41
15.0
 42
15.0
 43
15.0
 50
90.0
  0
INSERT
  5
291
330
28C
100
AcDbEntity
  8
0
 62
     8
370
    -2
100
AcDbBlockReference
  2
_Oblique
 10
61.12169270504813
 20
93.75303120537262
 30
0.0
 41
15.0
 42
15.0
 43
15.0
 50
270.0
  0
MTEXT
  5
292
330
28C
100
AcDbEntity
  8
0
 62
     3
370
    40
100
AcDbMText
 10
50.37144270504811
 20
116.2530312053726
 30
0.0
 40
15.0
 41
0.0
 71
     5
 72
     1
  1
\A1;{\H0.7667x;\C256;45}
  7
Binh
 11
0.0000000000000001
 21
1.0
 31
0.0
 73
     1
 44
1.0
1001
ACAD
1000
MTEXTBEGIN
1070
    73
1070
     1
1070
    44
1040
1.0
1070
    74
1070
     0
1000
MTEXTEND
  0
POINT
  5
293
330
28C
100
AcDbEntity
  8
Defpoints
 62
     0
100
AcDbPoint
 10
81.14102620250282
 20
138.7530312053726
 30
0.0
  0
POINT
  5
294
330
28C
100
AcDbEntity
  8
Defpoints
 62
     0
100
AcDbPoint
 10
81.38472208533499
 20
93.75303120537262
 30
0.0
  0
POINT
  5
295
330
28C
100
AcDbEntity
  8
Defpoints
 62
     0
100
AcDbPoint
 10
61.12169270504813
 20
93.75303120537262
 30
0.0
  0
ENDBLK
  5
297
330
28C
100
AcDbEntity
  8
0
100
AcDbBlockEnd
  0
BLOCK
  5
2A2
330
298
100
AcDbEntity
  8
0
100
AcDbBlockBegin
  2
*D11
 70
     1
 10
0.0
 20
0.0
 30
0.0
  3
*D11
  1

  0
LINE
  5
2E0
330
298
100
AcDbEntity
  8
0
 62
     8
370
    -2
100
AcDbLine
 10
76.47163658326036
 20
52.50413204406243
 30
0.0
 11
76.47163658326036
 21
74.9279395003806
 31
0.0
  0
LINE
  5
2E1
330
298
100
AcDbEntity
  8
0
 62
     8
370
    -2
100
AcDbLine
 10
146.4706152338195
 20
52.50413204406243
 30
0.0
 11
146.4706152338195
 21
74.9279395003806
 31
0.0
  0
LINE
  5
2E2
330
298
100
AcDbEntity
  8
0
 62
     8
370
    -2
100
AcDbLine
 10
76.47163658326036
 20
64.9279395003806
 30
0.0
 11
146.4706152338195
 21
64.9279395003806
 31
0.0
  0
INSERT
  5
2E3
330
298
100
AcDbEntity
  8
0
 62
     8
370
    -2
100
AcDbBlockReference
  2
_Oblique
 10
76.47163658326036
 20
64.9279395003806
 30
0.0
 41
15.0
 42
15.0
 43
15.0
 50
180.0
  0
INSERT
  5
2E4
330
298
100
AcDbEntity
  8
0
 62
     8
370
    -2
100
AcDbBlockReference
  2
_Oblique
 10
146.4706152338195
 20
64.9279395003806
 30
0.0
 41
15.0
 42
15.0
 43
15.0
  0
MTEXT
  5
2E5
330
298
100
AcDbEntity
  8
0
 62
     3
370
    40
100
AcDbMText
 10
111.4711259085399
 20
74.9281895003806
 30
0.0
 40
15.0
 41
0.0
 71
     5
 72
     1
  1
\A1;{\H0.6667x;\C256;70}
  7
Binh
 73
     1
 44
1.0
1001
ACAD
1000
MTEXTBEGIN
1070
    73
1070
     1
1070
    44
1040
1.0
1070
    74
1070
     0
1000
MTEXTEND
  0
POINT
  5
2E6
330
298
100
AcDbEntity
  8
Defpoints
 62
     0
100
AcDbPoint
 10
76.47163658326036
 20
52.50413204406243
 30
0.0
  0
POINT
  5
2E7
330
298
100
AcDbEntity
  8
Defpoints
 62
     0
100
AcDbPoint
 10
146.4706152338195
 20
52.50413204406243
 30
0.0
  0
POINT
  5
2E8
330
298
100
AcDbEntity
  8
Defpoints
 62
     0
100
AcDbPoint
 10
146.4706152338195
 20
64.9279395003806
 30
0.0
  0
ENDBLK
  5
2A3
330
298
100
AcDbEntity
  8
0
100
AcDbBlockEnd
  0
BLOCK
  5
2B0
330
2A4
100
AcDbEntity
  8
0
100
AcDbBlockBegin
  2
*D12
 70
     1
 10
0.0
 20
0.0
 30
0.0
  3
*D12
  1

  0
LINE
  5
2D5
330
2A4
100
AcDbEntity
  8
0
 62
     8
370
    -2
100
AcDbLine
 10
77.83541503769964
 20
53.9357209153751
 30
0.0
 11
50.65711622471753
 21
53.9357209153751
 31
0.0
  0
LINE
  5
2D6
330
2A4
100
AcDbEntity
  8
0
 62
     8
370
    -2
100
AcDbLine
 10
77.83541503769964
 20
35.93582627117587
 30
0.0
 11
50.65711622471752
 21
35.93582627117587
 31
0.0
  0
LINE
  5
2D7
330
2A4
100
AcDbEntity
  8
0
 62
     8
370
    -2
100
AcDbLine
 10
60.65711622471753
 20
53.9357209153751
 30
0.0
 11
60.65711622471753
 21
68.9357209153751
 31
0.0
  0
LINE
  5
2D8
330
2A4
100
AcDbEntity
  8
0
 62
     8
370
    -2
100
AcDbLine
 10
60.65711622471752
 20
35.93582627117587
 30
0.0
 11
60.65711622471752
 21
20.93582627117587
 31
0.0
  0
LINE
  5
2D9
330
2A4
100
AcDbEntity
  8
0
 62
     8
370
    -2
100
AcDbLine
 10
60.65711622471753
 20
53.9357209153751
 30
0.0
 11
60.65711622471752
 21
35.93582627117587
 31
0.0
  0
INSERT
  5
2DA
330
2A4
100
AcDbEntity
  8
0
 62
     8
370
    -2
100
AcDbBlockReference
  2
_Oblique
 10
60.65711622471753
 20
53.9357209153751
 30
0.0
 41
15.0
 42
15.0
 43
15.0
 50
270.0
  0
INSERT
  5
2DB
330
2A4
100
AcDbEntity
  8
0
 62
     8
370
    -2
100
AcDbBlockReference
  2
_Oblique
 10
60.65711622471752
 20
35.93582627117587
 30
0.0
 41
15.0
 42
15.0
 43
15.0
 50
90.0
  0
MTEXT
  5
2DC
330
2A4
100
AcDbEntity
  8
0
 62
     3
370
    40
100
AcDbMText
 10
50.65686622471751
 20
44.9357735932755
 30
0.0
 40
15.0
 41
0.0
 71
     5
 72
     1
  1
\A1;{\H0.6667x;\C256;18}
  7
Binh
 11
0.0000000000000001
 21
1.0
 31
0.0
 73
     1
 44
1.0
1001
ACAD
1000
MTEXTBEGIN
1070
    73
1070
     1
1070
    44
1040
1.0
1070
    74
1070
     0
1000
MTEXTEND
  0
POINT
  5
2DD
330
2A4
100
AcDbEntity
  8
Defpoints
 62
     0
100
AcDbPoint
 10
77.83541503769964
 20
53.9357209153751
 30
0.0
  0
POINT
  5
2DE
330
2A4
100
AcDbEntity
  8
Defpoints
 62
     0
100
AcDbPoint
 10
77.83541503769964
 20
35.93582627117587
 30
0.0
  0
POINT
  5
2DF
330
2A4
100
AcDbEntity
  8
Defpoints
 62
     0
100
AcDbPoint
 10
60.65711622471752
 20
35.93582627117587
 30
0.0
  0
ENDBLK
  5
2B1
330
2A4
100
AcDbEntity
  8
0
100
AcDbBlockEnd
  0
BLOCK
  5
2BE
330
2B2
100
AcDbEntity
  8
0
100
AcDbBlockBegin
  2
*D13
 70
     1
 10
0.0
 20
0.0
 30
0.0
  3
*D13
  1

  0
LINE
  5
2E9
330
2B2
100
AcDbEntity
  8
0
 62
     8
370
    -2
100
AcDbLine
 10
217.8156206418645
 20
53.93735450001066
 30
0.0
 11
256.4540289032227
 21
53.93735450001065
 31
0.0
  0
LINE
  5
2EA
330
2B2
100
AcDbEntity
  8
0
 62
     8
370
    -2
100
AcDbLine
 10
217.8156206418645
 20
35.93566900188227
 30
0.0
 11
256.4540289032227
 21
35.93566900188227
 31
0.0
  0
LINE
  5
2EB
330
2B2
100
AcDbEntity
  8
0
 62
     8
370
    -2
100
AcDbLine
 10
246.4540289032226
 20
53.93735450001065
 30
0.0
 11
246.4540289032227
 21
68.93735450001066
 31
0.0
  0
LINE
  5
2EC
330
2B2
100
AcDbEntity
  8
0
 62
     8
370
    -2
100
AcDbLine
 10
246.4540289032226
 20
35.93566900188227
 30
0.0
 11
246.4540289032226
 21
20.93566900188227
 31
0.0
  0
LINE
  5
2ED
330
2B2
100
AcDbEntity
  8
0
 62
     8
370
    -2
100
AcDbLine
 10
246.4540289032226
 20
53.93735450001065
 30
0.0
 11
246.4540289032226
 21
35.93566900188227
 31
0.0
  0
INSERT
  5
2EE
330
2B2
100
AcDbEntity
  8
0
 62
     8
370
    -2
100
AcDbBlockReference
  2
_Oblique
 10
246.4540289032226
 20
53.93735450001065
 30
0.0
 41
15.0
 42
15.0
 43
15.0
 50
270.0
  0
INSERT
  5
2EF
330
2B2
100
AcDbEntity
  8
0
 62
     8
370
    -2
100
AcDbBlockReference
  2
_Oblique
 10
246.4540289032226
 20
35.93566900188227
 30
0.0
 41
15.0
 42
15.0
 43
15.0
 50
90.0
  0
MTEXT
  5
2F0
330
2B2
100
AcDbEntity
  8
0
 62
     3
370
    40
100
AcDbMText
 10
236.4537789032226
 20
44.9365117509465
 30
0.0
 40
15.0
 41
0.0
 71
     5
 72
     1
  1
\A1;{\H0.6667x;\C256;18}
  7
Binh
 11
0.0000000000000001
 21
1.0
 31
0.0
 73
     1
 44
1.0
1001
ACAD
1000
MTEXTBEGIN
1070
    73
1070
     1
1070
    44
1040
1.0
1070
    74
1070
     0
1000
MTEXTEND
  0
POINT
  5
2F1
330
2B2
100
AcDbEntity
  8
Defpoints
 62
     0
100
AcDbPoint
 10
217.8156206418645
 20
53.93735450001066
 30
0.0
  0
POINT
  5
2F2
330
2B2
100
AcDbEntity
  8
Defpoints
 62
     0
100
AcDbPoint
 10
217.8156206418645
 20
35.93566900188227
 30
0.0
  0
POINT
  5
2F3
330
2B2
100
AcDbEntity
  8
Defpoints
 62
     0
100
AcDbPoint
 10
246.4540289032226
 20
35.93566900188227
 30
0.0
  0
ENDBLK
  5
2BF
330
2B2
100
AcDbEntity
  8
0
100
AcDbBlockEnd
  0
BLOCK
  5
2CA
330
2C0
100
AcDbEntity
  8
0
100
AcDbBlockBegin
  2
*D14
 70
     1
 10
0.0
 20
0.0
 30
0.0
  3
*D14
  1

  0
LINE
  5
2C1
330
2C0
100
AcDbEntity
  8
0
 62
     8
370
    -2
100
AcDbLine
 10
174.2478906142564
 20
52.57634781689955
 30
0.0
 11
174.2478906142564
 21
75.3130876086783
 31
0.0
  0
LINE
  5
2C2
330
2C0
100
AcDbEntity
  8
0
 62
     8
370
    -2
100
AcDbLine
 10
219.2460675366493
 20
52.57634781689955
 30
0.0
 11
219.2460675366493
 21
75.3130876086783
 31
0.0
  0
LINE
  5
2C3
330
2C0
100
AcDbEntity
  8
0
 62
     8
370
    -2
100
AcDbLine
 10
174.2478906142564
 20
65.3130876086783
 30
0.0
 11
219.2460675366493
 21
65.3130876086783
 31
0.0
  0
INSERT
  5
2C4
330
2C0
100
AcDbEntity
  8
0
 62
     8
370
    -2
100
AcDbBlockReference
  2
_Oblique
 10
174.2478906142564
 20
65.3130876086783
 30
0.0
 41
15.0
 42
15.0
 43
15.0
 50
180.0
  0
INSERT
  5
2C5
330
2C0
100
AcDbEntity
  8
0
 62
     8
370
    -2
100
AcDbBlockReference
  2
_Oblique
 10
219.2460675366493
 20
65.3130876086783
 30
0.0
 41
15.0
 42
15.0
 43
15.0
  0
MTEXT
  5
2C6
330
2C0
100
AcDbEntity
  8
0
 62
     3
370
    40
100
AcDbMText
 10
196.7469790754528
 20
75.3133376086783
 30
0.0
 40
15.0
 41
0.0
 71
     5
 72
     1
  1
\A1;{\H0.6667x;\C256;45}
  7
Binh
 73
     1
 44
1.0
1001
ACAD
1000
MTEXTBEGIN
1070
    73
1070
     1
1070
    44
1040
1.0
1070
    74
1070
     0
1000
MTEXTEND
  0
POINT
  5
2C7
330
2C0
100
AcDbEntity
  8
Defpoints
 62
     0
100
AcDbPoint
 10
174.2478906142564
 20
52.57634781689955
 30
0.0
  0
POINT
  5
2C8
330
2C0
100
AcDbEntity
  8
Defpoints
 62
     0
100
AcDbPoint
 10
219.2460675366493
 20
52.57634781689955
 30
0.0
  0
POINT
  5
2C9
330
2C0
100
AcDbEntity
  8
Defpoints
 62
     0
100
AcDbPoint
 10
219.2460675366493
 20
65.3130876086783
 30
0.0
  0
ENDBLK
  5
2CB
330
2C0
100
AcDbEntity
  8
0
100
AcDbBlockEnd
  0
ENDSEC
  0
SECTION
  2
ENTITIES
  0
LWPOLYLINE
  5
1CC
330
1F
100
AcDbEntity
  8
0
100
AcDbPolyline
 90
        2
 70
     0
 43
0.0
 10
76.47061622487337
 20
134.0826212277451
 10
76.47061622487337
 20
98.34320901373587
  0
LWPOLYLINE
  5
1CD
330
1F
100
AcDbEntity
  8
0
100
AcDbPolyline
 90
        2
 70
     0
 43
0.0
 10
81.21990316143962
 20
93.75303120537262
 10
141.8804384165123
 20
93.75303120537262
  0
LWPOLYLINE
  5
1CE
330
1F
100
AcDbEntity
  8
0
100
AcDbPolyline
 90
        2
 70
     0
 43
0.0
 10
146.4706162248733
 20
98.50231814193865
 10
146.4706162248733
 20
134.1621514752852
  0
LWPOLYLINE
  5
1CF
330
1F
100
AcDbEntity
  8
0
100
AcDbPolyline
 90
        2
 70
     0
 43
0.0
 10
141.6389198263588
 20
138.7530312053726
 10
81.14102620250406
 20
138.7530312053726
  0
LWPOLYLINE
  5
1D0
330
1F
100
AcDbEntity
  8
0
 62
     4
100
AcDbPolyline
 90
        2
 70
     0
 43
0.0
 10
147.1724510872587
 20
131.5530312053726
 10
147.1724510872586
 20
100.9530312053726
  0
LINE
  5
1D1
330
1F
100
AcDbEntity
  8
0
 62
     4
100
AcDbLine
 10
158.9281850322128
 20
100.9530312053726
 30
0.0
 11
146.4706162248732
 21
100.9530312053726
 31
0.0
  0
LWPOLYLINE
  5
1D2
330
1F
100
AcDbEntity
  8
0
 62
     4
100
AcDbPolyline
 90
        2
 70
     0
 43
0.0
 10
151.4419465001029
 20
131.5530312053726
 10
151.4419465001028
 20
111.1530312053727
  0
CIRCLE
  5
1D3
330
1F
100
AcDbEntity
  8
0
 62
     4
100
AcDbCircle
 10
155.1558226468916
 20
113.7030312053726
 30
0.0
 40
1.871559633027523
  0
LWPOLYLINE
  5
1D4
330
1F
100
AcDbEntity
  8
0
 62
     4
100
AcDbPolyline
 90
        4
 70
     1
 43
0.0
 10
156.5850965091655
 20
114.7375638767192
 10
156.0521144661567
 20
115.2228149387314
 10
153.7265487846177
 20
112.6684985340263
 10
154.2595308276265
 20
112.1832474720141
  0
CIRCLE
  5
1D5
330
1F
100
AcDbEntity
  8
0
 62
     4
100
AcDbCircle
 10
155.1558226468916
 20
118.8030312053726
 30
0.0
 40
1.871559633027523
  0
LWPOLYLINE
  5
1D6
330
1F
100
AcDbEntity
  8
0
 62
     4
100
AcDbPolyline
 90
        4
 70
     1
 43
0.0
 10
156.5850965091655
 20
119.8375638767191
 10
156.0521144661567
 20
120.3228149387313
 10
153.7265487846177
 20
117.7684985340262
 10
154.2595308276265
 20
117.283247472014
  0
CIRCLE
  5
1D7
330
1F
100
AcDbEntity
  8
0
 62
     4
100
AcDbCircle
 10
155.1558226468916
 20
123.9030312053727
 30
0.0
 40
1.871559633027523
  0
LWPOLYLINE
  5
1D8
330
1F
100
AcDbEntity
  8
0
 62
     4
100
AcDbPolyline
 90
        4
 70
     1
 43
0.0
 10
156.5850965091655
 20
124.9375638767193
 10
156.0521144661567
 20
125.4228149387312
 10
153.7265487846177
 20
122.8684985340263
 10
154.2595308276265
 20
122.3832474720142
  0
CIRCLE
  5
1D9
330
1F
100
AcDbEntity
  8
0
 62
     4
100
AcDbCircle
 10
155.1558226468916
 20
129.0030312053726
 30
0.0
 40
1.871559633027523
  0
LWPOLYLINE
  5
1DA
330
1F
100
AcDbEntity
  8
0
 62
     4
100
AcDbPolyline
 90
        4
 70
     1
 43
0.0
 10
156.5850965091656
 20
130.0375638767192
 10
156.0521144661568
 20
130.5228149387311
 10
153.7265487846177
 20
127.9684985340262
 10
154.2595308276265
 20
127.4832474720141
  0
LWPOLYLINE
  5
1DB
330
1F
100
AcDbEntity
  8
0
 62
     4
100
AcDbPolyline
 90
        2
 70
     0
 43
0.0
 10
151.4419465001027
 20
131.5530312053726
 10
158.9281850322129
 20
131.5530312053726
  0
LINE
  5
1DC
330
1F
100
AcDbEntity
  8
0
 62
     4
100
AcDbLine
 10
158.9281850322129
 20
131.5530312053726
 30
0.0
 11
146.4706162248733
 21
131.5530312053726
 31
0.0
  0
CIRCLE
  5
1DD
330
1F
100
AcDbEntity
  8
0
 62
     4
100
AcDbCircle
 10
155.1558226468916
 20
103.5030312053726
 30
0.0
 40
1.871559633027523
  0
LWPOLYLINE
  5
1DE
330
1F
100
AcDbEntity
  8
0
 62
     4
100
AcDbPolyline
 90
        4
 70
     1
 43
0.0
 10
156.5850965091655
 20
104.537563876719
 10
156.0521144661567
 20
105.0228149387311
 10
153.7265487846177
 20
102.4684985340262
 10
154.2595308276265
 20
101.9832474720141
  0
CIRCLE
  5
1DF
330
1F
100
AcDbEntity
  8
0
 62
     4
100
AcDbCircle
 10
155.1558226468916
 20
108.6030312053725
 30
0.0
 40
1.871559633027523
  0
LWPOLYLINE
  5
1E0
330
1F
100
AcDbEntity
  8
0
 62
     4
100
AcDbPolyline
 90
        4
 70
     1
 43
0.0
 10
156.5850965091655
 20
109.6375638767191
 10
156.0521144661567
 20
110.1228149387312
 10
153.7265487846177
 20
107.5684985340261
 10
154.2595308276265
 20
107.083247472014
  0
LWPOLYLINE
  5
1E1
330
1F
100
AcDbEntity
  8
0
 62
     4
100
AcDbPolyline
 90
        4
 70
     1
 43
0.0
 10
151.4419465001029
 20
100.9530312053726
 10
158.9281850322129
 20
100.9530312053726
 10
158.9281850322129
 20
131.5530312053726
 10
151.4419465001029
 20
131.5530312053726
  0
LWPOLYLINE
  5
1E2
330
1F
100
AcDbEntity
  8
0
 62
     4
100
AcDbPolyline
 90
        4
 70
     1
 43
0.0
 10
157.5947353943539
 20
130.0540526287326
 10
158.4129555053071
 20
130.0540526287326
 10
158.4129555053071
 20
127.9520097820126
 10
157.5947353943539
 20
127.9520097820126
  0
LWPOLYLINE
  5
1E3
330
1F
100
AcDbEntity
  8
0
 62
     4
100
AcDbPolyline
 90
        4
 70
     1
 43
0.0
 10
157.5947353943539
 20
124.9540526287327
 10
158.4129555053071
 20
124.9540526287327
 10
158.4129555053071
 20
122.8520097820127
 10
157.5947353943539
 20
122.8520097820127
  0
LWPOLYLINE
  5
1E4
330
1F
100
AcDbEntity
  8
0
 62
     4
100
AcDbPolyline
 90
        4
 70
     1
 43
0.0
 10
157.5947353943539
 20
119.8540526287326
 10
158.4129555053071
 20
119.8540526287326
 10
158.4129555053071
 20
117.7520097820126
 10
157.5947353943539
 20
117.7520097820126
  0
LWPOLYLINE
  5
1E5
330
1F
100
AcDbEntity
  8
0
 62
     4
100
AcDbPolyline
 90
        4
 70
     1
 43
0.0
 10
157.5947353943539
 20
114.7540526287326
 10
158.4129555053071
 20
114.7540526287326
 10
158.4129555053071
 20
112.6520097820126
 10
157.5947353943539
 20
112.6520097820126
  0
LWPOLYLINE
  5
1E6
330
1F
100
AcDbEntity
  8
0
 62
     4
100
AcDbPolyline
 90
        4
 70
     1
 43
0.0
 10
157.5947353943539
 20
109.6540526287325
 10
158.4129555053071
 20
109.6540526287325
 10
158.4129555053071
 20
107.5520097820125
 10
157.5947353943539
 20
107.5520097820125
  0
LWPOLYLINE
  5
1E7
330
1F
100
AcDbEntity
  8
0
 62
     4
100
AcDbPolyline
 90
        4
 70
     1
 43
0.0
 10
157.5947353943539
 20
104.5540526287326
 10
158.4129555053071
 20
104.5540526287326
 10
158.4129555053071
 20
102.4520097820126
 10
157.5947353943539
 20
102.4520097820126
  0
LWPOLYLINE
  5
1E8
330
1F
100
AcDbEntity
  8
0
 62
     4
100
AcDbPolyline
 90
        4
 70
     1
 43
0.0
 10
147.1724510872587
 20
125.9836501876895
 10
151.4419465001029
 20
125.9836501876895
 10
151.4419465001029
 20
126.585701739168
 10
147.1724510872587
 20
126.585701739168
  0
LWPOLYLINE
  5
1E9
330
1F
100
AcDbEntity
  8
0
 62
     4
100
AcDbPolyline
 90
        4
 70
     1
 43
0.0
 10
147.1724510872586
 20
121.0520054296336
 10
151.4419465001028
 20
121.0520054296336
 10
151.4419465001028
 20
121.6540569811121
 10
147.1724510872586
 20
121.6540569811121
  0
LWPOLYLINE
  5
1EA
330
1F
100
AcDbEntity
  8
0
 62
     4
100
AcDbPolyline
 90
        4
 70
     1
 43
0.0
 10
147.1724510872587
 20
115.9520054296334
 10
151.4419465001029
 20
115.9520054296334
 10
151.4419465001029
 20
116.554056981112
 10
147.1724510872587
 20
116.554056981112
  0
LWPOLYLINE
  5
1EB
330
1F
100
AcDbEntity
  8
0
 62
     4
100
AcDbPolyline
 90
        4
 70
     1
 43
0.0
 10
147.1724510872586
 20
110.8520054296335
 10
151.4419465001028
 20
110.8520054296335
 10
151.4419465001028
 20
111.4540569811121
 10
147.1724510872586
 20
111.4540569811121
  0
LWPOLYLINE
  5
1EC
330
1F
100
AcDbEntity
  8
0
 62
     4
100
AcDbPolyline
 90
        4
 70
     1
 43
0.0
 10
147.1724510872587
 20
105.6608959037204
 10
151.4419465001029
 20
105.6608959037204
 10
151.4419465001029
 20
106.2629474551989
 10
147.1724510872587
 20
106.2629474551989
  0
LWPOLYLINE
  5
1ED
330
1F
100
AcDbEntity
  8
0
 62
     4
100
AcDbPolyline
 90
        2
 70
     0
 43
0.0
 10
151.4419465001029
 20
130.4209275177826
 10
151.4419465001029
 20
127.6645054044173
  0
LWPOLYLINE
  5
1EE
330
1F
100
AcDbEntity
  8
0
 62
     4
100
AcDbPolyline
 90
        2
 70
     0
 43
0.0
 10
149.7865389994971
 20
128.1645054044173
 10
149.7865389994971
 20
129.9209275177826
  0
LINE
  5
1EF
330
1F
100
AcDbEntity
  8
0
 62
     4
100
AcDbLine
 10
149.7865389994971
 20
128.1645054044173
 30
0.0
 11
151.4419465001029
 21
127.6645054044173
 31
0.0
  0
LINE
  5
1F0
330
1F
100
AcDbEntity
  8
0
 62
     4
100
AcDbLine
 10
151.4419465001029
 20
130.4209275177826
 30
0.0
 11
149.7865389994971
 21
129.9209275177826
 31
0.0
  0
LWPOLYLINE
  5
1F1
330
1F
100
AcDbEntity
  8
0
 62
     4
100
AcDbPolyline
 90
        2
 70
     0
 43
0.0
 10
151.4419465001029
 20
124.9988382683317
 10
151.4419465001029
 20
122.2424161549664
  0
LWPOLYLINE
  5
1F2
330
1F
100
AcDbEntity
  8
0
 62
     4
100
AcDbPolyline
 90
        2
 70
     0
 43
0.0
 10
149.7865389994971
 20
122.7424161549664
 10
149.7865389994971
 20
124.4988382683317
  0
LINE
  5
1F3
330
1F
100
AcDbEntity
  8
0
 62
     4
100
AcDbLine
 10
149.7865389994971
 20
122.7424161549664
 30
0.0
 11
151.4419465001029
 21
122.2424161549664
 31
0.0
  0
LINE
  5
1F4
330
1F
100
AcDbEntity
  8
0
 62
     4
100
AcDbLine
 10
151.4419465001029
 20
124.9988382683317
 30
0.0
 11
149.7865389994971
 21
124.4988382683317
 31
0.0
  0
LWPOLYLINE
  5
1F5
330
1F
100
AcDbEntity
  8
0
 62
     4
100
AcDbPolyline
 90
        2
 70
     0
 43
0.0
 10
151.4419465001029
 20
120.1812422620552
 10
151.4419465001029
 20
117.4248201486899
  0
LWPOLYLINE
  5
1F6
330
1F
100
AcDbEntity
  8
0
 62
     4
100
AcDbPolyline
 90
        2
 70
     0
 43
0.0
 10
149.7865389994971
 20
117.9248201486899
 10
149.7865389994971
 20
119.6812422620552
  0
LINE
  5
1F7
330
1F
100
AcDbEntity
  8
0
 62
     4
100
AcDbLine
 10
149.7865389994971
 20
117.9248201486899
 30
0.0
 11
151.4419465001029
 21
117.4248201486899
 31
0.0
  0
LINE
  5
1F8
330
1F
100
AcDbEntity
  8
0
 62
     4
100
AcDbLine
 10
151.4419465001029
 20
120.1812422620552
 30
0.0
 11
149.7865389994971
 21
119.6812422620552
 31
0.0
  0
LWPOLYLINE
  5
1F9
330
1F
100
AcDbEntity
  8
0
 62
     4
100
AcDbPolyline
 90
        2
 70
     0
 43
0.0
 10
151.4419465001029
 20
115.0735633235985
 10
151.4419465001029
 20
112.3171412102332
  0
LWPOLYLINE
  5
1FA
330
1F
100
AcDbEntity
  8
0
 62
     4
100
AcDbPolyline
 90
        2
 70
     0
 43
0.0
 10
149.7865389994971
 20
112.8171412102332
 10
149.7865389994971
 20
114.5735633235984
  0
LINE
  5
1FB
330
1F
100
AcDbEntity
  8
0
 62
     4
100
AcDbLine
 10
149.7865389994971
 20
112.8171412102332
 30
0.0
 11
151.4419465001029
 21
112.3171412102332
 31
0.0
  0
LINE
  5
1FC
330
1F
100
AcDbEntity
  8
0
 62
     4
100
AcDbLine
 10
151.4419465001029
 20
115.0735633235985
 30
0.0
 11
149.7865389994971
 21
114.5735633235984
 31
0.0
  0
LWPOLYLINE
  5
1FD
330
1F
100
AcDbEntity
  8
0
 62
     4
100
AcDbPolyline
 90
        2
 70
     0
 43
0.0
 10
151.4419465001029
 20
109.9028944670386
 10
151.4419465001029
 20
107.1464723536734
  0
LWPOLYLINE
  5
1FE
330
1F
100
AcDbEntity
  8
0
 62
     4
100
AcDbPolyline
 90
        2
 70
     0
 43
0.0
 10
149.7865389994971
 20
107.6464723536734
 10
149.7865389994971
 20
109.4028944670386
  0
LINE
  5
1FF
330
1F
100
AcDbEntity
  8
0
 62
     4
100
AcDbLine
 10
149.7865389994971
 20
107.6464723536734
 30
0.0
 11
151.4419465001029
 21
107.1464723536734
 31
0.0
  0
LINE
  5
200
330
1F
100
AcDbEntity
  8
0
 62
     4
100
AcDbLine
 10
151.4419465001029
 20
109.9028944670386
 30
0.0
 11
149.7865389994971
 21
109.4028944670386
 31
0.0
  0
LWPOLYLINE
  5
201
330
1F
100
AcDbEntity
  8
0
 62
     4
100
AcDbPolyline
 90
        2
 70
     0
 43
0.0
 10
151.4419465001029
 20
104.6724771201148
 10
151.4419465001029
 20
101.9160550067496
  0
LWPOLYLINE
  5
202
330
1F
100
AcDbEntity
  8
0
 62
     4
100
AcDbPolyline
 90
        2
 70
     0
 43
0.0
 10
149.7865389994971
 20
102.4160550067496
 10
149.7865389994971
 20
104.1724771201149
  0
LINE
  5
203
330
1F
100
AcDbEntity
  8
0
 62
     4
100
AcDbLine
 10
149.7865389994971
 20
102.4160550067496
 30
0.0
 11
151.4419465001029
 21
101.9160550067496
 31
0.0
  0
LINE
  5
204
330
1F
100
AcDbEntity
  8
0
 62
     4
100
AcDbLine
 10
151.4419465001029
 20
104.6724771201148
 30
0.0
 11
149.7865389994971
 21
104.1724771201149
 31
0.0
  0
LINE
  5
205
102
{ACAD_REACTORS
330
273
102
}
330
1F
100
AcDbEntity
  8
0
100
AcDbLine
 10
81.14102620250282
 20
138.7530312053726
 30
0.0
 11
81.47061622487337
 21
138.7530312053726
 31
0.0
  0
ARC
  5
206
102
{ACAD_REACTORS
330
270
102
}
330
1F
100
AcDbEntity
  8
0
100
AcDbCircle
 10
81.30582121368702
 20
133.9178262165588
 30
0.0
 40
4.83801247203438
100
AcDbArc
 50
88.04798240945542
 51
181.952017590538
  0
ARC
  5
207
102
{ACAD_REACTORS
330
273
102
}
330
1F
100
AcDbEntity
  8
0
100
AcDbCircle
 10
81.30231262338787
 20
98.59034175568275
 30
0.0
 40
4.83801247203438
100
AcDbArc
 50
177.0719736141788
 51
270.9760087952669
  0
ARC
  5
208
330
1F
100
AcDbEntity
  8
0
100
AcDbCircle
 10
141.6333056745632
 20
98.58472760388702
 30
0.0
 40
4.83801247203438
100
AcDbArc
 50
267.0719736141786
 51
0.9760087952538475
  0
ARC
  5
209
330
1F
100
AcDbEntity
  8
0
100
AcDbCircle
 10
141.6389198263588
 20
133.9150187333383
 30
0.0
 40
4.83801247203438
100
AcDbArc
 50
357.0719736141786
 51
90.97600879525383
  0
LINE
  5
20A
330
1F
100
AcDbEntity
  8
0
100
AcDbLine
 10
76.46430015135348
 20
40.93572091537396
 30
0.0
 11
76.46430015135348
 21
40.60613089300193
 31
0.0
  0
LINE
  5
20B
330
1F
100
AcDbEntity
  8
0
100
AcDbLine
 10
81.13471012898418
 20
35.9357209153751
 30
0.0
 11
141.8002062472396
 21
35.9357209153751
 31
0.0
  0
LINE
  5
20C
330
1F
100
AcDbEntity
  8
0
100
AcDbLine
 10
146.4706162248733
 20
40.6061308930017
 30
0.0
 11
146.4706162248733
 21
49.26531093774895
 31
0.0
  0
LINE
  5
20D
330
1F
100
AcDbEntity
  8
0
 62
     4
100
AcDbLine
 10
146.4706162248733
 20
40.9357209153751
 30
0.0
 11
158.4706162248733
 21
40.9357209153751
 31
0.0
  0
LINE
  5
20E
330
1F
100
AcDbEntity
  8
0
 62
     4
100
AcDbLine
 10
158.4706162248733
 20
40.9357209153751
 30
0.0
 11
158.4706162248733
 21
56.9357209153751
 31
0.0
  0
LINE
  5
20F
330
1F
100
AcDbEntity
  8
0
 62
     4
100
AcDbLine
 10
158.4706162248733
 20
56.9357209153751
 30
0.0
 11
151.9706162248733
 21
56.9357209153751
 31
0.0
  0
LINE
  5
210
330
1F
100
AcDbEntity
  8
0
 62
     4
100
AcDbLine
 10
150.4706162248733
 20
51.44655605105765
 30
0.0
 11
150.4706162248733
 21
40.9357209153751
 31
0.0
  0
LINE
  5
211
330
1F
100
AcDbEntity
  8
0
 62
     4
100
AcDbLine
 10
150.4706162248733
 20
48.9357209153751
 30
0.0
 11
146.4706162248733
 21
48.9357209153751
 31
0.0
  0
LINE
  5
212
330
1F
100
AcDbEntity
  8
0
 62
     4
100
AcDbLine
 10
151.9706162248733
 20
56.9357209153751
 30
0.0
 11
150.4706162248733
 21
51.44655605105765
 31
0.0
  0
LINE
  5
213
330
1F
100
AcDbEntity
  8
0
 62
     4
100
AcDbLine
 10
150.4706162248733
 20
49.84141254332929
 30
0.0
 11
148.1463391289165
 21
49.38856672935219
 31
0.0
  0
LINE
  5
214
330
1F
100
AcDbEntity
  8
0
 62
     4
100
AcDbLine
 10
148.1463391289165
 20
49.38856672935219
 30
0.0
 11
148.1463391289165
 21
48.9357209153751
 31
0.0
  0
LINE
  5
215
330
1F
100
AcDbEntity
  8
0
 62
     4
100
AcDbLine
 10
158.4706162248733
 20
56.9357209153751
 30
0.0
 11
157.6706162248734
 21
56.9357209153751
 31
0.0
  0
LINE
  5
216
330
1F
100
AcDbEntity
  8
0
 62
     4
100
AcDbLine
 10
158.4706162248733
 20
40.9357209153751
 30
0.0
 11
157.9706162248733
 21
40.9357209153751
 31
0.0
  0
LINE
  5
217
330
1F
100
AcDbEntity
  8
0
 62
     4
100
AcDbLine
 10
157.9706162248733
 20
40.9357209153751
 30
0.0
 11
157.9706162248733
 21
56.9357209153751
 31
0.0
  0
LINE
  5
218
330
1F
100
AcDbEntity
  8
0
100
AcDbLine
 10
146.4706162248733
 20
48.9357209153751
 30
0.0
 11
146.4706162248733
 21
40.9357209153751
 31
0.0
  0
LINE
  5
219
330
1F
100
AcDbEntity
  8
0
100
AcDbLine
 10
76.46430015135348
 20
40.60613089300193
 30
0.0
 11
76.47061622487337
 21
48.93572091537532
 31
0.0
  0
LINE
  5
21A
330
1F
100
AcDbEntity
  8
0
100
AcDbLine
 10
219.2478906142564
 20
49.26694452238473
 30
0.0
 11
219.2478906142564
 21
40.60776447763885
 31
0.0
  0
LINE
  5
21B
330
1F
100
AcDbEntity
  8
0
100
AcDbLine
 10
174.2478906142564
 20
40.77255948882441
 30
0.0
 11
174.2478906142564
 21
49.26694452238428
 31
0.0
  0
LWPOLYLINE
  5
21C
330
1F
100
AcDbEntity
  8
0
 62
     4
100
AcDbPolyline
 90
        2
 70
     0
 43
0.0
 10
186.7478906142564
 20
40.65757624194373
 10
206.7478906142564
 20
40.65757624194373
  0
LINE
  5
21D
330
1F
100
AcDbEntity
  8
0
 62
     4
100
AcDbLine
 10
206.7478906142564
 20
48.65757624194372
 30
0.0
 11
186.7478906142564
 21
48.65757624194372
 31
0.0
  0
LINE
  5
21E
330
1F
100
AcDbEntity
  8
0
 62
     4
100
AcDbLine
 10
206.7478906142564
 20
42.15757624194373
 30
0.0
 11
186.7478906142564
 21
42.15757624194373
 31
0.0
  0
LWPOLYLINE
  5
21F
330
1F
100
AcDbEntity
  8
0
 62
     4
100
AcDbPolyline
 90
        4
 70
     1
 43
0.0
 10
206.3719911144772
 20
43.13572445361717
 10
202.1232650034043
 20
43.13572445361717
 10
202.1232650034043
 20
48.43026871046174
 10
206.3719911144772
 20
48.43026871046174
  0
LWPOLYLINE
  5
220
330
1F
100
AcDbEntity
  8
0
 62
     4
100
AcDbPolyline
 90
        4
 70
     1
 43
0.0
 10
201.3714660038461
 20
43.13572445361717
 10
197.1227398927732
 20
43.13572445361717
 10
197.1227398927732
 20
48.43026871046174
 10
201.3714660038461
 20
48.43026871046174
  0
LWPOLYLINE
  5
221
330
1F
100
AcDbEntity
  8
0
 62
     4
100
AcDbPolyline
 90
        4
 70
     1
 43
0.0
 10
196.3835676671423
 20
43.13572445361717
 10
192.1348415560695
 20
43.13572445361717
 10
192.1348415560695
 20
48.43026871046174
 10
196.3835676671423
 20
48.43026871046174
  0
LWPOLYLINE
  5
222
330
1F
100
AcDbEntity
  8
0
 62
     4
100
AcDbPolyline
 90
        4
 70
     1
 43
0.0
 10
191.3654002695951
 20
43.13572445361717
 10
187.1166741585222
 20
43.13572445361717
 10
187.1166741585222
 20
48.43026871046174
 10
191.3654002695951
 20
48.43026871046174
  0
LINE
  5
223
330
1F
100
AcDbEntity
  8
0
100
AcDbLine
 10
206.3719911144772
 20
46.63409422475467
 30
0.0
 11
202.1232650034043
 21
46.63409422475467
 31
0.0
  0
LINE
  5
224
330
1F
100
AcDbEntity
  8
0
100
AcDbLine
 10
201.3714660038461
 20
46.63409422475467
 30
0.0
 11
197.1227398927732
 21
46.63409422475467
 31
0.0
  0
LINE
  5
225
330
1F
100
AcDbEntity
  8
0
100
AcDbLine
 10
196.3835676671423
 20
46.63409422475467
 30
0.0
 11
192.1348415560695
 21
46.63409422475467
 31
0.0
  0
LINE
  5
226
330
1F
100
AcDbEntity
  8
0
100
AcDbLine
 10
191.3654002695951
 20
46.63409422475467
 30
0.0
 11
187.1166741585222
 21
46.63409422475467
 31
0.0
  0
LINE
  5
227
330
1F
100
AcDbEntity
  8
0
 62
     4
100
AcDbLine
 10
206.7478906142564
 20
56.15757624194372
 30
0.0
 11
186.7478906142564
 21
56.15757624194372
 31
0.0
  0
LWPOLYLINE
  5
228
330
1F
100
AcDbEntity
  8
0
 62
     4
100
AcDbPolyline
 90
        4
 70
     1
 43
0.0
 10
211.42071722555
 20
43.13572445361717
 10
207.1719911144773
 20
43.13572445361717
 10
207.1719911144773
 20
48.43026871046174
 10
211.42071722555
 20
48.43026871046174
  0
LINE
  5
229
330
1F
100
AcDbEntity
  8
0
100
AcDbLine
 10
211.42071722555
 20
46.63409422475467
 30
0.0
 11
207.1719911144773
 21
46.63409422475467
 31
0.0
  0
LWPOLYLINE
  5
22A
330
1F
100
AcDbEntity
  8
0
 62
     4
100
AcDbPolyline
 90
        4
 70
     1
 43
0.0
 10
186.3166741585223
 20
43.13572445361717
 10
182.0679480474493
 20
43.13572445361717
 10
182.0679480474493
 20
48.43026871046174
 10
186.3166741585223
 20
48.43026871046174
  0
LINE
  5
22B
330
1F
100
AcDbEntity
  8
0
 62
     4
100
AcDbLine
 10
206.7478906142564
 20
40.65757624194373
 30
0.0
 11
212.2207172255501
 21
40.65757624194373
 31
0.0
  0
LINE
  5
22C
330
1F
100
AcDbEntity
  8
0
 62
     4
100
AcDbLine
 10
212.2207172255501
 20
40.65757624194373
 30
0.0
 11
212.2207172255501
 21
48.65757624194372
 31
0.0
  0
LINE
  5
22D
330
1F
100
AcDbEntity
  8
0
 62
     4
100
AcDbLine
 10
212.2207172255501
 20
48.65757624194372
 30
0.0
 11
206.7478906142564
 21
48.65757624194372
 31
0.0
  0
LINE
  5
22E
330
1F
100
AcDbEntity
  8
0
 62
     4
100
AcDbLine
 10
206.7478906142564
 20
42.15757624194373
 30
0.0
 11
212.2207172255501
 21
42.15757624194373
 31
0.0
  0
LINE
  5
22F
330
1F
100
AcDbEntity
  8
0
 62
     4
100
AcDbLine
 10
186.7478906142564
 20
40.65757624194373
 30
0.0
 11
181.2679480474493
 21
40.65757624194373
 31
0.0
  0
LINE
  5
230
330
1F
100
AcDbEntity
  8
0
 62
     4
100
AcDbLine
 10
181.2679480474493
 20
40.65757624194373
 30
0.0
 11
181.2679480474493
 21
48.65757624194372
 31
0.0
  0
LINE
  5
231
330
1F
100
AcDbEntity
  8
0
 62
     4
100
AcDbLine
 10
181.2679480474493
 20
48.65757624194372
 30
0.0
 11
186.7478906142564
 21
48.65757624194372
 31
0.0
  0
LINE
  5
232
330
1F
100
AcDbEntity
  8
0
 62
     4
100
AcDbLine
 10
186.7478906142564
 20
42.15757624194373
 30
0.0
 11
181.2679480474493
 21
42.15757624194373
 31
0.0
  0
LINE
  5
233
330
1F
100
AcDbEntity
  8
0
100
AcDbLine
 10
186.3166741585223
 20
46.63409422475467
 30
0.0
 11
182.0679480474493
 21
46.63409422475467
 31
0.0
  0
LINE
  5
234
330
1F
100
AcDbEntity
  8
0
 62
     4
100
AcDbLine
 10
181.2679480474493
 20
48.65757624194372
 30
0.0
 11
181.2679480474493
 21
56.65757624194373
 31
0.0
  0
LINE
  5
235
330
1F
100
AcDbEntity
  8
0
 62
     4
100
AcDbLine
 10
181.2679480474493
 20
56.65757624194373
 30
0.0
 11
212.2207172255501
 21
56.65757624194373
 31
0.0
  0
LINE
  5
236
330
1F
100
AcDbEntity
  8
0
 62
     4
100
AcDbLine
 10
212.2207172255501
 20
56.65757624194373
 30
0.0
 11
212.2207172255501
 21
48.65757624194372
 31
0.0
  0
LINE
  5
237
330
1F
100
AcDbEntity
  8
0
 62
     4
100
AcDbLine
 10
212.2207172255501
 20
56.15757624194372
 30
0.0
 11
181.2679480474493
 21
56.15757624194372
 31
0.0
  0
LINE
  5
238
330
1F
100
AcDbEntity
  8
0
100
AcDbLine
 10
76.47337556227961
 20
52.57471423226537
 30
0.0
 11
76.47061622487337
 21
48.93572091537532
 31
0.0
  0
LWPOLYLINE
  5
239
330
1F
100
AcDbEntity
  8
0
100
AcDbPolyline
 90
        2
 70
     0
 43
0.0
 10
146.4706162248733
 20
52.50244654593405
 10
146.4706162248733
 20
37.36730978668777
  0
LWPOLYLINE
  5
23A
330
1F
100
AcDbEntity
  8
0
100
AcDbPolyline
 90
        2
 70
     0
 43
0.0
 10
145.1068377704335
 20
35.9357209153751
 10
77.83758531467213
 20
35.9357209153751
  0
LWPOLYLINE
  5
23B
330
1F
100
AcDbEntity
  8
0
100
AcDbPolyline
 90
        2
 70
     0
 43
0.0
 10
76.47440757204828
 20
37.2978657851794
 10
76.47440757204828
 20
52.5932134561998
  0
LINE
  5
23C
102
{ACAD_REACTORS
330
279
102
}
330
1F
100
AcDbEntity
  8
0
100
AcDbLine
 10
77.83541503770021
 20
53.9357209153751
 30
0.0
 11
77.97440757204828
 21
53.9357209153751
 31
0.0
  0
ARC
  5
23D
102
{ACAD_REACTORS
330
276
330
279
102
}
330
1F
100
AcDbEntity
  8
0
100
AcDbCircle
 10
77.90491130487424
 20
52.50413204406243
 30
0.0
 40
1.433274721613901
100
AcDbArc
 50
87.22076678405983
 51
182.7358040451587
  0
ARC
  5
23E
330
1F
100
AcDbEntity
  8
0
100
AcDbCircle
 10
77.90599644336094
 20
37.36736205235354
 30
0.0
 40
1.433274721613901
100
AcDbArc
 50
177.2207667840539
 51
272.7358040451587
  0
ARC
  5
23F
330
1F
100
AcDbEntity
  8
0
100
AcDbCircle
 10
145.0373415032595
 20
52.50244654593405
 30
0.0
 40
1.433274721613901
100
AcDbArc
 50
354.444797449064
 51
89.9598347101655
  0
ARC
  5
240
330
1F
100
AcDbEntity
  8
0
100
AcDbCircle
 10
145.0373415032595
 20
37.36730978668777
 30
0.0
 40
1.433274721613901
100
AcDbArc
 50
267.2207667840664
 51
2.735804045171748
  0
LINE
  5
241
330
1F
100
AcDbEntity
  8
0
100
AcDbLine
 10
145.0383462524815
 20
53.9357209153751
 30
0.0
 11
77.97440757205009
 21
53.9357209153751
 31
0.0
  0
LINE
  5
242
330
1F
100
AcDbEntity
  8
0
100
AcDbLine
 10
181.2679480474493
 20
53.93735450001066
 30
0.0
 11
175.6099300896764
 21
53.93735450001066
 31
0.0
  0
LINE
  5
243
102
{ACAD_REACTORS
330
27F
102
}
330
1F
100
AcDbEntity
  8
0
100
AcDbLine
 10
174.2478906142564
 20
52.57634781689955
 30
0.0
 11
174.2478906142564
 21
49.26694452238428
 31
0.0
  0
LINE
  5
244
330
1F
100
AcDbEntity
  8
0
100
AcDbLine
 10
174.2506980974771
 20
40.93735450001088
 30
0.0
 11
174.2506980974771
 21
37.2994993698145
 31
0.0
  0
LINE
  5
245
330
1F
100
AcDbEntity
  8
0
100
AcDbLine
 10
212.2207172255501
 20
53.93735450001066
 30
0.0
 11
217.8156206417865
 21
53.93735450001066
 31
0.0
  0
LINE
  5
246
330
1F
100
AcDbEntity
  8
0
100
AcDbLine
 10
219.2478906142564
 20
52.50408013056961
 30
0.0
 11
219.2478906142564
 21
37.36894337132333
 31
0.0
  0
ARC
  5
247
330
1F
100
AcDbEntity
  8
0
100
AcDbCircle
 10
175.679426356851
 20
52.50576562869799
 30
0.0
 40
1.433274721613901
100
AcDbArc
 50
87.22076678405983
 51
182.7358040451587
  0
ARC
  5
248
102
{ACAD_REACTORS
330
27C
102
}
330
1F
100
AcDbEntity
  8
0
100
AcDbCircle
 10
217.8146158926424
 20
52.50408013056961
 30
0.0
 40
1.433274721613901
100
AcDbArc
 50
354.444797449064
 51
89.9598347101655
  0
ARC
  5
249
330
1F
100
AcDbEntity
  8
0
100
AcDbCircle
 10
217.8146158926424
 20
37.36894337132333
 30
0.0
 40
1.433274721613901
100
AcDbArc
 50
267.2207667840664
 51
2.735804045171748
  0
ARC
  5
24A
330
1F
100
AcDbEntity
  8
0
100
AcDbCircle
 10
175.6822869687898
 20
37.3689956369891
 30
0.0
 40
1.433274721613901
100
AcDbArc
 50
177.2207667840539
 51
272.7358040451587
  0
LINE
  5
24B
330
1F
100
AcDbEntity
  8
0
100
AcDbLine
 10
175.750698097477
 20
35.93735450001066
 30
0.0
 11
217.7451196254685
 21
35.93735450001066
 31
0.0
  0
MTEXT
  5
24C
330
1F
100
AcDbEntity
  8
0
100
AcDbMText
 10
93.55228182184436
 20
132.9742395413847
 30
0.0
 40
3.52
 41
42.22549425709995
 71
     1
 72
     5
  1
{\f.VnArial Narrow|b0|i0|c0|p34;PNTECH CONTROLS}
 73
     1
 44
1.0
1001
ACAD
1000
MTEXTBEGIN
1070
    73
1070
     1
1070
    44
1040
1.0
1070
    74
1070
     0
1000
MTEXTEND
  0
MTEXT
  5
24D
330
1F
100
AcDbEntity
  8
0
100
AcDbMText
 10
138.3209922398805
 20
130.1758332985945
 30
0.0
 40
2.0
 41
9.263826777338749
 71
     1
 72
     5
  1
{\fTimes New Roman|b0|i0|c0|p18;A1+}
 73
     1
 44
1.0
1001
ACAD
1000
MTEXTBEGIN
1070
    73
1070
     1
1070
    44
1040
1.0
1070
    74
1070
     0
1000
MTEXTEND
  0
MTEXT
  5
24E
330
1F
100
AcDbEntity
  8
0
100
AcDbMText
 10
138.3209922398805
 20
124.9188443395779
 30
0.0
 40
2.0
 41
9.263826777338749
 71
     1
 72
     5
  1
{\fTimes New Roman|b0|i0|c0|p18;B1-}
 73
     1
 44
1.0
1001
ACAD
1000
MTEXTBEGIN
1070
    73
1070
     1
1070
    44
1040
1.0
1070
    74
1070
     0
1000
MTEXTEND
  0
MTEXT
  5
24F
330
1F
100
AcDbEntity
  8
0
100
AcDbMText
 10
138.3209922398805
 20
119.6618491077539
 30
0.0
 40
2.0
 41
9.263826777338749
 71
     1
 72
     5
  1
{\fTimes New Roman|b0|i0|c0|p18;GND1}
 73
     1
 44
1.0
1001
ACAD
1000
MTEXTBEGIN
1070
    73
1070
     1
1070
    44
1040
1.0
1070
    74
1070
     0
1000
MTEXTEND
  0
MTEXT
  5
250
330
1F
100
AcDbEntity
  8
0
100
AcDbMText
 10
138.3209922398805
 20
114.9889714270297
 30
0.0
 40
2.0
 41
9.263826777338749
 71
     1
 72
     5
  1
{\fTimes New Roman|b0|i0|c0|p18;A2+}
 73
     1
 44
1.0
1001
ACAD
1000
MTEXTBEGIN
1070
    73
1070
     1
1070
    44
1040
1.0
1070
    74
1070
     0
1000
MTEXTEND
  0
MTEXT
  5
251
330
1F
100
AcDbEntity
  8
0
100
AcDbMText
 10
138.3209922398805
 20
109.2488508430418
 30
0.0
 40
2.0
 41
9.263826777338749
 71
     1
 72
     5
  1
{\fTimes New Roman|b0|i0|c0|p18;B2-}
 73
     1
 44
1.0
1001
ACAD
1000
MTEXTBEGIN
1070
    73
1070
     1
1070
    44
1040
1.0
1070
    74
1070
     0
1000
MTEXTEND
  0
MTEXT
  5
252
330
1F
100
AcDbEntity
  8
0
100
AcDbMText
 10
138.3209922398805
 20
104.1380684786089
 30
0.0
 40
2.0
 41
9.263826777338749
 71
     1
 72
     5
  1
{\fTimes New Roman|b0|i0|c0|p18;GND2}
 73
     1
 44
1.0
1001
ACAD
1000
MTEXTBEGIN
1070
    73
1070
     1
1070
    44
1040
1.0
1070
    74
1070
     0
1000
MTEXTEND
  0
LWPOLYLINE
  5
253
330
1F
100
AcDbEntity
  8
0
100
AcDbPolyline
 90
        4
 70
     1
 43
0.0
 10
137.3740862159863
 20
131.3148088432827
 10
146.1854409095281
 20
131.3148088432827
 10
146.1854409095281
 20
101.0963935382559
 10
137.3740862159863
 20
101.0963935382559
  0
MTEXT
  5
254
330
1F
100
AcDbEntity
  8
0
100
AcDbMText
 10
99.75329984388389
 20
117.649184309639
 30
0.0
 40
2.56
 41
37.44852038100719
 71
     1
 72
     5
  1
{\fTimes New Roman|b0|i0|c0|p18;RS485 IOSLATOR}
 73
     1
 44
1.0
1001
ACAD
1000
MTEXTBEGIN
1070
    73
1070
     1
1070
    44
1040
1.0
1070
    74
1070
     0
1000
MTEXTEND
  0
MTEXT
  5
255
330
1F
100
AcDbEntity
  8
0
100
AcDbMText
 10
109.8772049638595
 20
103.2939256573621
 30
0.0
 40
2.048
 41
31.09534810251878
 71
     1
 72
     5
  1
{\fTimes New Roman|b0|i0|c0|p18;Model: RS485-I}
 73
     1
 44
1.0
1001
ACAD
1000
MTEXTBEGIN
1070
    73
1070
     1
1070
    44
1040
1.0
1070
    74
1070
     0
1000
MTEXTEND
  0
CIRCLE
  5
256
330
1F
100
AcDbEntity
  8
0
100
AcDbCircle
 10
92.78717872159637
 20
101.1076030450571
 30
0.0
 40
1.0
  0
CIRCLE
  5
257
330
1F
100
AcDbEntity
  8
0
100
AcDbCircle
 10
96.8410375875921
 20
101.1076030450571
 30
0.0
 40
1.0
  0
MTEXT
  5
258
102
{ACAD_XDICTIONARY
360
354
102
}
330
1F
100
AcDbEntity
  8
0
100
AcDbMText
 10
91.10947380236888
 20
105.2171871725176
 30
0.0
 40
1.8432
 41
4.452571601696927
 71
     1
 72
     5
  1
{\fTimes New Roman|b0|i0|c0|p18;Rx}
 73
     1
 44
1.0
1001
ACAD
1000
MTEXTBEGIN
1070
    73
1070
     1
1070
    44
1040
1.0
1070
    74
1070
     0
1000
MTEXTEND
  0
MTEXT
  5
259
102
{ACAD_XDICTIONARY
360
356
102
}
330
1F
100
AcDbEntity
  8
0
100
AcDbMText
 10
95.73816686598155
 20
105.2171871725176
 30
0.0
 40
1.8432
 41
4.822690444605978
 71
     1
 72
     5
  1
{\fTimes New Roman|b0|i0|c0|p18;Tx}
 73
     1
 44
1.0
1001
ACAD
1000
MTEXTBEGIN
1070
    73
1070
     1
1070
    44
1040
1.0
1070
    74
1070
     0
1000
MTEXTEND
  0
MTEXT
  5
25A
330
1F
100
AcDbEntity
  8
0
100
AcDbMText
 10
78.02193464884243
 20
99.64168590071915
 30
0.0
 40
0.9071999999999999
 41
10.84758897524061
 71
     1
 72
     5
  1
{\fTimes New Roman|b0|i0|c0|p18;CONNECT DDC \P  RS485 PORT2}
 73
     1
 44
1.0
1001
ACAD
1000
MTEXTBEGIN
1070
    73
1070
     1
1070
    44
1040
1.0
1070
    74
1070
     0
1000
MTEXTEND
  0
LINE
  5
25B
330
1F
100
AcDbEntity
  8
0
100
AcDbLine
 10
137.3740862159863
 20
131.3148088432827
 30
0.0
 11
137.2018202248909
 21
131.3148088432827
 31
0.0
  0
LINE
  5
25C
330
1F
100
AcDbEntity
  8
0
100
AcDbLine
 10
137.2018202248909
 20
131.3148088432827
 30
0.0
 11
135.0481984046461
 21
131.3148088432827
 31
0.0
  0
LINE
  5
25D
330
1F
100
AcDbEntity
  8
0
100
AcDbLine
 10
135.0481984046461
 20
131.3148088432827
 30
0.0
 11
135.0481984046461
 21
101.0963935382559
 31
0.0
  0
LINE
  5
25E
330
1F
100
AcDbEntity
  8
0
100
AcDbLine
 10
135.0481984046461
 20
101.0963935382559
 30
0.0
 11
137.3740862159863
 21
101.0963935382559
 31
0.0
  0
LINE
  5
25F
330
1F
100
AcDbEntity
  8
0
100
AcDbLine
 10
146.1854409095281
 20
116.2056011907695
 30
0.0
 11
135.0481984046461
 21
116.2056011907695
 31
0.0
  0
MTEXT
  5
260
102
{ACAD_XDICTIONARY
360
358
102
}
330
1F
100
AcDbEntity
  8
0
100
AcDbMText
 10
136.1903889642412
 20
129.8798132332882
 30
0.0
 40
1.65888
 41
4.007314441527235
 71
     2
 72
     5
  1
{\fTimes New Roman|b0|i0|c0|p18;P\PO\PR\PT\P1}
 73
     1
 44
1.0
1001
ACAD
1000
MTEXTBEGIN
1070
    73
1070
     1
1070
    44
1040
1.0
1070
    74
1070
     0
1000
MTEXTEND
1000
ACAD_MTEXT_DEFINED_HEIGHT_BEGIN
1070
    46
1040
1.278426408730684
1000
ACAD_MTEXT_DEFINED_HEIGHT_END
  0
MTEXT
  5
261
102
{ACAD_XDICTIONARY
360
35A
102
}
330
1F
100
AcDbEntity
  8
0
100
AcDbMText
 10
136.1903889642412
 20
115.1088008546584
 30
0.0
 40
1.65888
 41
4.007314441527235
 71
     2
 72
     5
  1
{\fTimes New Roman|b0|i0|c0|p18;P\PO\PR\PT\P2}
 73
     1
 44
1.0
1001
ACAD
1000
MTEXTBEGIN
1070
    73
1070
     1
1070
    44
1040
1.0
1070
    74
1070
     0
1000
MTEXTEND
1000
ACAD_MTEXT_DEFINED_HEIGHT_BEGIN
1070
    46
1040
1.278426408730684
1000
ACAD_MTEXT_DEFINED_HEIGHT_END
  0
LWPOLYLINE
  5
262
330
1F
100
AcDbEntity
  8
0
100
AcDbPolyline
 90
        4
 70
     1
 43
0.0
 10
76.47061622487337
 20
100.7530312053726
 10
88.47061622487336
 20
100.7530312053726
 10
88.47061622487336
 20
112.7530312053726
 10
76.47061622487337
 20
112.7530312053726
  0
LINE
  5
263
330
1F
100
AcDbEntity
  8
0
100
AcDbLine
 10
76.47061622487337
 20
112.7530312053726
 30
0.0
 11
76.47061622487337
 21
119.7530312053726
 31
0.0
  0
MTEXT
  5
264
330
1F
100
AcDbEntity
  8
0
100
AcDbMText
 10
84.05584390952794
 20
126.4555346910443
 30
0.0
 40
1.8432
 41
1.208892683613708
 71
     2
 72
     5
  1
{\fTimes New Roman|b0|i0|c0|p18;POWER\P5VDC}
 73
     1
 44
1.0
1001
ACAD
1000
MTEXTBEGIN
1070
    73
1070
     1
1070
    44
1040
1.0
1070
    74
1070
     0
1000
MTEXTEND
1000
ACAD_MTEXT_DEFINED_HEIGHT_BEGIN
1070
    46
1040
4.296467272408127
1000
ACAD_MTEXT_DEFINED_HEIGHT_END
  0
LWPOLYLINE
  5
265
330
1F
100
AcDbEntity
  8
0
100
AcDbPolyline
 90
        4
 70
     1
 43
0.0
 10
92.0344953525319
 20
119.7530312053726
 10
76.47061622487337
 20
119.7530312053726
 10
76.47061622487337
 20
128.7530312053726
 10
92.0344953525319
 20
128.7530312053726
  0
HATCH
  5
266
330
1F
100
AcDbEntity
  8
0
 62
     3
370
    40
100
AcDbHatch
 10
0.0
 20
0.0
 30
0.0
210
0.0
220
0.0
230
1.0
  2
SOLID
 70
     1
 71
     1
 91
        1
 92
        1
 93
        4
 72
     1
 10
99.4663197376305
 20
114.7498990080274
 11
129.9848588167642
 21
114.7498990080274
 72
     1
 10
129.9848588167642
 20
114.7498990080274
 11
129.9848588167642
 21
114.4548512397576
 72
     1
 10
129.9848588167642
 20
114.4548512397576
 11
99.4663197376305
 21
114.4548512397576
 72
     1
 10
99.4663197376305
 20
114.4548512397576
 11
99.4663197376305
 21
114.7498990080274
 97
        1
330
267
 75
     0
 76
     1
 98
        1
 10
689.2642054209773
 20
1385.392393417582
1001
ACAD
1010
0.0
1020
0.0
1030
0.0
  0
LWPOLYLINE
  5
267
102
{ACAD_REACTORS
330
266
102
}
330
1F
100
AcDbEntity
  8
0
370
    40
100
AcDbPolyline
 90
        4
 70
     1
 43
0.0
 10
99.4663197376305
 20
114.7498990080274
 10
129.9848588167642
 20
114.7498990080274
 10
129.9848588167642
 20
114.4548512397576
 10
99.4663197376305
 20
114.4548512397576
  0
HATCH
  5
268
330
1F
100
AcDbEntity
  8
0
 62
     5
370
    40
100
AcDbHatch
 10
0.0
 20
0.0
 30
0.0
210
0.0
220
0.0
230
1.0
  2
SOLID
 70
     1
 71
     1
 91
        1
 92
        1
 93
        4
 72
     1
 10
92.71881860106891
 20
129.1798337577792
 11
134.0120422405709
 21
129.1798337577792
 72
     1
 10
134.0120422405709
 20
129.1798337577792
 11
134.0120422405709
 21
128.4009016276514
 72
     1
 10
134.0120422405709
 20
128.4009016276514
 11
92.71881860106891
 21
128.4009016276514
 72
     1
 10
92.71881860106891
 20
128.4009016276514
 11
92.71881860106891
 21
129.1798337577792
 97
        1
330
269
 75
     0
 76
     1
 98
        1
 10
689.2642054209773
 20
1385.392393417582
1001
ACAD
1010
0.0
1020
0.0
1030
0.0
  0
LWPOLYLINE
  5
269
102
{ACAD_REACTORS
330
268
102
}
330
1F
100
AcDbEntity
  8
0
370
    40
100
AcDbPolyline
 90
        4
 70
     1
 43
0.0
 10
92.71881860106891
 20
129.1798337577792
 10
134.0120422405709
 20
129.1798337577792
 10
134.0120422405709
 20
128.4009016276514
 10
92.71881860106891
 20
128.4009016276514
  0
LINE
  5
26A
330
1F
100
AcDbEntity
  8
0
370
    40
100
AcDbLine
 10
181.2679480474493
 20
40.65757624194373
 30
0.0
 11
180.7679480474493
 21
40.65757624194373
 31
0.0
  0
LINE
  5
26B
330
1F
100
AcDbEntity
  8
0
370
    40
100
AcDbLine
 10
180.7679480474493
 20
40.65757624194373
 30
0.0
 11
180.7679480474493
 21
53.93735450001066
 31
0.0
  0
LINE
  5
26C
330
1F
100
AcDbEntity
  8
0
370
    40
100
AcDbLine
 10
212.2207172255501
 20
40.65757624194373
 30
0.0
 11
212.7207172255501
 21
40.65757624194373
 31
0.0
  0
LINE
  5
26D
330
1F
100
AcDbEntity
  8
0
370
    40
100
AcDbLine
 10
212.7207172255501
 20
40.65757624194373
 30
0.0
 11
212.7207172255501
 21
53.93735450001066
 31
0.0
  0
DIMENSION
  5
26E
102
{ACAD_XDICTIONARY
360
26F
102
}
102
{ACAD_REACTORS
330
270
102
}
330
1F
100
AcDbEntity
  8
0
370
    40
100
AcDbDimension
  2
*D9
 10
146.4742196847278
 20
149.3007488589289
 30
0.0
 11
111.4724179548006
 21
160.0509988589289
 31
0.0
 70
    32
  1
{\H0.7667x;\C256;70}
 71
     5
 42
70.0036034598545
  3
TRIEU
100
AcDbAlignedDimension
 13
76.47061622487337
 23
133.7530312053726
 33
0.0
 14
146.4742196847278
 24
133.7530312053726
 34
0.0
100
AcDbRotatedDimension
  0
DIMENSION
  5
271
102
{ACAD_XDICTIONARY
360
272
102
}
102
{ACAD_REACTORS
330
273
102
}
330
1F
100
AcDbEntity
  8
0
370
    40
100
AcDbDimension
  2
*D10
 10
61.12169270504813
 20
93.75303120537262
 30
0.0
 11
50.37144270504811
 21
116.2530312053726
 31
0.0
 70
    32
  1
{\H0.7667x;\C256;45}
 71
     5
 42
45.00000000000001
  3
TRIEU
100
AcDbAlignedDimension
 13
81.14102620250282
 23
138.7530312053726
 33
0.0
 14
81.38472208533499
 24
93.75303120537262
 34
0.0
 50
90.0
100
AcDbRotatedDimension
  0
DIMENSION
  5
274
102
{ACAD_XDICTIONARY
360
275
102
}
102
{ACAD_REACTORS
330
276
102
}
330
1F
100
AcDbEntity
  8
0
370
    40
100
AcDbDimension
  2
*D11
 10
146.4706152338195
 20
64.9279395003806
 30
0.0
 11
111.4711259085399
 21
74.9281895003806
 31
0.0
 70
    32
  1
{\H0.6667x;\C256;70}
 71
     5
 42
69.99897865055913
  3
TRIEU
100
AcDbAlignedDimension
 13
76.47163658326036
 23
52.50413204406243
 33
0.0
 14
146.4706152338195
 24
52.50413204406243
 34
0.0
100
AcDbRotatedDimension
  0
DIMENSION
  5
277
102
{ACAD_XDICTIONARY
360
278
102
}
102
{ACAD_REACTORS
330
279
102
}
330
1F
100
AcDbEntity
  8
0
370
    40
100
AcDbDimension
  2
*D12
 10
60.65711622471752
 20
35.93582627117587
 30
0.0
 11
50.65686622471751
 21
44.9357735932755
 31
0.0
 70
    32
  1
{\H0.6667x;\C256;18}
 71
     5
 42
17.99989464419923
  3
TRIEU
100
AcDbAlignedDimension
 13
77.83541503769964
 23
53.9357209153751
 33
0.0
 14
77.83541503769964
 24
35.93582627117587
 34
0.0
 50
90.0
100
AcDbRotatedDimension
  0
DIMENSION
  5
27A
102
{ACAD_XDICTIONARY
360
27B
102
}
102
{ACAD_REACTORS
330
27C
102
}
330
1F
100
AcDbEntity
  8
0
370
    40
100
AcDbDimension
  2
*D13
 10
246.4540289032226
 20
35.93566900188227
 30
0.0
 11
236.4537789032226
 21
44.9365117509465
 31
0.0
 70
    32
  1
{\H0.6667x;\C256;18}
 71
     5
 42
18.00168549812838
  3
TRIEU
100
AcDbAlignedDimension
 13
217.8156206418645
 23
53.93735450001066
 33
0.0
 14
217.8156206418645
 24
35.93566900188227
 34
0.0
 50
90.0
100
AcDbRotatedDimension
  0
DIMENSION
  5
27D
102
{ACAD_XDICTIONARY
360
27E
102
}
102
{ACAD_REACTORS
330
27F
102
}
330
1F
100
AcDbEntity
  8
0
370
    40
100
AcDbDimension
  2
*D14
 10
219.2460675366493
 20
65.3130876086783
 30
0.0
 11
196.7469790754528
 21
75.3133376086783
 31
0.0
 70
    32
  1
{\H0.6667x;\C256;45}
 71
     5
 42
44.99817692239287
  3
TRIEU
100
AcDbAlignedDimension
 13
174.2478906142564
 23
52.57634781689955
 33
0.0
 14
219.2460675366493
 24
52.57634781689955
 34
0.0
100
AcDbRotatedDimension
  0
ENDSEC
  0
SECTION
  2
OBJECTS
  0
DICTIONARY
  5
C
330
0
100
AcDbDictionary
281
     1
  3
ACAD_COLOR
350
73
  3
ACAD_GROUP
350
D
  3
ACAD_LAYOUT
350
1A
  3
ACAD_MATERIAL
350
72
  3
ACAD_MLINESTYLE
350
17
  3
ACAD_PLOTSETTINGS
350
19
  3
ACAD_PLOTSTYLENAME
350
E
  3
ACAD_TABLESTYLE
350
86
  3
ACAD_VISUALSTYLE
350
99
  3
AcDbVariableDictionary
350
66
  3
DWGPROPS
350
33D
  0
DICTIONARY
  5
10E
330
2
100
AcDbDictionary
280
     1
281
     1
  3
ACAD_LAYERSTATES
360
10F
  0
DICTIONARY
  5
354
330
258
100
AcDbDictionary
280
     1
281
     1
  3
ACAD_MTEXT_RT
360
355
  0
DICTIONARY
  5
356
330
259
100
AcDbDictionary
280
     1
281
     1
  3
ACAD_MTEXT_RT
360
357
  0
DICTIONARY
  5
358
330
260
100
AcDbDictionary
280
     1
281
     1
  3
ACAD_MTEXT_RT
360
359
  0
DICTIONARY
  5
35A
330
261
100
AcDbDictionary
280
     1
281
     1
  3
ACAD_MTEXT_RT
360
35B
  0
DICTIONARY
  5
26F
330
26E
100
AcDbDictionary
280
     1
281
     1
  3
ACAD_DIMASSOC
360
270
  0
DICTIONARY
  5
272
330
271
100
AcDbDictionary
280
     1
281
     1
  3
ACAD_DIMASSOC
360
273
  0
DICTIONARY
  5
275
330
274
100
AcDbDictionary
280
     1
281
     1
  3
ACAD_DIMASSOC
360
276
  0
DICTIONARY
  5
278
330
277
100
AcDbDictionary
280
     1
281
     1
  3
ACAD_DIMASSOC
360
279
  0
DICTIONARY
  5
27B
330
27A
100
AcDbDictionary
280
     1
281
     1
  3
ACAD_DIMASSOC
360
27C
  0
DICTIONARY
  5
27E
330
27D
100
AcDbDictionary
280
     1
281
     1
  3
ACAD_DIMASSOC
360
27F
  0
DICTIONARY
  5
73
102
{ACAD_REACTORS
330
C
102
}
330
C
100
AcDbDictionary
281
     1
  0
DICTIONARY
  5
D
102
{ACAD_REACTORS
330
C
102
}
330
C
100
AcDbDictionary
281
     1
  0
DICTIONARY
  5
1A
102
{ACAD_REACTORS
330
C
102
}
330
C
100
AcDbDictionary
281
     1
  3
Layout1
350
59
  3
Layout2
350
5E
  3
Model
350
22
  0
DICTIONARY
  5
72
102
{ACAD_REACTORS
330
C
102
}
330
C
100
AcDbDictionary
281
     1
  3
ByBlock
350
97
  3
ByLayer
350
96
  3
Global
350
98
  0
DICTIONARY
  5
17
102
{ACAD_REACTORS
330
C
102
}
330
C
100
AcDbDictionary
281
     1
  3
Standard
350
18
  0
DICTIONARY
  5
19
102
{ACAD_REACTORS
330
C
102
}
330
C
100
AcDbDictionary
281
     1
  0
ACDBDICTIONARYWDFLT
  5
E
102
{ACAD_REACTORS
330
C
102
}
330
C
100
AcDbDictionary
281
     1
  3
Normal
350
F
100
AcDbDictionaryWithDefault
340
F
  0
DICTIONARY
  5
86
102
{ACAD_REACTORS
330
C
102
}
330
C
100
AcDbDictionary
281
     1
  3
Standard
350
87
  0
DICTIONARY
  5
99
102
{ACAD_REACTORS
330
C
102
}
330
C
100
AcDbDictionary
281
     1
  3
2dWireframe
350
9F
  3
3D Hidden
350
A1
  3
3dWireframe
350
A0
  3
Basic
350
9E
  3
Brighten
350
A5
  3
ColorChange
350
A9
  3
Conceptual
350
A2
  3
Dim
350
A4
  3
Facepattern
350
A8
  3
Flat
350
9A
  3
FlatWithEdges
350
9B
  3
Gouraud
350
9C
  3
GouraudWithEdges
350
9D
  3
Linepattern
350
A7
  3
Realistic
350
A3
  3
Thicken
350
A6
  0
DICTIONARY
  5
66
102
{ACAD_REACTORS
330
C
102
}
330
C
100
AcDbDictionary
281
     1
  3
CTABLESTYLE
350
89
  3
DIMASSOC
350
67
  3
HIDETEXT
350
6B
  3
INDEXCTL
350
2F5
  3
SORTENTS
350
2F4
  0
XRECORD
  5
33D
102
{ACAD_REACTORS
330
C
102
}
330
C
100
AcDbXrecord
280
     1
  1
DWGPROPS COOKIE
  2

  3

  4

  6

  7

  8
Administrator
  9

300
=
301
=
302
=
303
=
304
=
305
=
306
=
307
=
308
=
309
=
 40
0.0018297916666667
 41
2458472.448126643
 42
2458472.449955509
  1

 90
        0
  0
DICTIONARY
  5
10F
102
{ACAD_REACTORS
330
10E
102
}
330
10E
100
AcDbDictionary
281
     1
  0
XRECORD
  5
355
102
{ACAD_REACTORS
330
354
102
}
330
354
100
AcDbXrecord
280
     1
 40
57528.0
  1
\pt5.53;{\fTimes New Roman|b0|i0|c0|p18;Rx}
  0
XRECORD
  5
357
102
{ACAD_REACTORS
330
356
102
}
330
356
100
AcDbXrecord
280
     1
 40
57594.0
  1
\pt5.53;{\fTimes New Roman|b0|i0|c0|p18;Tx}
  0
XRECORD
  5
359
102
{ACAD_REACTORS
330
358
102
}
330
358
100
AcDbXrecord
280
     1
 40
93340.0
  1
\pt5.53;{\fTimes New Roman|b0|i0|c0|p18;P\PO\PR\PT\P1}
  0
XRECORD
  5
35B
102
{ACAD_REACTORS
330
35A
102
}
330
35A
100
AcDbXrecord
280
     1
 40
93385.0
  1
\pt5.53;{\fTimes New Roman|b0|i0|c0|p18;P\PO\PR\PT\P2}
  0
DIMASSOC
  5
270
102
{ACAD_REACTORS
330
26F
102
}
330
26F
100
AcDbDimAssoc
330
26E
 90
        1
 70
     0
 71
     0
  1
AcDbOsnapPointRef
 72
     1
331
206
 73
     2
 91
        0
 40
3.175661787601602
 10
0.0
 20
0.0
 30
2.000000000000000E+50
 75
     0
  0
DIMASSOC
  5
273
102
{ACAD_REACTORS
330
272
102
}
330
272
100
AcDbDimAssoc
330
271
 90
        3
 70
     0
 71
     0
  1
AcDbOsnapPointRef
 72
    13
331
205
 73
     2
 91
        0
 40
0.0
 10
0.0
 20
0.0
 30
2.000000000000000E+50
 75
     0
  1
AcDbOsnapPointRef
 72
     1
331
207
 73
     2
 91
        0
 40
4.729423547390514
 10
0.0
 20
0.0
 30
2.000000000000000E+50
 75
     0
  0
DIMASSOC
  5
276
102
{ACAD_REACTORS
330
275
102
}
330
275
100
AcDbDimAssoc
330
274
 90
        1
 70
     0
 71
     0
  1
AcDbOsnapPointRef
 72
     5
331
23D
 73
     2
 91
        0
 40
3.141592653589793
 10
0.0
 20
0.0
 30
0.0
 75
     0
  0
DIMASSOC
  5
279
102
{ACAD_REACTORS
330
278
102
}
330
278
100
AcDbDimAssoc
330
277
 90
        1
 70
     0
 71
     0
  1
AcDbOsnapPointRef
 72
     6
331
23C
 73
     2
 91
        0
 40
0.0
 10
0.0
 20
0.0
 30
0.0
332
23D
 74
     2
 92
        0
 75
     0
  0
DIMASSOC
  5
27C
102
{ACAD_REACTORS
330
27B
102
}
330
27B
100
AcDbDimAssoc
330
27A
 90
        1
 70
     0
 71
     0
  1
AcDbOsnapPointRef
 72
     1
331
248
 73
     2
 91
        0
 40
7.853280617421846
 10
0.0
 20
0.0
 30
2.000000000000000E+50
 75
     0
  0
DIMASSOC
  5
27F
102
{ACAD_REACTORS
330
27E
102
}
330
27E
100
AcDbDimAssoc
330
27D
 90
        1
 70
     0
 71
     0
  1
AcDbOsnapPointRef
 72
    13
331
243
 73
     2
 91
        0
 40
0.0
 10
0.0
 20
0.0
 30
2.000000000000000E+50
 75
     0
  0
LAYOUT
  5
59
102
{ACAD_XDICTIONARY
360
340
102
}
102
{ACAD_REACTORS
330
1A
102
}
330
1A
100
AcDbPlotSettings
  1

  2
None
  4

  6

 40
0.0
 41
0.0
 42
0.0
 43
0.0
 44
0.0
 45
0.0
 46
0.0
 47
0.0
 48
0.0
 49
0.0
140
0.0
141
0.0
142
1.0
143
1.0
 70
   688
 72
     0
 73
     0
 74
     5
  7

 75
    16
147
1.0
148
0.0
149
0.0
100
AcDbLayout
  1
Layout1
 70
     1
 71
     1
 10
0.0
 20
0.0
 11
12.0
 21
9.0
 12
0.0
 22
0.0
 32
0.0
 14
0.0
 24
0.0
 34
0.0
 15
0.0
 25
0.0
 35
0.0
146
0.0
 13
0.0
 23
0.0
 33
0.0
 16
1.0
 26
0.0
 36
0.0
 17
0.0
 27
1.0
 37
0.0
 76
     0
330
58
  0
LAYOUT
  5
5E
102
{ACAD_XDICTIONARY
360
342
102
}
102
{ACAD_REACTORS
330
1A
102
}
330
1A
100
AcDbPlotSettings
  1

  2
None
  4

  6

 40
0.0
 41
0.0
 42
0.0
 43
0.0
 44
0.0
 45
0.0
 46
0.0
 47
0.0
 48
0.0
 49
0.0
140
0.0
141
0.0
142
1.0
143
1.0
 70
   688
 72
     0
 73
     0
 74
     5
  7

 75
    16
147
1.0
148
0.0
149
0.0
100
AcDbLayout
  1
Layout2
 70
     1
 71
     2
 10
0.0
 20
0.0
 11
12.0
 21
9.0
 12
0.0
 22
0.0
 32
0.0
 14
0.0
 24
0.0
 34
0.0
 15
0.0
 25
0.0
 35
0.0
146
0.0
 13
0.0
 23
0.0
 33
0.0
 16
1.0
 26
0.0
 36
0.0
 17
0.0
 27
1.0
 37
0.0
 76
     0
330
5D
  0
LAYOUT
  5
22
102
{ACAD_XDICTIONARY
360
33E
102
}
102
{ACAD_REACTORS
330
1A
102
}
330
1A
100
AcDbPlotSettings
  1

  2
none_device
  4
ANSI_A_(8.50_x_11.00_Inches)
  6

 40
6.349999904632568
 41
19.04999923706055
 42
6.350006103515625
 43
19.04998779296875
 44
215.8999938964844
 45
279.3999938964844
 46
0.0
 47
0.0
 48
0.0
 49
0.0
140
0.0
141
0.0
142
1.0
143
2.584895464708373
 70
 11952
 72
     0
 73
     1
 74
     0
  7

 75
     0
147
0.3868628397755418
148
0.0
149
0.0
100
AcDbLayout
  1
Model
 70
     1
 71
     0
 10
0.0
 20
0.0
 11
12.0
 21
9.0
 12
0.0
 22
0.0
 32
0.0
 14
0.0
 24
0.0
 34
0.0
 15
0.0
 25
0.0
 35
0.0
146
0.0
 13
0.0
 23
0.0
 33
0.0
 16
1.0
 26
0.0
 36
0.0
 17
0.0
 27
1.0
 37
0.0
 76
     0
330
1F
331
94
  0
MATERIAL
  5
97
102
{ACAD_XDICTIONARY
360
348
102
}
102
{ACAD_REACTORS
330
72
102
}
330
72
100
AcDbMaterial
  1
ByBlock
  0
MATERIAL
  5
96
102
{ACAD_XDICTIONARY
360
346
102
}
102
{ACAD_REACTORS
330
72
102
}
330
72
100
AcDbMaterial
  1
ByLayer
  0
MATERIAL
  5
98
102
{ACAD_XDICTIONARY
360
34A
102
}
102
{ACAD_REACTORS
330
72
102
}
330
72
100
AcDbMaterial
  1
Global
  0
MLINESTYLE
  5
18
102
{ACAD_REACTORS
330
17
102
}
330
17
100
AcDbMlineStyle
  2
STANDARD
 70
     0
  3

 62
   256
 51
90.0
 52
90.0
 71
     2
 49
0.5
 62
   256
  6
BYLAYER
 49
-0.5
 62
   256
  6
BYLAYER
  0
ACDBPLACEHOLDER
  5
F
102
{ACAD_REACTORS
330
E
102
}
330
E
  0
TABLESTYLE
  5
87
102
{ACAD_XDICTIONARY
360
344
102
}
102
{ACAD_REACTORS
330
86
102
}
330
86
100
AcDbTableStyle
  3
Standard
 70
     0
 71
     0
 40
0.06
 41
0.06
280
     0
281
     0
  7
Standard
140
0.18
170
     2
 62
     0
 63
     7
283
     0
274
    -2
284
     1
 64
     0
275
    -2
285
     1
 65
     0
276
    -2
286
     1
 66
     0
277
    -2
287
     1
 67
     0
278
    -2
288
     1
 68
     0
279
    -2
289
     1
 69
     0
  7
Standard
140
0.25
170
     5
 62
     0
 63
     7
283
     0
274
    -2
284
     1
 64
     0
275
    -2
285
     1
 65
     0
276
    -2
286
     1
 66
     0
277
    -2
287
     1
 67
     0
278
    -2
288
     1
 68
     0
279
    -2
289
     1
 69
     0
  7
Standard
140
0.18
170
     5
 62
     0
 63
     7
283
     0
274
    -2
284
     1
 64
     0
275
    -2
285
     1
 65
     0
276
    -2
286
     1
 66
     0
277
    -2
287
     1
 67
     0
278
    -2
288
     1
 68
     0
279
    -2
289
     1
 69
     0
  0
VISUALSTYLE
  5
9F
102
{ACAD_REACTORS
330
99
102
}
330
99
100
AcDbVisualStyle
  2
2dWireframe
 70
     4
 71
     0
 72
     2
 73
     1
 90
        0
 40
-0.6
 41
-30.0
 62
     5
 63
     7
 74
     1
 91
        4
 64
     7
 65
   257
 75
     1
175
     1
 42
1.0
 92
        0
 66
   257
 43
1.0
 76
     1
 77
     6
 78
     2
 67
     7
 79
     5
170
     0
171
     0
290
     0
174
     0
 93
        1
 44
0.0
173
     0
291
     0
 45
0.0
1001
ACAD
1000
AcDbSavedByObjectVersion
1070
     0
  0
VISUALSTYLE
  5
A1
102
{ACAD_REACTORS
330
99
102
}
330
99
100
AcDbVisualStyle
  2
3D Hidden
 70
     6
 71
     1
 72
     2
 73
     2
 90
        0
 40
-0.6
 41
-30.0
 62
     5
 63
     7
 74
     2
 91
        2
 64
     7
 65
   257
 75
     2
175
     1
 42
40.0
 92
        0
 66
   257
 43
1.0
 76
     1
 77
     6
 78
     2
 67
     7
 79
     3
170
     0
171
     0
290
     0
174
     0
 93
        1
 44
0.0
173
     0
291
     0
 45
0.0
1001
ACAD
1000
AcDbSavedByObjectVersion
1070
     0
  0
VISUALSTYLE
  5
A0
102
{ACAD_REACTORS
330
99
102
}
330
99
100
AcDbVisualStyle
  2
3dWireframe
 70
     5
 71
     0
 72
     2
 73
     1
 90
        0
 40
-0.6
 41
-30.0
 62
     5
 63
     7
 74
     1
 91
        4
 64
     7
 65
   257
 75
     1
175
     1
 42
1.0
 92
        0
 66
   257
 43
1.0
 76
     1
 77
     6
 78
     2
 67
     7
 79
     5
170
     0
171
     0
290
     0
174
     0
 93
        1
 44
0.0
173
     0
291
     0
 45
0.0
1001
ACAD
1000
AcDbSavedByObjectVersion
1070
     0
  0
VISUALSTYLE
  5
9E
102
{ACAD_REACTORS
330
99
102
}
330
99
100
AcDbVisualStyle
  2
Basic
 70
     7
 71
     1
 72
     0
 73
     1
 90
        0
 40
-0.6
 41
-30.0
 62
     5
 63
     7
 74
     0
 91
        4
 64
     7
 65
   257
 75
     1
175
     1
 42
1.0
 92
        8
 66
     7
 43
1.0
 76
     1
 77
     6
 78
     2
 67
     7
 79
     5
170
     0
171
     0
290
     0
174
     0
 93
        1
 44
0.0
173
     0
291
     1
 45
0.0
1001
ACAD
1000
AcDbSavedByObjectVersion
1070
     0
  0
VISUALSTYLE
  5
A5
102
{ACAD_REACTORS
330
99
102
}
330
99
100
AcDbVisualStyle
  2
Brighten
 70
    12
 71
     2
 72
     2
 73
     1
 90
        0
 40
-0.6
 41
-30.0
 62
     5
 63
     7
 74
     1
 91
        4
 64
     7
 65
   257
 75
     1
175
     1
 42
1.0
 92
        8
 66
     7
 43
1.0
 76
     1
 77
     6
 78
     2
 67
     7
 79
     5
170
     0
171
     0
290
     0
174
     0
 93
        1
 44
50.0
173
     0
291
     1
 45
0.0
1001
ACAD
1000
AcDbSavedByObjectVersion
1070
     0
  0
VISUALSTYLE
  5
A9
102
{ACAD_REACTORS
330
99
102
}
330
99
100
AcDbVisualStyle
  2
ColorChange
 70
    16
 71
     2
 72
     2
 73
     3
 90
        0
 40
-0.6
 41
-30.0
 62
     5
 63
     8
 74
     1
 91
        4
 64
     7
 65
   257
 75
     1
175
     1
 42
1.0
 92
        8
 66
     8
 43
1.0
 76
     1
 77
     6
 78
     2
 67
     7
 79
     5
170
     0
171
     0
290
     0
174
     0
 93
        1
 44
0.0
173
     0
291
     1
 45
0.0
1001
ACAD
1000
AcDbSavedByObjectVersion
1070
     0
  0
VISUALSTYLE
  5
A2
102
{ACAD_REACTORS
330
99
102
}
330
99
100
AcDbVisualStyle
  2
Conceptual
 70
     9
 71
     3
 72
     2
 73
     1
 90
        0
 40
-0.6
 41
-30.0
 62
     5
 63
     7
 74
     2
 91
        2
 64
     7
 65
   257
 75
     1
175
     1
 42
40.0
 92
        8
 66
     7
 43
1.0
 76
     1
 77
     6
 78
     2
 67
     7
 79
     3
170
     0
171
     0
290
     0
174
     0
 93
        1
 44
0.0
173
     0
291
     0
 45
0.0
1001
ACAD
1000
AcDbSavedByObjectVersion
1070
     0
  0
VISUALSTYLE
  5
A4
102
{ACAD_REACTORS
330
99
102
}
330
99
100
AcDbVisualStyle
  2
Dim
 70
    11
 71
     2
 72
     2
 73
     1
 90
        0
 40
-0.6
 41
-30.0
 62
     5
 63
     7
 74
     1
 91
        4
 64
     7
 65
   257
 75
     1
175
     1
 42
1.0
 92
        8
 66
     7
 43
1.0
 76
     1
 77
     6
 78
     2
 67
     7
 79
     5
170
     0
171
     0
290
     0
174
     0
 93
        1
 44
-50.0
173
     0
291
     1
 45
0.0
1001
ACAD
1000
AcDbSavedByObjectVersion
1070
     0
  0
VISUALSTYLE
  5
A8
102
{ACAD_REACTORS
330
99
102
}
330
99
100
AcDbVisualStyle
  2
Facepattern
 70
    15
 71
     2
 72
     2
 73
     1
 90
        0
 40
-0.6
 41
-30.0
 62
     5
 63
     7
 74
     1
 91
        4
 64
     7
 65
   257
 75
     1
175
     1
 42
1.0
 92
        8
 66
     7
 43
1.0
 76
     1
 77
     6
 78
     2
 67
     7
 79
     5
170
     0
171
     0
290
     0
174
     0
 93
        1
 44
0.0
173
     0
291
     1
 45
0.0
1001
ACAD
1000
AcDbSavedByObjectVersion
1070
     0
  0
VISUALSTYLE
  5
9A
102
{ACAD_REACTORS
330
99
102
}
330
99
100
AcDbVisualStyle
  2
Flat
 70
     0
 71
     2
 72
     1
 73
     1
 90
        2
 40
-0.6
 41
30.0
 62
     5
 63
     7
 74
     0
 91
        4
 64
     7
 65
   257
 75
     1
175
     1
 42
1.0
 92
        8
 66
     7
 43
1.0
 76
     1
 77
     6
 78
     2
 67
     7
 79
     5
170
     0
171
     0
290
     0
174
     0
 93
        1
 44
0.0
173
     0
291
     1
 45
0.0
1001
ACAD
1000
AcDbSavedByObjectVersion
1070
     0
  0
VISUALSTYLE
  5
9B
102
{ACAD_REACTORS
330
99
102
}
330
99
100
AcDbVisualStyle
  2
FlatWithEdges
 70
     1
 71
     2
 72
     1
 73
     1
 90
        2
 40
-0.6
 41
30.0
 62
     5
 63
     7
 74
     1
 91
        4
 64
     7
 65
   257
 75
     1
175
     1
 42
1.0
 92
        0
 66
   257
 43
1.0
 76
     1
 77
     6
 78
     2
 67
     7
 79
     5
170
     0
171
     0
290
     0
174
     0
 93
        1
 44
0.0
173
     0
291
     1
 45
0.0
1001
ACAD
1000
AcDbSavedByObjectVersion
1070
     0
  0
VISUALSTYLE
  5
9C
102
{ACAD_REACTORS
330
99
102
}
330
99
100
AcDbVisualStyle
  2
Gouraud
 70
     2
 71
     2
 72
     2
 73
     1
 90
        2
 40
-0.6
 41
30.0
 62
     5
 63
     7
 74
     0
 91
        4
 64
     7
 65
   257
 75
     1
175
     1
 42
1.0
 92
        0
 66
     7
 43
1.0
 76
     1
 77
     6
 78
     2
 67
     7
 79
     5
170
     0
171
     0
290
     0
174
     0
 93
        1
 44
0.0
173
     0
291
     1
 45
0.0
1001
ACAD
1000
AcDbSavedByObjectVersion
1070
     0
  0
VISUALSTYLE
  5
9D
102
{ACAD_REACTORS
330
99
102
}
330
99
100
AcDbVisualStyle
  2
GouraudWithEdges
 70
     3
 71
     2
 72
     2
 73
     1
 90
        2
 40
-0.6
 41
30.0
 62
     5
 63
     7
 74
     1
 91
        4
 64
     7
 65
   257
 75
     1
175
     1
 42
1.0
 92
        0
 66
   257
 43
1.0
 76
     1
 77
     6
 78
     2
 67
     7
 79
     5
170
     0
171
     0
290
     0
174
     0
 93
        1
 44
0.0
173
     0
291
     1
 45
0.0
1001
ACAD
1000
AcDbSavedByObjectVersion
1070
     0
  0
VISUALSTYLE
  5
A7
102
{ACAD_REACTORS
330
99
102
}
330
99
100
AcDbVisualStyle
  2
Linepattern
 70
    14
 71
     2
 72
     2
 73
     1
 90
        0
 40
-0.6
 41
-30.0
 62
     5
 63
     7
 74
     1
 91
        4
 64
     7
 65
   257
 75
     7
175
     7
 42
1.0
 92
        8
 66
     7
 43
1.0
 76
     1
 77
     6
 78
     2
 67
     7
 79
     5
170
     0
171
     0
290
     0
174
     0
 93
        1
 44
0.0
173
     0
291
     1
 45
0.0
1001
ACAD
1000
AcDbSavedByObjectVersion
1070
     0
  0
VISUALSTYLE
  5
A3
102
{ACAD_REACTORS
330
99
102
}
330
99
100
AcDbVisualStyle
  2
Realistic
 70
     8
 71
     2
 72
     2
 73
     1
 90
        0
 40
-0.6
 41
-30.0
 62
     5
 63
     7
 74
     1
 91
        0
 64
     7
 65
   257
 75
     1
175
     1
 42
1.0
 92
        8
 66
     8
 43
1.0
 76
     1
 77
     6
 78
     2
 67
     7
 79
     5
170
     0
171
     0
290
     0
174
     0
 93
       13
 44
0.0
173
     0
291
     0
 45
0.0
1001
ACAD
1000
AcDbSavedByObjectVersion
1070
     0
  0
VISUALSTYLE
  5
A6
102
{ACAD_REACTORS
330
99
102
}
330
99
100
AcDbVisualStyle
  2
Thicken
 70
    13
 71
     2
 72
     2
 73
     1
 90
        0
 40
-0.6
 41
-30.0
 62
     5
 63
     7
 74
     1
 91
        4
 64
     7
 65
   257
 75
     1
175
     1
 42
1.0
 92
       12
 66
     7
 43
1.0
 76
     1
 77
     6
 78
     2
 67
     7
 79
     5
170
     0
171
     0
290
     0
174
     0
 93
        1
 44
0.0
173
     0
291
     1
 45
0.0
1001
ACAD
1000
AcDbSavedByObjectVersion
1070
     0
  0
DICTIONARYVAR
  5
89
102
{ACAD_REACTORS
330
66
102
}
330
66
100
DictionaryVariables
280
     0
  1
STANDARD
  0
DICTIONARYVAR
  5
67
102
{ACAD_REACTORS
330
66
102
}
330
66
100
DictionaryVariables
280
     0
  1
2
  0
DICTIONARYVAR
  5
6B
102
{ACAD_REACTORS
330
66
102
}
330
66
100
DictionaryVariables
280
     0
  1
1
  0
DICTIONARYVAR
  5
2F5
102
{ACAD_REACTORS
330
66
102
}
330
66
100
DictionaryVariables
280
     0
  1
0
  0
DICTIONARYVAR
  5
2F4
102
{ACAD_REACTORS
330
66
102
}
330
66
100
DictionaryVariables
280
     0
  1
127
  0
DICTIONARY
  5
340
330
59
100
AcDbDictionary
280
     1
281
     1
  3
ACAD_XREC_ROUNDTRIP
360
341
  0
DICTIONARY
  5
342
330
5E
100
AcDbDictionary
280
     1
281
     1
  3
ACAD_XREC_ROUNDTRIP
360
343
  0
DICTIONARY
  5
33E
330
22
100
AcDbDictionary
280
     1
281
     1
  3
ACAD_XREC_ROUNDTRIP
360
33F
  0
DICTIONARY
  5
348
330
97
100
AcDbDictionary
280
     1
281
     1
  3
ACAD_XREC_ROUNDTRIP
360
349
  0
DICTIONARY
  5
346
330
96
100
AcDbDictionary
280
     1
281
     1
  3
ACAD_XREC_ROUNDTRIP
360
347
  0
DICTIONARY
  5
34A
330
98
100
AcDbDictionary
280
     1
281
     1
  3
ACAD_XREC_ROUNDTRIP
360
34B
  0
DICTIONARY
  5
344
330
87
100
AcDbDictionary
280
     1
281
     1
  3
ACAD_XREC_ROUNDTRIP
360
345
  0
XRECORD
  5
341
102
{ACAD_REACTORS
330
340
102
}
330
340
100
AcDbXrecord
280
     1
102
SHADEPLOT
 70
     0
102
SHADEPLOTRESLEVEL
 70
     2
102
SHADEPLOTCUSTOMDPI
 70
   300
  0
XRECORD
  5
343
102
{ACAD_REACTORS
330
342
102
}
330
342
100
AcDbXrecord
280
     1
102
SHADEPLOT
 70
     0
102
SHADEPLOTRESLEVEL
 70
     2
102
SHADEPLOTCUSTOMDPI
 70
   300
  0
XRECORD
  5
33F
102
{ACAD_REACTORS
330
33E
102
}
330
33E
100
AcDbXrecord
280
     1
102
SHADEPLOT
 70
     0
102
SHADEPLOTRESLEVEL
 70
     2
102
SHADEPLOTCUSTOMDPI
 70
   300
  0
XRECORD
  5
349
102
{ACAD_REACTORS
330
348
102
}
330
348
100
AcDbXrecord
280
     1
102
MATERIAL
148
0.0
149
0.0
149
0.0
 93
        0
 94
       63
282
     0
 72
     1
 77
     1
171
     1
175
     1
179
     1
273
     0
  0
XRECORD
  5
347
102
{ACAD_REACTORS
330
346
102
}
330
346
100
AcDbXrecord
280
     1
102
MATERIAL
148
0.0
149
0.0
149
0.0
 93
        0
 94
       63
282
     0
 72
     1
 77
     1
171
     1
175
     1
179
     1
273
     0
  0
XRECORD
  5
34B
102
{ACAD_REACTORS
330
34A
102
}
330
34A
100
AcDbXrecord
280
     1
102
MATERIAL
148
0.0
149
0.0
149
0.0
 93
        0
 94
       63
282
     0
 72
     1
 77
     1
171
     1
175
     1
179
     1
273
     0
  0
XRECORD
  5
345
102
{ACAD_REACTORS
330
344
102
}
330
344
100
AcDbXrecord
280
     1
102
ACAD_ROUNDTRIP_PRE2007_TABLESTYLE
 90
      512
 91
        0
  1

 92
      512
 93
        0
  2

 94
      512
 95
        0
  3

  0
ENDSEC
  0
EOF
