  0
SECTION
  2
HEADER
  9
$ACADVER
  1
AC1015
  9
$ACADMAINTVER
 70
    20
  9
$DWGCODEPAGE
  3
ANSI_1252
  9
$INSBASE
 10
0.0
 20
0.0
 30
0.0
  9
$EXTMIN
 10
40.84707674423708
 20
9.073431503703426
 30
0.0
  9
$EXTMAX
 10
374.7039520620971
 20
288.3784270153305
 30
0.0
  9
$LIMMIN
 10
0.0
 20
0.0
  9
$LIMMAX
 10
12.0
 20
9.0
  9
$ORTHOMODE
 70
     0
  9
$REGENMODE
 70
     1
  9
$FILLMODE
 70
     1
  9
$QTEXTMODE
 70
     0
  9
$MIRRTEXT
 70
     0
  9
$LTSCALE
 40
1.0
  9
$ATTMODE
 70
     1
  9
$TEXTSIZE
 40
0.2
  9
$TRACEWID
 40
0.05
  9
$TEXTSTYLE
  7
Standard
  9
$CLAYER
  8
0
  9
$CELTYPE
  6
ByLayer
  9
$CECOLOR
 62
   256
  9
$CELTSCALE
 40
1.0
  9
$DISPSILH
 70
     0
  9
$DIMSCALE
 40
1.0
  9
$DIMASZ
 40
0.18
  9
$DIMEXO
 40
0.0625
  9
$DIMDLI
 40
0.38
  9
$DIMRND
 40
0.0
  9
$DIMDLE
 40
0.0
  9
$DIMEXE
 40
0.18
  9
$DIMTP
 40
0.0
  9
$DIMTM
 40
0.0
  9
$DIMTXT
 40
0.18
  9
$DIMCEN
 40
0.09
  9
$DIMTSZ
 40
0.0
  9
$DIMTOL
 70
     0
  9
$DIMLIM
 70
     0
  9
$DIMTIH
 70
     1
  9
$DIMTOH
 70
     1
  9
$DIMSE1
 70
     0
  9
$DIMSE2
 70
     0
  9
$DIMTAD
 70
     0
  9
$DIMZIN
 70
     0
  9
$DIMBLK
  1

  9
$DIMASO
 70
     1
  9
$DIMSHO
 70
     1
  9
$DIMPOST
  1

  9
$DIMAPOST
  1

  9
$DIMALT
 70
     0
  9
$DIMALTD
 70
     2
  9
$DIMALTF
 40
25.4
  9
$DIMLFAC
 40
1.0
  9
$DIMTOFL
 70
     0
  9
$DIMTVP
 40
0.0
  9
$DIMTIX
 70
     0
  9
$DIMSOXD
 70
     0
  9
$DIMSAH
 70
     0
  9
$DIMBLK1
  1

  9
$DIMBLK2
  1

  9
$DIMSTYLE
  2
Standard
  9
$DIMCLRD
 70
     0
  9
$DIMCLRE
 70
     0
  9
$DIMCLRT
 70
     0
  9
$DIMTFAC
 40
1.0
  9
$DIMGAP
 40
0.09
  9
$DIMJUST
 70
     0
  9
$DIMSD1
 70
     0
  9
$DIMSD2
 70
     0
  9
$DIMTOLJ
 70
     1
  9
$DIMTZIN
 70
     0
  9
$DIMALTZ
 70
     0
  9
$DIMALTTZ
 70
     0
  9
$DIMUPT
 70
     0
  9
$DIMDEC
 70
     4
  9
$DIMTDEC
 70
     4
  9
$DIMALTU
 70
     2
  9
$DIMALTTD
 70
     2
  9
$DIMTXSTY
  7
Standard
  9
$DIMAUNIT
 70
     0
  9
$DIMADEC
 70
     0
  9
$DIMALTRND
 40
0.0
  9
$DIMAZIN
 70
     0
  9
$DIMDSEP
 70
    46
  9
$DIMATFIT
 70
     3
  9
$DIMFRAC
 70
     0
  9
$DIMLDRBLK
  1

  9
$DIMLUNIT
 70
     2
  9
$DIMLWD
 70
    -2
  9
$DIMLWE
 70
    -2
  9
$DIMTMOVE
 70
     0
  9
$LUNITS
 70
     2
  9
$LUPREC
 70
     4
  9
$SKETCHINC
 40
0.1
  9
$FILLETRAD
 40
0.0
  9
$AUNITS
 70
     0
  9
$AUPREC
 70
     0
  9
$MENU
  1
.
  9
$ELEVATION
 40
0.0
  9
$PELEVATION
 40
0.0
  9
$THICKNESS
 40
0.0
  9
$LIMCHECK
 70
     0
  9
$CHAMFERA
 40
0.0
  9
$CHAMFERB
 40
0.0
  9
$CHAMFERC
 40
0.0
  9
$CHAMFERD
 40
0.0
  9
$SKPOLY
 70
     0
  9
$TDCREATE
 40
2458472.387492257
  9
$TDUCREATE
 40
2458472.095825591
  9
$TDUPDATE
 40
2458472.388563067
  9
$TDUUPDATE
 40
2458472.096896401
  9
$TDINDWG
 40
0.0010750463
  9
$TDUSRTIMER
 40
0.0010749769
  9
$USRTIMER
 70
     1
  9
$ANGBASE
 50
0.0
  9
$ANGDIR
 70
     0
  9
$PDMODE
 70
     0
  9
$PDSIZE
 40
0.0
  9
$PLINEWID
 40
0.0
  9
$SPLFRAME
 70
     0
  9
$SPLINETYPE
 70
     6
  9
$SPLINESEGS
 70
     8
  9
$HANDSEED
  5
616
  9
$SURFTAB1
 70
     6
  9
$SURFTAB2
 70
     6
  9
$SURFTYPE
 70
     6
  9
$SURFU
 70
     6
  9
$SURFV
 70
     6
  9
$UCSBASE
  2

  9
$UCSNAME
  2

  9
$UCSORG
 10
0.0
 20
0.0
 30
0.0
  9
$UCSXDIR
 10
1.0
 20
0.0
 30
0.0
  9
$UCSYDIR
 10
0.0
 20
1.0
 30
0.0
  9
$UCSORTHOREF
  2

  9
$UCSORTHOVIEW
 70
     0
  9
$UCSORGTOP
 10
0.0
 20
0.0
 30
0.0
  9
$UCSORGBOTTOM
 10
0.0
 20
0.0
 30
0.0
  9
$UCSORGLEFT
 10
0.0
 20
0.0
 30
0.0
  9
$UCSORGRIGHT
 10
0.0
 20
0.0
 30
0.0
  9
$UCSORGFRONT
 10
0.0
 20
0.0
 30
0.0
  9
$UCSORGBACK
 10
0.0
 20
0.0
 30
0.0
  9
$PUCSBASE
  2

  9
$PUCSNAME
  2

  9
$PUCSORG
 10
0.0
 20
0.0
 30
0.0
  9
$PUCSXDIR
 10
1.0
 20
0.0
 30
0.0
  9
$PUCSYDIR
 10
0.0
 20
1.0
 30
0.0
  9
$PUCSORTHOREF
  2

  9
$PUCSORTHOVIEW
 70
     0
  9
$PUCSORGTOP
 10
0.0
 20
0.0
 30
0.0
  9
$PUCSORGBOTTOM
 10
0.0
 20
0.0
 30
0.0
  9
$PUCSORGLEFT
 10
0.0
 20
0.0
 30
0.0
  9
$PUCSORGRIGHT
 10
0.0
 20
0.0
 30
0.0
  9
$PUCSORGFRONT
 10
0.0
 20
0.0
 30
0.0
  9
$PUCSORGBACK
 10
0.0
 20
0.0
 30
0.0
  9
$USERI1
 70
     0
  9
$USERI2
 70
     0
  9
$USERI3
 70
     0
  9
$USERI4
 70
     0
  9
$USERI5
 70
     0
  9
$USERR1
 40
0.0
  9
$USERR2
 40
0.0
  9
$USERR3
 40
0.0
  9
$USERR4
 40
0.0
  9
$USERR5
 40
0.0
  9
$WORLDVIEW
 70
     1
  9
$SHADEDGE
 70
     3
  9
$SHADEDIF
 70
    70
  9
$TILEMODE
 70
     1
  9
$MAXACTVP
 70
    64
  9
$PINSBASE
 10
0.0
 20
0.0
 30
0.0
  9
$PLIMCHECK
 70
     0
  9
$PEXTMIN
 10
0.0
 20
0.0
 30
0.0
  9
$PEXTMAX
 10
0.0
 20
0.0
 30
0.0
  9
$PLIMMIN
 10
0.0
 20
0.0
  9
$PLIMMAX
 10
12.0
 20
9.0
  9
$UNITMODE
 70
     0
  9
$VISRETAIN
 70
     1
  9
$PLINEGEN
 70
     0
  9
$PSLTSCALE
 70
     1
  9
$TREEDEPTH
 70
  3020
  9
$CMLSTYLE
  2
Standard
  9
$CMLJUST
 70
     0
  9
$CMLSCALE
 40
1.0
  9
$PROXYGRAPHICS
 70
     1
  9
$MEASUREMENT
 70
     0
  9
$CELWEIGHT
370
    -1
  9
$ENDCAPS
280
     0
  9
$JOINSTYLE
280
     0
  9
$LWDISPLAY
290
     0
  9
$INSUNITS
 70
     1
  9
$HYPERLINKBASE
  1

  9
$STYLESHEET
  1

  9
$XEDIT
290
     1
  9
$CEPSNTYPE
380
     0
  9
$PSTYLEMODE
290
     1
  9
$FINGERPRINTGUID
  2
{3BD81EC1-6340-4982-9B5F-748982672ABC}
  9
$VERSIONGUID
  2
{67E8BB87-0217-46F1-8CAF-6F5E92941AA4}
  9
$EXTNAMES
290
     1
  9
$PSVPSCALE
 40
0.0
  9
$OLESTARTUP
290
     0
  0
ENDSEC
  0
SECTION
  2
CLASSES
  0
CLASS
  1
ACDBDICTIONARYWDFLT
  2
AcDbDictionaryWithDefault
  3
ObjectDBX Classes
 90
        0
280
     0
281
     0
  0
CLASS
  1
ACDBPLACEHOLDER
  2
AcDbPlaceHolder
  3
ObjectDBX Classes
 90
        0
280
     0
281
     0
  0
CLASS
  1
LAYOUT
  2
AcDbLayout
  3
ObjectDBX Classes
 90
        0
280
     0
281
     0
  0
CLASS
  1
DICTIONARYVAR
  2
AcDbDictionaryVar
  3
ObjectDBX Classes
 90
        0
280
     0
281
     0
  0
CLASS
  1
TABLESTYLE
  2
AcDbTableStyle
  3
ObjectDBX Classes
 90
     4095
280
     0
281
     0
  0
CLASS
  1
MATERIAL
  2
AcDbMaterial
  3
ObjectDBX Classes
 90
     1153
280
     0
281
     0
  0
CLASS
  1
VISUALSTYLE
  2
AcDbVisualStyle
  3
ObjectDBX Classes
 90
     4095
280
     0
281
     0
  0
CLASS
  1
DIMASSOC
  2
AcDbDimAssoc
  3
"AcDbDimAssoc|Product Desc:     AcDim ARX App For Dimension|Company:          Autodesk, Inc.|WEB Address:      www.autodesk.com"
 90
        0
280
     0
281
     0
  0
CLASS
  1
SORTENTSTABLE
  2
AcDbSortentsTable
  3
ObjectDBX Classes
 90
        0
280
     0
281
     0
  0
ENDSEC
  0
SECTION
  2
TABLES
  0
TABLE
  2
VPORT
  5
8
330
0
100
AcDbSymbolTable
 70
     1
  0
VPORT
  5
94
330
8
100
AcDbSymbolTableRecord
100
AcDbViewportTableRecord
  2
*Active
 70
     0
 10
0.0
 20
0.0
 11
1.0
 21
1.0
 12
97.55867300001249
 22
93.93757350153085
 13
0.0
 23
0.0
 14
0.5
 24
0.5
 15
0.5
 25
0.5
 16
0.0
 26
0.0
 36
1.0
 17
0.0
 27
0.0
 37
0.0
 40
655.8673485298267
 41
2.189852700490998
 42
50.0
 43
0.0
 44
0.0
 50
0.0
 51
0.0
 71
     0
 72
  1000
 73
     1
 74
     3
 75
     0
 76
     0
 77
     0
 78
     0
281
     0
 65
     1
110
0.0
120
0.0
130
0.0
111
1.0
121
0.0
131
0.0
112
0.0
122
1.0
132
0.0
 79
     0
146
0.0
  0
ENDTAB
  0
TABLE
  2
LTYPE
  5
5
330
0
100
AcDbSymbolTable
 70
     1
  0
LTYPE
  5
14
330
5
100
AcDbSymbolTableRecord
100
AcDbLinetypeTableRecord
  2
ByBlock
 70
     0
  3

 72
    65
 73
     0
 40
0.0
  0
LTYPE
  5
15
330
5
100
AcDbSymbolTableRecord
100
AcDbLinetypeTableRecord
  2
ByLayer
 70
     0
  3

 72
    65
 73
     0
 40
0.0
  0
LTYPE
  5
16
330
5
100
AcDbSymbolTableRecord
100
AcDbLinetypeTableRecord
  2
Continuous
 70
     0
  3
Solid line
 72
    65
 73
     0
 40
0.0
  0
ENDTAB
  0
TABLE
  2
LAYER
  5
2
102
{ACAD_XDICTIONARY
360
122
102
}
330
0
100
AcDbSymbolTable
 70
     2
  0
LAYER
  5
10
330
2
100
AcDbSymbolTableRecord
100
AcDbLayerTableRecord
  2
0
 70
     0
 62
     7
  6
Continuous
370
    -3
390
F
  0
LAYER
  5
11D
330
2
100
AcDbSymbolTableRecord
100
AcDbLayerTableRecord
  2
Defpoints
 70
     0
 62
     7
  6
Continuous
290
     0
370
    -3
390
F
  0
ENDTAB
  0
TABLE
  2
STYLE
  5
3
330
0
100
AcDbSymbolTable
 70
     2
  0
STYLE
  5
11
330
3
100
AcDbSymbolTableRecord
100
AcDbTextStyleTableRecord
  2
Standard
 70
     0
 40
0.0
 41
1.0
 50
0.0
 71
     0
 42
0.2
  3
txt
  4

  0
STYLE
  5
11E
330
3
100
AcDbSymbolTableRecord
100
AcDbTextStyleTableRecord
  2
Binh
 70
     0
 40
0.0
 41
1.0
 50
0.0
 71
     0
 42
25.0
  3

  4

1001
ACAD
1000
VNI-Helve-Condense
1071
        2
  0
ENDTAB
  0
TABLE
  2
VIEW
  5
6
330
0
100
AcDbSymbolTable
 70
     0
  0
ENDTAB
  0
TABLE
  2
UCS
  5
7
330
0
100
AcDbSymbolTable
 70
     0
  0
ENDTAB
  0
TABLE
  2
APPID
  5
9
330
0
100
AcDbSymbolTable
 70
     2
  0
APPID
  5
12
330
9
100
AcDbSymbolTableRecord
100
AcDbRegAppTableRecord
  2
ACAD
 70
     0
  0
APPID
  5
121
330
9
100
AcDbSymbolTableRecord
100
AcDbRegAppTableRecord
  2
ACAD_PSEXT
 70
     0
  0
ENDTAB
  0
TABLE
  2
DIMSTYLE
  5
A
330
0
100
AcDbSymbolTable
 70
     3
100
AcDbDimStyleTable
 71
     0
  0
DIMSTYLE
105
27
330
A
100
AcDbSymbolTableRecord
100
AcDbDimStyleTableRecord
  2
Standard
 70
     0
340
11
  0
DIMSTYLE
105
11F
330
A
100
AcDbSymbolTableRecord
100
AcDbDimStyleTableRecord
  2
SS
 70
     0
 40
1.5
 41
3.0
 42
2.0
 43
1.0
 44
2.0
 73
     0
 74
     0
 77
     1
140
3.0
147
0.5
176
     1
177
     1
178
     7
340
11
  0
DIMSTYLE
105
120
102
{ACAD_REACTORS
330
2EC
330
2EF
330
33D
330
340
330
343
330
344
330
345
330
346
330
514
330
517
330
565
330
568
330
56B
330
56C
330
56D
330
56E
102
}
330
A
100
AcDbSymbolTableRecord
100
AcDbDimStyleTableRecord
  2
TRIEU
 70
     0
 40
0.5
 41
30.0
 42
0.0
 43
0.0
 44
20.0
 73
     0
 77
     3
 78
     8
140
30.0
141
0.0
146
0.0000052631578947
147
10.0
172
     1
174
     1
176
     8
177
     8
178
     3
271
     0
272
     0
275
     1
279
     2
284
     8
340
11E
342
B9
  0
ENDTAB
  0
TABLE
  2
BLOCK_RECORD
  5
1
330
0
100
AcDbSymbolTable
 70
    19
  0
BLOCK_RECORD
  5
1F
330
1
100
AcDbSymbolTableRecord
100
AcDbBlockTableRecord
  2
*Model_Space
340
22
  0
BLOCK_RECORD
  5
58
330
1
100
AcDbSymbolTableRecord
100
AcDbBlockTableRecord
  2
*Paper_Space
340
59
  0
BLOCK_RECORD
  5
5D
330
1
100
AcDbSymbolTableRecord
100
AcDbBlockTableRecord
  2
*Paper_Space0
340
5E
  0
BLOCK_RECORD
  5
B9
330
1
100
AcDbSymbolTableRecord
100
AcDbBlockTableRecord
  2
_Oblique
340
0
102
{BLKREFS
331
CE
331
CF
331
C2
331
C3
331
F2
331
F3
331
FE
331
FF
331
10A
331
10B
331
116
331
117
331
DA
331
DB
331
E6
331
E7
331
5AF
331
5B0
331
5BB
331
5BC
331
5D2
331
5D3
331
5DB
331
5DC
331
5E4
331
5E5
331
5ED
331
5EE
331
5F6
331
5F7
331
5FF
331
600
102
}
  0
BLOCK_RECORD
  5
BD
330
1
100
AcDbSymbolTableRecord
100
AcDbBlockTableRecord
  2
*D2
340
0
  0
BLOCK_RECORD
  5
C9
330
1
100
AcDbSymbolTableRecord
100
AcDbBlockTableRecord
  2
*D3
340
0
  0
BLOCK_RECORD
  5
D5
330
1
100
AcDbSymbolTableRecord
100
AcDbBlockTableRecord
  2
*D4
340
0
  0
BLOCK_RECORD
  5
E1
330
1
100
AcDbSymbolTableRecord
100
AcDbBlockTableRecord
  2
*D5
340
0
  0
BLOCK_RECORD
  5
ED
330
1
100
AcDbSymbolTableRecord
100
AcDbBlockTableRecord
  2
*D6
340
0
  0
BLOCK_RECORD
  5
F9
330
1
100
AcDbSymbolTableRecord
100
AcDbBlockTableRecord
  2
*D7
340
0
  0
BLOCK_RECORD
  5
105
330
1
100
AcDbSymbolTableRecord
100
AcDbBlockTableRecord
  2
*D8
340
0
  0
BLOCK_RECORD
  5
111
330
1
100
AcDbSymbolTableRecord
100
AcDbBlockTableRecord
  2
*D9
340
0
  0
BLOCK_RECORD
  5
56F
330
1
100
AcDbSymbolTableRecord
100
AcDbBlockTableRecord
  2
*D11
340
0
  0
BLOCK_RECORD
  5
57B
330
1
100
AcDbSymbolTableRecord
100
AcDbBlockTableRecord
  2
*D12
340
0
  0
BLOCK_RECORD
  5
587
330
1
100
AcDbSymbolTableRecord
100
AcDbBlockTableRecord
  2
*D13
340
0
  0
BLOCK_RECORD
  5
593
330
1
100
AcDbSymbolTableRecord
100
AcDbBlockTableRecord
  2
*D14
340
0
  0
BLOCK_RECORD
  5
59F
330
1
100
AcDbSymbolTableRecord
100
AcDbBlockTableRecord
  2
*D15
340
0
  0
BLOCK_RECORD
  5
5AB
330
1
100
AcDbSymbolTableRecord
100
AcDbBlockTableRecord
  2
*D16
340
0
  0
BLOCK_RECORD
  5
5B7
330
1
100
AcDbSymbolTableRecord
100
AcDbBlockTableRecord
  2
*D17
340
0
  0
BLOCK_RECORD
  5
5C3
330
1
100
AcDbSymbolTableRecord
100
AcDbBlockTableRecord
  2
*D18
340
0
  0
ENDTAB
  0
ENDSEC
  0
SECTION
  2
BLOCKS
  0
BLOCK
  5
20
330
1F
100
AcDbEntity
  8
0
100
AcDbBlockBegin
  2
*Model_Space
 70
     0
 10
0.0
 20
0.0
 30
0.0
  3
*Model_Space
  1

  0
ENDBLK
  5
21
330
1F
100
AcDbEntity
  8
0
100
AcDbBlockEnd
  0
BLOCK
  5
5A
330
58
100
AcDbEntity
 67
     1
  8
0
100
AcDbBlockBegin
  2
*Paper_Space
 70
     0
 10
0.0
 20
0.0
 30
0.0
  3
*Paper_Space
  1

  0
ENDBLK
  5
5B
330
58
100
AcDbEntity
 67
     1
  8
0
100
AcDbBlockEnd
  0
BLOCK
  5
5F
330
5D
100
AcDbEntity
 67
     1
  8
0
100
AcDbBlockBegin
  2
*Paper_Space0
 70
     0
 10
0.0
 20
0.0
 30
0.0
  3
*Paper_Space0
  1

  0
ENDBLK
  5
60
330
5D
100
AcDbEntity
 67
     1
  8
0
100
AcDbBlockEnd
  0
BLOCK
  5
BA
330
B9
100
AcDbEntity
  8
0
100
AcDbBlockBegin
  2
_Oblique
 70
     0
 10
0.0
 20
0.0
 30
0.0
  3
_Oblique
  1

  0
LINE
  5
BB
330
B9
100
AcDbEntity
  8
0
  6
ByBlock
 62
     0
370
    -2
100
AcDbLine
 10
-0.5
 20
-0.5
 30
0.0
 11
0.5
 21
0.5
 31
0.0
  0
ENDBLK
  5
BC
330
B9
100
AcDbEntity
  8
0
100
AcDbBlockEnd
  0
BLOCK
  5
BE
330
BD
100
AcDbEntity
  8
0
370
    40
100
AcDbBlockBegin
  2
*D2
 70
     1
 10
0.0
 20
0.0
 30
0.0
  3
*D2
  1

  0
LINE
  5
BF
330
BD
100
AcDbEntity
  8
0
 62
     8
370
    -2
100
AcDbLine
 10
-285.7795337872048
 20
-1075.686455601816
 30
0.0
 11
-285.7795337872048
 21
-1053.782257289899
 31
0.0
  0
LINE
  5
C0
330
BD
100
AcDbEntity
  8
0
 62
     8
370
    -2
100
AcDbLine
 10
-167.2795337889292
 20
-1075.686455601816
 30
0.0
 11
-167.2795337889292
 21
-1053.782257289899
 31
0.0
  0
LINE
  5
C1
330
BD
100
AcDbEntity
  8
0
 62
     8
370
    -2
100
AcDbLine
 10
-285.7795337872048
 20
-1063.782257289899
 30
0.0
 11
-167.2795337889292
 21
-1063.782257289899
 31
0.0
  0
INSERT
  5
C2
330
BD
100
AcDbEntity
  8
0
 62
     8
370
    -2
100
AcDbBlockReference
  2
_Oblique
 10
-285.7795337872048
 20
-1063.782257289899
 30
0.0
 41
15.0
 42
15.0
 43
15.0
 50
180.0
  0
INSERT
  5
C3
330
BD
100
AcDbEntity
  8
0
 62
     8
370
    -2
100
AcDbBlockReference
  2
_Oblique
 10
-167.2795337889292
 20
-1063.782257289899
 30
0.0
 41
15.0
 42
15.0
 43
15.0
  0
MTEXT
  5
C4
330
BD
100
AcDbEntity
  8
0
 62
     3
370
    40
100
AcDbMText
 10
-226.5295337880671
 20
-1053.032007289899
 30
0.0
 40
15.0
 41
0.0
 71
     5
 72
     1
  1
\A1;{\H0.7667x;\C256;119}
  7
Binh
 73
     1
 44
1.0
1001
ACAD
1000
MTEXTBEGIN
1070
    73
1070
     1
1070
    44
1040
1.0
1070
    74
1070
     0
1000
MTEXTEND
  0
POINT
  5
C5
330
BD
100
AcDbEntity
  8
Defpoints
 62
     0
370
    40
100
AcDbPoint
 10
-285.7795337872048
 20
-1075.686455601816
 30
0.0
  0
POINT
  5
C6
330
BD
100
AcDbEntity
  8
Defpoints
 62
     0
370
    40
100
AcDbPoint
 10
-167.2795337889292
 20
-1075.686455601816
 30
0.0
  0
POINT
  5
C7
330
BD
100
AcDbEntity
  8
Defpoints
 62
     0
370
    40
100
AcDbPoint
 10
-167.2795337889292
 20
-1063.782257289899
 30
0.0
  0
ENDBLK
  5
C8
330
BD
100
AcDbEntity
  8
0
370
    40
100
AcDbBlockEnd
  0
BLOCK
  5
CA
330
C9
100
AcDbEntity
  8
0
370
    40
100
AcDbBlockBegin
  2
*D3
 70
     1
 10
0.0
 20
0.0
 30
0.0
  3
*D3
  1

  0
LINE
  5
CB
330
C9
100
AcDbEntity
  8
0
 62
     8
370
    -2
100
AcDbLine
 10
-285.7795337872048
 20
-1129.686455601817
 30
0.0
 11
-308.9641184626017
 21
-1129.686455601817
 31
0.0
  0
LINE
  5
CC
330
C9
100
AcDbEntity
  8
0
 62
     8
370
    -2
100
AcDbLine
 10
-284.7795337872048
 20
-1074.686455601816
 30
0.0
 11
-308.9641184626017
 21
-1074.686455601816
 31
0.0
  0
LINE
  5
CD
330
C9
100
AcDbEntity
  8
0
 62
     8
370
    -2
100
AcDbLine
 10
-298.9641184626017
 20
-1129.686455601817
 30
0.0
 11
-298.9641184626017
 21
-1074.686455601816
 31
0.0
  0
INSERT
  5
CE
330
C9
100
AcDbEntity
  8
0
 62
     8
370
    -2
100
AcDbBlockReference
  2
_Oblique
 10
-298.9641184626017
 20
-1129.686455601817
 30
0.0
 41
15.0
 42
15.0
 43
15.0
 50
270.0
  0
INSERT
  5
CF
330
C9
100
AcDbEntity
  8
0
 62
     8
370
    -2
100
AcDbBlockReference
  2
_Oblique
 10
-298.9641184626017
 20
-1074.686455601816
 30
0.0
 41
15.0
 42
15.0
 43
15.0
 50
90.0
  0
MTEXT
  5
D0
330
C9
100
AcDbEntity
  8
0
 62
     3
370
    40
100
AcDbMText
 10
-309.7143684626015
 20
-1102.186455601817
 30
0.0
 40
15.0
 41
0.0
 71
     5
 72
     1
  1
\A1;{\H0.7667x;\C256;55}
  7
Binh
 11
0.0000000000000001
 21
1.0
 31
0.0
 73
     1
 44
1.0
1001
ACAD
1000
MTEXTBEGIN
1070
    73
1070
     1
1070
    44
1040
1.0
1070
    74
1070
     0
1000
MTEXTEND
  0
POINT
  5
D1
330
C9
100
AcDbEntity
  8
Defpoints
 62
     0
370
    40
100
AcDbPoint
 10
-285.7795337872048
 20
-1129.686455601817
 30
0.0
  0
POINT
  5
D2
330
C9
100
AcDbEntity
  8
Defpoints
 62
     0
370
    40
100
AcDbPoint
 10
-284.7795337872048
 20
-1074.686455601816
 30
0.0
  0
POINT
  5
D3
330
C9
100
AcDbEntity
  8
Defpoints
 62
     0
370
    40
100
AcDbPoint
 10
-298.9641184626017
 20
-1074.686455601816
 30
0.0
  0
ENDBLK
  5
D4
330
C9
100
AcDbEntity
  8
0
370
    40
100
AcDbBlockEnd
  0
BLOCK
  5
D6
330
D5
100
AcDbEntity
  8
0
370
    40
100
AcDbBlockBegin
  2
*D4
 70
     1
 10
0.0
 20
0.0
 30
0.0
  3
*D4
  1

  0
LINE
  5
D7
330
D5
100
AcDbEntity
  8
0
 62
     8
370
    -2
100
AcDbLine
 10
-141.8909548940081
 20
-1119.973018894842
 30
0.0
 11
-141.8909548940081
 21
-1053.782257289899
 31
0.0
  0
LINE
  5
D8
330
D5
100
AcDbEntity
  8
0
 62
     8
370
    -2
100
AcDbLine
 10
-17.89095489400816
 20
-1119.973018894842
 30
0.0
 11
-17.89095489400815
 21
-1053.782257289899
 31
0.0
  0
LINE
  5
D9
330
D5
100
AcDbEntity
  8
0
 62
     8
370
    -2
100
AcDbLine
 10
-141.8909548940081
 20
-1063.782257289899
 30
0.0
 11
-17.89095489400815
 21
-1063.782257289899
 31
0.0
  0
INSERT
  5
DA
330
D5
100
AcDbEntity
  8
0
 62
     8
370
    -2
100
AcDbBlockReference
  2
_Oblique
 10
-141.8909548940081
 20
-1063.782257289899
 30
0.0
 41
15.0
 42
15.0
 43
15.0
 50
180.0
  0
INSERT
  5
DB
330
D5
100
AcDbEntity
  8
0
 62
     8
370
    -2
100
AcDbBlockReference
  2
_Oblique
 10
-17.89095489400815
 20
-1063.782257289899
 30
0.0
 41
15.0
 42
15.0
 43
15.0
  0
MTEXT
  5
DC
330
D5
100
AcDbEntity
  8
0
 62
     3
370
    40
100
AcDbMText
 10
-79.89095489400816
 20
-1053.032007289899
 30
0.0
 40
15.0
 41
0.0
 71
     5
 72
     1
  1
\A1;{\H0.7667x;\C256;124}
  7
Binh
 73
     1
 44
1.0
1001
ACAD
1000
MTEXTBEGIN
1070
    73
1070
     1
1070
    44
1040
1.0
1070
    74
1070
     0
1000
MTEXTEND
  0
POINT
  5
DD
330
D5
100
AcDbEntity
  8
Defpoints
 62
     0
370
    40
100
AcDbPoint
 10
-141.8909548940081
 20
-1119.973018894842
 30
0.0
  0
POINT
  5
DE
330
D5
100
AcDbEntity
  8
Defpoints
 62
     0
370
    40
100
AcDbPoint
 10
-17.89095489400816
 20
-1119.973018894842
 30
0.0
  0
POINT
  5
DF
330
D5
100
AcDbEntity
  8
Defpoints
 62
     0
370
    40
100
AcDbPoint
 10
-17.89095489400815
 20
-1063.782257289899
 30
0.0
  0
ENDBLK
  5
E0
330
D5
100
AcDbEntity
  8
0
370
    40
100
AcDbBlockEnd
  0
BLOCK
  5
E2
330
E1
100
AcDbEntity
  8
0
370
    40
100
AcDbBlockBegin
  2
*D5
 70
     1
 10
0.0
 20
0.0
 30
0.0
  3
*D5
  1

  0
LINE
  5
E3
330
E1
100
AcDbEntity
  8
0
 62
     8
370
    -2
100
AcDbLine
 10
-51.89095489400792
 20
-1074.686455601816
 30
0.0
 11
18.39225685525807
 21
-1074.686455601816
 31
0.0
  0
LINE
  5
E4
330
E1
100
AcDbEntity
  8
0
 62
     8
370
    -2
100
AcDbLine
 10
-51.89095489400793
 20
-1129.686455601817
 30
0.0
 11
18.39225685525807
 21
-1129.686455601817
 31
0.0
  0
LINE
  5
E5
330
E1
100
AcDbEntity
  8
0
 62
     8
370
    -2
100
AcDbLine
 10
8.39225685525808
 20
-1074.686455601816
 30
0.0
 11
8.39225685525807
 21
-1129.686455601817
 31
0.0
  0
INSERT
  5
E6
330
E1
100
AcDbEntity
  8
0
 62
     8
370
    -2
100
AcDbBlockReference
  2
_Oblique
 10
8.39225685525808
 20
-1074.686455601816
 30
0.0
 41
15.0
 42
15.0
 43
15.0
 50
90.0
  0
INSERT
  5
E7
330
E1
100
AcDbEntity
  8
0
 62
     8
370
    -2
100
AcDbBlockReference
  2
_Oblique
 10
8.39225685525807
 20
-1129.686455601817
 30
0.0
 41
15.0
 42
15.0
 43
15.0
 50
270.0
  0
MTEXT
  5
E8
330
E1
100
AcDbEntity
  8
0
 62
     3
370
    40
100
AcDbMText
 10
-2.357993144741797
 20
-1102.186455601817
 30
0.0
 40
15.0
 41
0.0
 71
     5
 72
     1
  1
\A1;{\H0.7667x;\C256;55}
  7
Binh
 11
0.0000000000000001
 21
1.0
 31
0.0
 73
     1
 44
1.0
1001
ACAD
1000
MTEXTBEGIN
1070
    73
1070
     1
1070
    44
1040
1.0
1070
    74
1070
     0
1000
MTEXTEND
  0
POINT
  5
E9
330
E1
100
AcDbEntity
  8
Defpoints
 62
     0
370
    40
100
AcDbPoint
 10
-51.89095489400792
 20
-1074.686455601816
 30
0.0
  0
POINT
  5
EA
330
E1
100
AcDbEntity
  8
Defpoints
 62
     0
370
    40
100
AcDbPoint
 10
-51.89095489400793
 20
-1129.686455601817
 30
0.0
  0
POINT
  5
EB
330
E1
100
AcDbEntity
  8
Defpoints
 62
     0
370
    40
100
AcDbPoint
 10
8.39225685525807
 20
-1129.686455601817
 30
0.0
  0
ENDBLK
  5
EC
330
E1
100
AcDbEntity
  8
0
370
    40
100
AcDbBlockEnd
  0
BLOCK
  5
EE
330
ED
100
AcDbEntity
  8
0
370
    40
100
AcDbBlockBegin
  2
*D6
 70
     1
 10
0.0
 20
0.0
 30
0.0
  3
*D6
  1

  0
LINE
  5
EF
330
ED
100
AcDbEntity
  8
0
 62
     8
370
    -2
100
AcDbLine
 10
-167.2795337889292
 20
-918.2098736731687
 30
0.0
 11
-131.8909548940081
 21
-918.2098736731687
 31
0.0
  0
LINE
  5
F0
330
ED
100
AcDbEntity
  8
0
 62
     8
370
    -2
100
AcDbLine
 10
-167.2795337889292
 20
-1018.709873671706
 30
0.0
 11
-131.8909548940081
 21
-1018.709873671706
 31
0.0
  0
LINE
  5
F1
330
ED
100
AcDbEntity
  8
0
 62
     8
370
    -2
100
AcDbLine
 10
-141.8909548940081
 20
-918.2098736731687
 30
0.0
 11
-141.8909548940081
 21
-1018.709873671706
 31
0.0
  0
INSERT
  5
F2
330
ED
100
AcDbEntity
  8
0
 62
     8
370
    -2
100
AcDbBlockReference
  2
_Oblique
 10
-141.8909548940081
 20
-918.2098736731687
 30
0.0
 41
15.0
 42
15.0
 43
15.0
 50
90.0
  0
INSERT
  5
F3
330
ED
100
AcDbEntity
  8
0
 62
     8
370
    -2
100
AcDbBlockReference
  2
_Oblique
 10
-141.8909548940081
 20
-1018.709873671706
 30
0.0
 41
15.0
 42
15.0
 43
15.0
 50
270.0
  0
MTEXT
  5
F4
330
ED
100
AcDbEntity
  8
0
 62
     3
370
    40
100
AcDbMText
 10
-152.641204894008
 20
-968.4598736724375
 30
0.0
 40
15.0
 41
0.0
 71
     5
 72
     1
  1
\A1;{\H0.7667x;\C256;101}
  7
Binh
 11
0.0000000000000001
 21
1.0
 31
0.0
 73
     1
 44
1.0
1001
ACAD
1000
MTEXTBEGIN
1070
    73
1070
     1
1070
    44
1040
1.0
1070
    74
1070
     0
1000
MTEXTEND
  0
POINT
  5
F5
330
ED
100
AcDbEntity
  8
Defpoints
 62
     0
370
    40
100
AcDbPoint
 10
-167.2795337889292
 20
-918.2098736731687
 30
0.0
  0
POINT
  5
F6
330
ED
100
AcDbEntity
  8
Defpoints
 62
     0
370
    40
100
AcDbPoint
 10
-167.2795337889292
 20
-1018.709873671706
 30
0.0
  0
POINT
  5
F7
330
ED
100
AcDbEntity
  8
Defpoints
 62
     0
370
    40
100
AcDbPoint
 10
-141.8909548940081
 20
-1018.709873671706
 30
0.0
  0
ENDBLK
  5
F8
330
ED
100
AcDbEntity
  8
0
370
    40
100
AcDbBlockEnd
  0
BLOCK
  5
FA
330
F9
100
AcDbEntity
  8
0
370
    40
100
AcDbBlockBegin
  2
*D7
 70
     1
 10
0.0
 20
0.0
 30
0.0
  3
*D7
  1

  0
LINE
  5
FB
330
F9
100
AcDbEntity
  8
0
 62
     8
370
    -2
100
AcDbLine
 10
-176.0295337888019
 20
-905.7523048659971
 30
0.0
 11
-103.9203113832116
 21
-905.7523048659971
 31
0.0
  0
LINE
  5
FC
330
F9
100
AcDbEntity
  8
0
 62
     8
370
    -2
100
AcDbLine
 10
-176.0295337888019
 20
-1031.167442478848
 30
0.0
 11
-103.9203113832117
 21
-1031.167442478848
 31
0.0
  0
LINE
  5
FD
330
F9
100
AcDbEntity
  8
0
 62
     8
370
    -2
100
AcDbLine
 10
-113.9203113832117
 20
-905.7523048659971
 30
0.0
 11
-113.9203113832117
 21
-1031.167442478848
 31
0.0
  0
INSERT
  5
FE
330
F9
100
AcDbEntity
  8
0
 62
     8
370
    -2
100
AcDbBlockReference
  2
_Oblique
 10
-113.9203113832117
 20
-905.7523048659971
 30
0.0
 41
15.0
 42
15.0
 43
15.0
 50
90.0
  0
INSERT
  5
FF
330
F9
100
AcDbEntity
  8
0
 62
     8
370
    -2
100
AcDbBlockReference
  2
_Oblique
 10
-113.9203113832117
 20
-1031.167442478848
 30
0.0
 41
15.0
 42
15.0
 43
15.0
 50
270.0
  0
MTEXT
  5
100
330
F9
100
AcDbEntity
  8
0
 62
     3
370
    40
100
AcDbMText
 10
-124.6705613832115
 20
-968.4598736724229
 30
0.0
 40
15.0
 41
0.0
 71
     5
 72
     1
  1
\A1;{\H0.7667x;\C256;125}
  7
Binh
 11
0.0000000000000001
 21
1.0
 31
0.0
 73
     1
 44
1.0
1001
ACAD
1000
MTEXTBEGIN
1070
    73
1070
     1
1070
    44
1040
1.0
1070
    74
1070
     0
1000
MTEXTEND
  0
POINT
  5
101
330
F9
100
AcDbEntity
  8
Defpoints
 62
     0
370
    40
100
AcDbPoint
 10
-176.0295337888019
 20
-905.7523048659971
 30
0.0
  0
POINT
  5
102
330
F9
100
AcDbEntity
  8
Defpoints
 62
     0
370
    40
100
AcDbPoint
 10
-176.0295337888019
 20
-1031.167442478848
 30
0.0
  0
POINT
  5
103
330
F9
100
AcDbEntity
  8
Defpoints
 62
     0
370
    40
100
AcDbPoint
 10
-113.9203113832117
 20
-1031.167442478848
 30
0.0
  0
ENDBLK
  5
104
330
F9
100
AcDbEntity
  8
0
370
    40
100
AcDbBlockEnd
  0
BLOCK
  5
106
330
105
100
AcDbEntity
  8
0
370
    40
100
AcDbBlockBegin
  2
*D8
 70
     1
 10
0.0
 20
0.0
 30
0.0
  3
*D8
  1

  0
LINE
  5
107
330
105
100
AcDbEntity
  8
0
 62
     8
370
    -2
100
AcDbLine
 10
-278.0295337873176
 20
-905.7523048659971
 30
0.0
 11
-278.0295337873176
 21
-885.3407045177764
 31
0.0
  0
LINE
  5
108
330
105
100
AcDbEntity
  8
0
 62
     8
370
    -2
100
AcDbLine
 10
-176.0295337888019
 20
-905.8107911045256
 30
0.0
 11
-176.0295337888019
 21
-885.3407045177764
 31
0.0
  0
LINE
  5
109
330
105
100
AcDbEntity
  8
0
 62
     8
370
    -2
100
AcDbLine
 10
-278.0295337873176
 20
-895.3407045177764
 30
0.0
 11
-176.0295337888019
 21
-895.3407045177764
 31
0.0
  0
INSERT
  5
10A
330
105
100
AcDbEntity
  8
0
 62
     8
370
    -2
100
AcDbBlockReference
  2
_Oblique
 10
-278.0295337873176
 20
-895.3407045177764
 30
0.0
 41
15.0
 42
15.0
 43
15.0
 50
180.0
  0
INSERT
  5
10B
330
105
100
AcDbEntity
  8
0
 62
     8
370
    -2
100
AcDbBlockReference
  2
_Oblique
 10
-176.0295337888019
 20
-895.3407045177764
 30
0.0
 41
15.0
 42
15.0
 43
15.0
  0
MTEXT
  5
10C
330
105
100
AcDbEntity
  8
0
 62
     3
370
    40
100
AcDbMText
 10
-227.0295337880598
 20
-884.5904545177763
 30
0.0
 40
15.0
 41
0.0
 71
     5
 72
     1
  1
\A1;{\H0.7667x;\C256;102}
  7
Binh
 73
     1
 44
1.0
1001
ACAD
1000
MTEXTBEGIN
1070
    73
1070
     1
1070
    44
1040
1.0
1070
    74
1070
     0
1000
MTEXTEND
  0
POINT
  5
10D
330
105
100
AcDbEntity
  8
Defpoints
 62
     0
370
    40
100
AcDbPoint
 10
-278.0295337873176
 20
-905.7523048659971
 30
0.0
  0
POINT
  5
10E
330
105
100
AcDbEntity
  8
Defpoints
 62
     0
370
    40
100
AcDbPoint
 10
-176.0295337888019
 20
-905.8107911045256
 30
0.0
  0
POINT
  5
10F
330
105
100
AcDbEntity
  8
Defpoints
 62
     0
370
    40
100
AcDbPoint
 10
-176.0295337888019
 20
-895.3407045177764
 30
0.0
  0
ENDBLK
  5
110
330
105
100
AcDbEntity
  8
0
370
    40
100
AcDbBlockEnd
  0
BLOCK
  5
112
330
111
100
AcDbEntity
  8
0
370
    40
100
AcDbBlockBegin
  2
*D9
 70
     1
 10
0.0
 20
0.0
 30
0.0
  3
*D9
  1

  0
LINE
  5
113
330
111
100
AcDbEntity
  8
0
 62
     8
370
    -2
100
AcDbLine
 10
-285.7795337872048
 20
-918.2098736731687
 30
0.0
 11
-285.7795337872048
 21
-864.3819600901897
 31
0.0
  0
LINE
  5
114
330
111
100
AcDbEntity
  8
0
 62
     8
370
    -2
100
AcDbLine
 10
-167.2795337889292
 20
-918.2098736731687
 30
0.0
 11
-167.2795337889292
 21
-864.3819600901897
 31
0.0
  0
LINE
  5
115
330
111
100
AcDbEntity
  8
0
 62
     8
370
    -2
100
AcDbLine
 10
-285.7795337872048
 20
-874.3819600901897
 30
0.0
 11
-167.2795337889292
 21
-874.3819600901897
 31
0.0
  0
INSERT
  5
116
330
111
100
AcDbEntity
  8
0
 62
     8
370
    -2
100
AcDbBlockReference
  2
_Oblique
 10
-285.7795337872048
 20
-874.3819600901897
 30
0.0
 41
15.0
 42
15.0
 43
15.0
 50
180.0
  0
INSERT
  5
117
330
111
100
AcDbEntity
  8
0
 62
     8
370
    -2
100
AcDbBlockReference
  2
_Oblique
 10
-167.2795337889292
 20
-874.3819600901897
 30
0.0
 41
15.0
 42
15.0
 43
15.0
  0
MTEXT
  5
118
330
111
100
AcDbEntity
  8
0
 62
     3
370
    40
100
AcDbMText
 10
-226.5295337880671
 20
-863.6317100901896
 30
0.0
 40
15.0
 41
0.0
 71
     5
 72
     1
  1
\A1;{\H0.7667x;\C256;119}
  7
Binh
 73
     1
 44
1.0
1001
ACAD
1000
MTEXTBEGIN
1070
    73
1070
     1
1070
    44
1040
1.0
1070
    74
1070
     0
1000
MTEXTEND
  0
POINT
  5
119
330
111
100
AcDbEntity
  8
Defpoints
 62
     0
370
    40
100
AcDbPoint
 10
-285.7795337872048
 20
-918.2098736731687
 30
0.0
  0
POINT
  5
11A
330
111
100
AcDbEntity
  8
Defpoints
 62
     0
370
    40
100
AcDbPoint
 10
-167.2795337889292
 20
-918.2098736731687
 30
0.0
  0
POINT
  5
11B
330
111
100
AcDbEntity
  8
Defpoints
 62
     0
370
    40
100
AcDbPoint
 10
-167.2795337889292
 20
-874.3819600901897
 30
0.0
  0
ENDBLK
  5
11C
330
111
100
AcDbEntity
  8
0
370
    40
100
AcDbBlockEnd
  0
BLOCK
  5
579
330
56F
100
AcDbEntity
  8
0
100
AcDbBlockBegin
  2
*D11
 70
     1
 10
0.0
 20
0.0
 30
0.0
  3
*D11
  1

  0
LINE
  5
5CF
330
56F
100
AcDbEntity
  8
0
 62
     8
370
    -2
100
AcDbLine
 10
189.0321614179095
 20
228.0500134323516
 30
0.0
 11
224.4207403128306
 21
228.0500134323515
 31
0.0
  0
LINE
  5
5D0
330
56F
100
AcDbEntity
  8
0
 62
     8
370
    -2
100
AcDbLine
 10
189.0321614179095
 20
127.550013433814
 30
0.0
 11
224.4207403128306
 21
127.550013433814
 31
0.0
  0
LINE
  5
5D1
330
56F
100
AcDbEntity
  8
0
 62
     8
370
    -2
100
AcDbLine
 10
214.4207403128306
 20
228.0500134323515
 30
0.0
 11
214.4207403128306
 21
127.550013433814
 31
0.0
  0
INSERT
  5
5D2
330
56F
100
AcDbEntity
  8
0
 62
     8
370
    -2
100
AcDbBlockReference
  2
_Oblique
 10
214.4207403128306
 20
228.0500134323515
 30
0.0
 41
15.0
 42
15.0
 43
15.0
 50
90.0
  0
INSERT
  5
5D3
330
56F
100
AcDbEntity
  8
0
 62
     8
370
    -2
100
AcDbBlockReference
  2
_Oblique
 10
214.4207403128306
 20
127.550013433814
 30
0.0
 41
15.0
 42
15.0
 43
15.0
 50
270.0
  0
MTEXT
  5
5D4
330
56F
100
AcDbEntity
  8
0
 62
     3
370
    40
100
AcDbMText
 10
203.6704903128306
 20
177.8000134330828
 30
0.0
 40
15.0
 41
0.0
 71
     5
 72
     1
  1
\A1;{\H0.7667x;\C256;101}
  7
Binh
 11
0.0000000000000001
 21
1.0
 31
0.0
 73
     1
 44
1.0
1001
ACAD
1000
MTEXTBEGIN
1070
    73
1070
     1
1070
    44
1040
1.0
1070
    74
1070
     0
1000
MTEXTEND
  0
POINT
  5
5D5
330
56F
100
AcDbEntity
  8
Defpoints
 62
     0
100
AcDbPoint
 10
189.0321614179095
 20
228.0500134323516
 30
0.0
  0
POINT
  5
5D6
330
56F
100
AcDbEntity
  8
Defpoints
 62
     0
100
AcDbPoint
 10
189.0321614179095
 20
127.550013433814
 30
0.0
  0
POINT
  5
5D7
330
56F
100
AcDbEntity
  8
Defpoints
 62
     0
100
AcDbPoint
 10
214.4207403128306
 20
127.550013433814
 30
0.0
  0
ENDBLK
  5
57A
330
56F
100
AcDbEntity
  8
0
100
AcDbBlockEnd
  0
BLOCK
  5
585
330
57B
100
AcDbEntity
  8
0
100
AcDbBlockBegin
  2
*D12
 70
     1
 10
0.0
 20
0.0
 30
0.0
  3
*D12
  1

  0
LINE
  5
5D8
330
57B
100
AcDbEntity
  8
0
 62
     8
370
    -2
100
AcDbLine
 10
180.2821614180368
 20
240.507582239523
 30
0.0
 11
252.3913838236271
 21
240.507582239523
 31
0.0
  0
LINE
  5
5D9
330
57B
100
AcDbEntity
  8
0
 62
     8
370
    -2
100
AcDbLine
 10
180.2821614180368
 20
115.0924446266717
 30
0.0
 11
252.3913838236271
 21
115.0924446266717
 31
0.0
  0
LINE
  5
5DA
330
57B
100
AcDbEntity
  8
0
 62
     8
370
    -2
100
AcDbLine
 10
242.3913838236271
 20
240.507582239523
 30
0.0
 11
242.3913838236271
 21
115.0924446266717
 31
0.0
  0
INSERT
  5
5DB
330
57B
100
AcDbEntity
  8
0
 62
     8
370
    -2
100
AcDbBlockReference
  2
_Oblique
 10
242.3913838236271
 20
240.507582239523
 30
0.0
 41
15.0
 42
15.0
 43
15.0
 50
90.0
  0
INSERT
  5
5DC
330
57B
100
AcDbEntity
  8
0
 62
     8
370
    -2
100
AcDbBlockReference
  2
_Oblique
 10
242.3913838236271
 20
115.0924446266717
 30
0.0
 41
15.0
 42
15.0
 43
15.0
 50
270.0
  0
MTEXT
  5
5DD
330
57B
100
AcDbEntity
  8
0
 62
     3
370
    40
100
AcDbMText
 10
231.641133823627
 20
177.8000134330974
 30
0.0
 40
15.0
 41
0.0
 71
     5
 72
     1
  1
\A1;{\H0.7667x;\C256;125}
  7
Binh
 11
0.0000000000000001
 21
1.0
 31
0.0
 73
     1
 44
1.0
1001
ACAD
1000
MTEXTBEGIN
1070
    73
1070
     1
1070
    44
1040
1.0
1070
    74
1070
     0
1000
MTEXTEND
  0
POINT
  5
5DE
330
57B
100
AcDbEntity
  8
Defpoints
 62
     0
100
AcDbPoint
 10
180.2821614180368
 20
240.507582239523
 30
0.0
  0
POINT
  5
5DF
330
57B
100
AcDbEntity
  8
Defpoints
 62
     0
100
AcDbPoint
 10
180.2821614180368
 20
115.0924446266717
 30
0.0
  0
POINT
  5
5E0
330
57B
100
AcDbEntity
  8
Defpoints
 62
     0
100
AcDbPoint
 10
242.3913838236271
 20
115.0924446266717
 30
0.0
  0
ENDBLK
  5
586
330
57B
100
AcDbEntity
  8
0
100
AcDbBlockEnd
  0
BLOCK
  5
591
330
587
100
AcDbEntity
  8
0
100
AcDbBlockBegin
  2
*D13
 70
     1
 10
0.0
 20
0.0
 30
0.0
  3
*D13
  1

  0
LINE
  5
5E1
330
587
100
AcDbEntity
  8
0
 62
     8
370
    -2
100
AcDbLine
 10
78.28216141952115
 20
240.507582239523
 30
0.0
 11
78.28216141952115
 21
260.9191825877438
 31
0.0
  0
LINE
  5
5E2
330
587
100
AcDbEntity
  8
0
 62
     8
370
    -2
100
AcDbLine
 10
180.2821614180368
 20
240.4490960009945
 30
0.0
 11
180.2821614180368
 21
260.9191825877438
 31
0.0
  0
LINE
  5
5E3
330
587
100
AcDbEntity
  8
0
 62
     8
370
    -2
100
AcDbLine
 10
78.28216141952115
 20
250.9191825877438
 30
0.0
 11
180.2821614180368
 21
250.9191825877438
 31
0.0
  0
INSERT
  5
5E4
330
587
100
AcDbEntity
  8
0
 62
     8
370
    -2
100
AcDbBlockReference
  2
_Oblique
 10
78.28216141952115
 20
250.9191825877438
 30
0.0
 41
15.0
 42
15.0
 43
15.0
 50
180.0
  0
INSERT
  5
5E5
330
587
100
AcDbEntity
  8
0
 62
     8
370
    -2
100
AcDbBlockReference
  2
_Oblique
 10
180.2821614180368
 20
250.9191825877438
 30
0.0
 41
15.0
 42
15.0
 43
15.0
  0
MTEXT
  5
5E6
330
587
100
AcDbEntity
  8
0
 62
     3
370
    40
100
AcDbMText
 10
129.282161418779
 20
261.6694325877438
 30
0.0
 40
15.0
 41
0.0
 71
     5
 72
     1
  1
\A1;{\H0.7667x;\C256;102}
  7
Binh
 73
     1
 44
1.0
1001
ACAD
1000
MTEXTBEGIN
1070
    73
1070
     1
1070
    44
1040
1.0
1070
    74
1070
     0
1000
MTEXTEND
  0
POINT
  5
5E7
330
587
100
AcDbEntity
  8
Defpoints
 62
     0
100
AcDbPoint
 10
78.28216141952115
 20
240.507582239523
 30
0.0
  0
POINT
  5
5E8
330
587
100
AcDbEntity
  8
Defpoints
 62
     0
100
AcDbPoint
 10
180.2821614180368
 20
240.4490960009945
 30
0.0
  0
POINT
  5
5E9
330
587
100
AcDbEntity
  8
Defpoints
 62
     0
100
AcDbPoint
 10
180.2821614180368
 20
250.9191825877438
 30
0.0
  0
ENDBLK
  5
592
330
587
100
AcDbEntity
  8
0
100
AcDbBlockEnd
  0
BLOCK
  5
59D
330
593
100
AcDbEntity
  8
0
100
AcDbBlockBegin
  2
*D14
 70
     1
 10
0.0
 20
0.0
 30
0.0
  3
*D14
  1

  0
LINE
  5
5EA
330
593
100
AcDbEntity
  8
0
 62
     8
370
    -2
100
AcDbLine
 10
70.53216141963392
 20
228.0500134323516
 30
0.0
 11
70.53216141963392
 21
281.8779270153304
 31
0.0
  0
LINE
  5
5EB
330
593
100
AcDbEntity
  8
0
 62
     8
370
    -2
100
AcDbLine
 10
189.0321614179095
 20
228.0500134323516
 30
0.0
 11
189.0321614179095
 21
281.8779270153304
 31
0.0
  0
LINE
  5
5EC
330
593
100
AcDbEntity
  8
0
 62
     8
370
    -2
100
AcDbLine
 10
70.53216141963392
 20
271.8779270153305
 30
0.0
 11
189.0321614179095
 21
271.8779270153305
 31
0.0
  0
INSERT
  5
5ED
330
593
100
AcDbEntity
  8
0
 62
     8
370
    -2
100
AcDbBlockReference
  2
_Oblique
 10
70.53216141963392
 20
271.8779270153305
 30
0.0
 41
15.0
 42
15.0
 43
15.0
 50
180.0
  0
INSERT
  5
5EE
330
593
100
AcDbEntity
  8
0
 62
     8
370
    -2
100
AcDbBlockReference
  2
_Oblique
 10
189.0321614179095
 20
271.8779270153305
 30
0.0
 41
15.0
 42
15.0
 43
15.0
  0
MTEXT
  5
5EF
330
593
100
AcDbEntity
  8
0
 62
     3
370
    40
100
AcDbMText
 10
129.7821614187717
 20
282.6281770153304
 30
0.0
 40
15.0
 41
0.0
 71
     5
 72
     1
  1
\A1;{\H0.7667x;\C256;119}
  7
Binh
 73
     1
 44
1.0
1001
ACAD
1000
MTEXTBEGIN
1070
    73
1070
     1
1070
    44
1040
1.0
1070
    74
1070
     0
1000
MTEXTEND
  0
POINT
  5
5F0
330
593
100
AcDbEntity
  8
Defpoints
 62
     0
100
AcDbPoint
 10
70.53216141963392
 20
228.0500134323516
 30
0.0
  0
POINT
  5
5F1
330
593
100
AcDbEntity
  8
Defpoints
 62
     0
100
AcDbPoint
 10
189.0321614179095
 20
228.0500134323516
 30
0.0
  0
POINT
  5
5F2
330
593
100
AcDbEntity
  8
Defpoints
 62
     0
100
AcDbPoint
 10
189.0321614179095
 20
271.8779270153305
 30
0.0
  0
ENDBLK
  5
59E
330
593
100
AcDbEntity
  8
0
100
AcDbBlockEnd
  0
BLOCK
  5
5A9
330
59F
100
AcDbEntity
  8
0
100
AcDbBlockBegin
  2
*D15
 70
     1
 10
0.0
 20
0.0
 30
0.0
  3
*D15
  1

  0
LINE
  5
5F3
330
59F
100
AcDbEntity
  8
0
 62
     8
370
    -2
100
AcDbLine
 10
70.53216141963396
 20
70.57343150370378
 30
0.0
 11
70.53216141963396
 21
92.47762981562154
 31
0.0
  0
LINE
  5
5F4
330
59F
100
AcDbEntity
  8
0
 62
     8
370
    -2
100
AcDbLine
 10
189.0321614179096
 20
70.57343150370378
 30
0.0
 11
189.0321614179096
 21
92.47762981562154
 31
0.0
  0
LINE
  5
5F5
330
59F
100
AcDbEntity
  8
0
 62
     8
370
    -2
100
AcDbLine
 10
70.53216141963396
 20
82.47762981562154
 30
0.0
 11
189.0321614179096
 21
82.47762981562154
 31
0.0
  0
INSERT
  5
5F6
330
59F
100
AcDbEntity
  8
0
 62
     8
370
    -2
100
AcDbBlockReference
  2
_Oblique
 10
70.53216141963396
 20
82.47762981562154
 30
0.0
 41
15.0
 42
15.0
 43
15.0
 50
180.0
  0
INSERT
  5
5F7
330
59F
100
AcDbEntity
  8
0
 62
     8
370
    -2
100
AcDbBlockReference
  2
_Oblique
 10
189.0321614179096
 20
82.47762981562154
 30
0.0
 41
15.0
 42
15.0
 43
15.0
  0
MTEXT
  5
5F8
330
59F
100
AcDbEntity
  8
0
 62
     3
370
    40
100
AcDbMText
 10
129.7821614187718
 20
93.22787981562155
 30
0.0
 40
15.0
 41
0.0
 71
     5
 72
     1
  1
\A1;{\H0.7667x;\C256;119}
  7
Binh
 73
     1
 44
1.0
1001
ACAD
1000
MTEXTBEGIN
1070
    73
1070
     1
1070
    44
1040
1.0
1070
    74
1070
     0
1000
MTEXTEND
  0
POINT
  5
5F9
330
59F
100
AcDbEntity
  8
Defpoints
 62
     0
100
AcDbPoint
 10
70.53216141963396
 20
70.57343150370378
 30
0.0
  0
POINT
  5
5FA
330
59F
100
AcDbEntity
  8
Defpoints
 62
     0
100
AcDbPoint
 10
189.0321614179096
 20
70.57343150370378
 30
0.0
  0
POINT
  5
5FB
330
59F
100
AcDbEntity
  8
Defpoints
 62
     0
100
AcDbPoint
 10
189.0321614179096
 20
82.47762981562154
 30
0.0
  0
ENDBLK
  5
5AA
330
59F
100
AcDbEntity
  8
0
100
AcDbBlockEnd
  0
BLOCK
  5
5B5
330
5AB
100
AcDbEntity
  8
0
100
AcDbBlockBegin
  2
*D16
 70
     1
 10
0.0
 20
0.0
 30
0.0
  3
*D16
  1

  0
LINE
  5
5AC
330
5AB
100
AcDbEntity
  8
0
 62
     8
370
    -2
100
AcDbLine
 10
70.53216141963392
 20
16.57343150370346
 30
0.0
 11
47.34757674423708
 21
16.57343150370346
 31
0.0
  0
LINE
  5
5AD
330
5AB
100
AcDbEntity
  8
0
 62
     8
370
    -2
100
AcDbLine
 10
71.53216141963392
 20
71.57343150370346
 30
0.0
 11
47.3475767442371
 21
71.57343150370346
 31
0.0
  0
LINE
  5
5AE
330
5AB
100
AcDbEntity
  8
0
 62
     8
370
    -2
100
AcDbLine
 10
57.34757674423708
 20
16.57343150370346
 30
0.0
 11
57.3475767442371
 21
71.57343150370346
 31
0.0
  0
INSERT
  5
5AF
330
5AB
100
AcDbEntity
  8
0
 62
     8
370
    -2
100
AcDbBlockReference
  2
_Oblique
 10
57.34757674423708
 20
16.57343150370346
 30
0.0
 41
15.0
 42
15.0
 43
15.0
 50
270.0
  0
INSERT
  5
5B0
330
5AB
100
AcDbEntity
  8
0
 62
     8
370
    -2
100
AcDbBlockReference
  2
_Oblique
 10
57.3475767442371
 20
71.57343150370346
 30
0.0
 41
15.0
 42
15.0
 43
15.0
 50
90.0
  0
MTEXT
  5
5B1
330
5AB
100
AcDbEntity
  8
0
 62
     3
370
    40
100
AcDbMText
 10
46.59732674423708
 20
44.07343150370347
 30
0.0
 40
15.0
 41
0.0
 71
     5
 72
     1
  1
\A1;{\H0.7667x;\C256;55}
  7
Binh
 11
0.0000000000000001
 21
1.0
 31
0.0
 73
     1
 44
1.0
1001
ACAD
1000
MTEXTBEGIN
1070
    73
1070
     1
1070
    44
1040
1.0
1070
    74
1070
     0
1000
MTEXTEND
  0
POINT
  5
5B2
330
5AB
100
AcDbEntity
  8
Defpoints
 62
     0
100
AcDbPoint
 10
70.53216141963392
 20
16.57343150370346
 30
0.0
  0
POINT
  5
5B3
330
5AB
100
AcDbEntity
  8
Defpoints
 62
     0
100
AcDbPoint
 10
71.53216141963392
 20
71.57343150370346
 30
0.0
  0
POINT
  5
5B4
330
5AB
100
AcDbEntity
  8
Defpoints
 62
     0
100
AcDbPoint
 10
57.3475767442371
 20
71.57343150370346
 30
0.0
  0
ENDBLK
  5
5B6
330
5AB
100
AcDbEntity
  8
0
100
AcDbBlockEnd
  0
BLOCK
  5
5C1
330
5B7
100
AcDbEntity
  8
0
100
AcDbBlockBegin
  2
*D17
 70
     1
 10
0.0
 20
0.0
 30
0.0
  3
*D17
  1

  0
LINE
  5
5B8
330
5B7
100
AcDbEntity
  8
0
 62
     8
370
    -2
100
AcDbLine
 10
214.4207403128306
 20
26.28686821067825
 30
0.0
 11
214.4207403128306
 21
92.47762981562122
 31
0.0
  0
LINE
  5
5B9
330
5B7
100
AcDbEntity
  8
0
 62
     8
370
    -2
100
AcDbLine
 10
338.4207403128306
 20
26.28686821067825
 30
0.0
 11
338.4207403128306
 21
92.47762981562122
 31
0.0
  0
LINE
  5
5BA
330
5B7
100
AcDbEntity
  8
0
 62
     8
370
    -2
100
AcDbLine
 10
214.4207403128306
 20
82.47762981562122
 30
0.0
 11
338.4207403128306
 21
82.47762981562122
 31
0.0
  0
INSERT
  5
5BB
330
5B7
100
AcDbEntity
  8
0
 62
     8
370
    -2
100
AcDbBlockReference
  2
_Oblique
 10
214.4207403128306
 20
82.47762981562122
 30
0.0
 41
15.0
 42
15.0
 43
15.0
 50
180.0
  0
INSERT
  5
5BC
330
5B7
100
AcDbEntity
  8
0
 62
     8
370
    -2
100
AcDbBlockReference
  2
_Oblique
 10
338.4207403128306
 20
82.47762981562122
 30
0.0
 41
15.0
 42
15.0
 43
15.0
  0
MTEXT
  5
5BD
330
5B7
100
AcDbEntity
  8
0
 62
     3
370
    40
100
AcDbMText
 10
276.4207403128306
 20
93.2278798156212
 30
0.0
 40
15.0
 41
0.0
 71
     5
 72
     1
  1
\A1;{\H0.7667x;\C256;124}
  7
Binh
 73
     1
 44
1.0
1001
ACAD
1000
MTEXTBEGIN
1070
    73
1070
     1
1070
    44
1040
1.0
1070
    74
1070
     0
1000
MTEXTEND
  0
POINT
  5
5BE
330
5B7
100
AcDbEntity
  8
Defpoints
 62
     0
100
AcDbPoint
 10
214.4207403128306
 20
26.28686821067825
 30
0.0
  0
POINT
  5
5BF
330
5B7
100
AcDbEntity
  8
Defpoints
 62
     0
100
AcDbPoint
 10
338.4207403128306
 20
26.28686821067825
 30
0.0
  0
POINT
  5
5C0
330
5B7
100
AcDbEntity
  8
Defpoints
 62
     0
100
AcDbPoint
 10
338.4207403128306
 20
82.47762981562122
 30
0.0
  0
ENDBLK
  5
5C2
330
5B7
100
AcDbEntity
  8
0
100
AcDbBlockEnd
  0
BLOCK
  5
5CD
330
5C3
100
AcDbEntity
  8
0
100
AcDbBlockBegin
  2
*D18
 70
     1
 10
0.0
 20
0.0
 30
0.0
  3
*D18
  1

  0
LINE
  5
5FC
330
5C3
100
AcDbEntity
  8
0
 62
     8
370
    -2
100
AcDbLine
 10
304.4207403128309
 20
71.57343150370344
 30
0.0
 11
374.7039520620971
 21
71.57343150370343
 31
0.0
  0
LINE
  5
5FD
330
5C3
100
AcDbEntity
  8
0
 62
     8
370
    -2
100
AcDbLine
 10
304.4207403128309
 20
16.57343150370344
 30
0.0
 11
374.7039520620971
 21
16.57343150370343
 31
0.0
  0
LINE
  5
5FE
330
5C3
100
AcDbEntity
  8
0
 62
     8
370
    -2
100
AcDbLine
 10
364.7039520620971
 20
71.57343150370343
 30
0.0
 11
364.7039520620971
 21
16.57343150370343
 31
0.0
  0
INSERT
  5
5FF
330
5C3
100
AcDbEntity
  8
0
 62
     8
370
    -2
100
AcDbBlockReference
  2
_Oblique
 10
364.7039520620971
 20
71.57343150370343
 30
0.0
 41
15.0
 42
15.0
 43
15.0
 50
90.0
  0
INSERT
  5
600
330
5C3
100
AcDbEntity
  8
0
 62
     8
370
    -2
100
AcDbBlockReference
  2
_Oblique
 10
364.7039520620971
 20
16.57343150370343
 30
0.0
 41
15.0
 42
15.0
 43
15.0
 50
270.0
  0
MTEXT
  5
601
330
5C3
100
AcDbEntity
  8
0
 62
     3
370
    40
100
AcDbMText
 10
353.9537020620971
 20
44.07343150370349
 30
0.0
 40
15.0
 41
0.0
 71
     5
 72
     1
  1
\A1;{\H0.7667x;\C256;55}
  7
Binh
 11
0.0000000000000001
 21
1.0
 31
0.0
 73
     1
 44
1.0
1001
ACAD
1000
MTEXTBEGIN
1070
    73
1070
     1
1070
    44
1040
1.0
1070
    74
1070
     0
1000
MTEXTEND
  0
POINT
  5
602
330
5C3
100
AcDbEntity
  8
Defpoints
 62
     0
100
AcDbPoint
 10
304.4207403128309
 20
71.57343150370344
 30
0.0
  0
POINT
  5
603
330
5C3
100
AcDbEntity
  8
Defpoints
 62
     0
100
AcDbPoint
 10
304.4207403128309
 20
16.57343150370344
 30
0.0
  0
POINT
  5
604
330
5C3
100
AcDbEntity
  8
Defpoints
 62
     0
100
AcDbPoint
 10
364.7039520620971
 20
16.57343150370343
 30
0.0
  0
ENDBLK
  5
5CE
330
5C3
100
AcDbEntity
  8
0
100
AcDbBlockEnd
  0
ENDSEC
  0
SECTION
  2
ENTITIES
  0
MTEXT
  5
34D
330
1F
100
AcDbEntity
  8
0
100
AcDbMText
 10
142.2927128151799
 20
160.926373246461
 30
0.0
 40
5.0
 41
44.79584331544697
 71
     1
 72
     5
  1
{\fTimes New Roman|b0|i0|c0|p18;EXP-8UI8RO}
 73
     1
 44
1.0
1001
ACAD
1000
MTEXTBEGIN
1070
    73
1070
     1
1070
    44
1040
1.0
1070
    74
1070
     0
1000
MTEXTEND
  0
LWPOLYLINE
  5
34E
330
1F
100
AcDbEntity
  8
0
100
AcDbPolyline
 90
        2
 70
     0
 43
0.0
 10
70.53216141963392
 20
127.5500134323515
 10
70.53216141963392
 20
228.0500134323516
  0
LWPOLYLINE
  5
34F
330
1F
100
AcDbEntity
  8
0
100
AcDbPolyline
 90
        2
 70
     0
 43
0.0
 10
189.0321614196339
 20
228.0500134323516
 10
189.0321614196339
 20
127.5500134323515
  0
LWPOLYLINE
  5
350
330
1F
100
AcDbEntity
  8
0
 62
     4
100
AcDbPolyline
 90
        3
 70
     0
 43
0.0
 10
78.28216141963392
 20
228.0500134323516
 10
78.28216141963392
 20
240.4490960011589
 10
88.48216141963396
 20
240.4490960011589
  0
LWPOLYLINE
  5
351
330
1F
100
AcDbEntity
  8
0
 62
     4
100
AcDbPolyline
 90
        3
 70
     0
 43
0.0
 10
98.68216141963401
 20
240.4490960011589
 10
180.2821614196339
 20
240.4490960011589
 10
180.2821614196339
 20
228.0500134323516
  0
LWPOLYLINE
  5
352
330
1F
100
AcDbEntity
  8
0
 62
     4
100
AcDbPolyline
 90
        3
 70
     0
 43
0.0
 10
180.2821614196338
 20
115.1509308635441
 10
113.9821614196337
 20
115.1509308635441
 10
113.9821614196337
 20
127.5500134323515
  0
LWPOLYLINE
  5
353
330
1F
100
AcDbEntity
  8
0
 62
     4
100
AcDbPolyline
 90
        3
 70
     0
 43
0.0
 10
78.28216141963392
 20
228.0500134323516
 10
78.28216141963392
 20
228.7518482947369
 10
88.48216141963396
 20
228.7518482947369
  0
LWPOLYLINE
  5
354
330
1F
100
AcDbEntity
  8
0
 62
     4
100
AcDbPolyline
 90
        3
 70
     0
 43
0.0
 10
98.68216141963401
 20
228.7518482947369
 10
180.2821614196339
 20
228.7518482947369
 10
180.2821614196339
 20
228.0500134323516
  0
LWPOLYLINE
  5
355
330
1F
100
AcDbEntity
  8
0
 62
     4
100
AcDbPolyline
 90
        2
 70
     0
 43
0.0
 10
108.8821614196337
 20
126.8481785699662
 10
78.28216141963392
 20
126.8481785699662
  0
LWPOLYLINE
  5
356
330
1F
100
AcDbEntity
  8
0
 62
     4
100
AcDbPolyline
 90
        3
 70
     0
 43
0.0
 10
180.2821614196338
 20
126.8481785699662
 10
113.9821614196337
 20
126.8481785699662
 10
113.9821614196337
 20
127.5500134323515
  0
LWPOLYLINE
  5
357
330
1F
100
AcDbEntity
  8
0
100
AcDbPolyline
 90
        2
 70
     0
 43
0.0
 10
70.53216141963392
 20
137.8000134323515
 10
70.53216141963392
 20
217.8000134323516
  0
LWPOLYLINE
  5
358
330
1F
100
AcDbEntity
  8
0
100
AcDbPolyline
 90
        2
 70
     0
 43
0.0
 10
76.98791267351274
 20
217.8000134323516
 10
181.9879126735126
 20
217.8000134323516
  0
LWPOLYLINE
  5
359
330
1F
100
AcDbEntity
  8
0
100
AcDbPolyline
 90
        2
 70
     0
 43
0.0
 10
189.0321614196339
 20
217.8000134323516
 10
189.0321614196339
 20
137.8000134323515
  0
LWPOLYLINE
  5
35A
330
1F
100
AcDbEntity
  8
0
100
AcDbPolyline
 90
        2
 70
     0
 43
0.0
 10
181.9879126735126
 20
137.8000134323515
 10
178.9879126735126
 20
137.8000134323515
  0
LWPOLYLINE
  5
35B
330
1F
100
AcDbEntity
  8
0
100
AcDbPolyline
 90
        2
 70
     0
 43
0.0
 10
175.9879126735126
 20
137.8000134323515
 10
172.9879126735126
 20
137.8000134323515
  0
LWPOLYLINE
  5
35C
330
1F
100
AcDbEntity
  8
0
100
AcDbPolyline
 90
        2
 70
     0
 43
0.0
 10
169.9879126735126
 20
137.8000134323515
 10
166.9879126735126
 20
137.8000134323515
  0
LWPOLYLINE
  5
35D
330
1F
100
AcDbEntity
  8
0
100
AcDbPolyline
 90
        2
 70
     0
 43
0.0
 10
163.9879126735126
 20
137.8000134323515
 10
160.9879126735126
 20
137.8000134323515
  0
LWPOLYLINE
  5
35E
330
1F
100
AcDbEntity
  8
0
100
AcDbPolyline
 90
        2
 70
     0
 43
0.0
 10
157.9879126735126
 20
137.8000134323515
 10
154.9879126735126
 20
137.8000134323515
  0
LWPOLYLINE
  5
35F
330
1F
100
AcDbEntity
  8
0
100
AcDbPolyline
 90
        2
 70
     0
 43
0.0
 10
151.9879126735126
 20
137.8000134323515
 10
148.9879126735126
 20
137.8000134323515
  0
LWPOLYLINE
  5
360
330
1F
100
AcDbEntity
  8
0
100
AcDbPolyline
 90
        2
 70
     0
 43
0.0
 10
145.9879126735126
 20
137.8000134323515
 10
142.9879126735126
 20
137.8000134323515
  0
LWPOLYLINE
  5
361
330
1F
100
AcDbEntity
  8
0
100
AcDbPolyline
 90
        2
 70
     0
 43
0.0
 10
139.9879126735126
 20
137.8000134323515
 10
136.9879126735126
 20
137.8000134323515
  0
LWPOLYLINE
  5
362
330
1F
100
AcDbEntity
  8
0
100
AcDbPolyline
 90
        2
 70
     0
 43
0.0
 10
133.9879126735126
 20
137.8000134323515
 10
130.9879126735126
 20
137.8000134323515
  0
LWPOLYLINE
  5
363
330
1F
100
AcDbEntity
  8
0
100
AcDbPolyline
 90
        2
 70
     0
 43
0.0
 10
127.9879126735126
 20
137.8000134323515
 10
124.9879126735126
 20
137.8000134323515
  0
LWPOLYLINE
  5
364
330
1F
100
AcDbEntity
  8
0
100
AcDbPolyline
 90
        2
 70
     0
 43
0.0
 10
121.9879126735126
 20
137.8000134323515
 10
118.9879126735126
 20
137.8000134323515
  0
LWPOLYLINE
  5
365
330
1F
100
AcDbEntity
  8
0
100
AcDbPolyline
 90
        2
 70
     0
 43
0.0
 10
115.9879126735126
 20
137.8000134323515
 10
112.9879126735126
 20
137.8000134323515
  0
LWPOLYLINE
  5
366
330
1F
100
AcDbEntity
  8
0
100
AcDbPolyline
 90
        2
 70
     0
 43
0.0
 10
109.9879126735126
 20
137.8000134323515
 10
106.9879126735126
 20
137.8000134323515
  0
LWPOLYLINE
  5
367
330
1F
100
AcDbEntity
  8
0
100
AcDbPolyline
 90
        2
 70
     0
 43
0.0
 10
103.9879126735126
 20
137.8000134323515
 10
100.9879126735126
 20
137.8000134323515
  0
LWPOLYLINE
  5
368
330
1F
100
AcDbEntity
  8
0
100
AcDbPolyline
 90
        2
 70
     0
 43
0.0
 10
97.98791267351262
 20
137.8000134323515
 10
94.98791267351263
 20
137.8000134323515
  0
LWPOLYLINE
  5
369
330
1F
100
AcDbEntity
  8
0
100
AcDbPolyline
 90
        2
 70
     0
 43
0.0
 10
91.98791267351273
 20
137.8000134323515
 10
88.98791267351274
 20
137.8000134323515
  0
LWPOLYLINE
  5
36A
330
1F
100
AcDbEntity
  8
0
100
AcDbPolyline
 90
        2
 70
     0
 43
0.0
 10
85.98791267351273
 20
137.8000134323515
 10
82.98791267351274
 20
137.8000134323515
  0
LWPOLYLINE
  5
36B
330
1F
100
AcDbEntity
  8
0
100
AcDbPolyline
 90
        2
 70
     0
 43
0.0
 10
79.98791267351274
 20
137.8000134323515
 10
76.98791267351274
 20
137.8000134323515
  0
LWPOLYLINE
  5
36C
330
1F
100
AcDbEntity
  8
0
100
AcDbPolyline
 90
        4
 70
     1
 43
0.0
 10
70.53216141963392
 20
127.5500134323515
 10
70.53216141963392
 20
228.0500134323516
 10
189.0321614196339
 20
228.0500134323516
 10
189.0321614196339
 20
127.5500134323515
  0
LWPOLYLINE
  5
36D
330
1F
100
AcDbEntity
  8
0
100
AcDbPolyline
 90
        4
 70
     1
 43
0.0
 10
70.53216141963392
 20
148.3000134323515
 10
70.53216141963392
 20
207.3000134323516
 10
189.0321614196339
 20
207.3000134323516
 10
189.0321614196339
 20
148.3000134323515
  0
LWPOLYLINE
  5
36E
330
1F
100
AcDbEntity
  8
0
 62
     4
100
AcDbPolyline
 90
        4
 70
     0
 43
0.0
 10
98.68216141963401
 20
240.5075822396909
 10
180.2821614196339
 20
240.5075822396909
 10
180.2821614196339
 20
233.0213437075809
 10
98.68216141963401
 20
233.0213437075809
  0
LWPOLYLINE
  5
36F
330
1F
100
AcDbEntity
  8
0
 62
     4
100
AcDbPolyline
 90
        4
 70
     0
 43
0.0
 10
88.48216141963396
 20
233.0213437075809
 10
78.28216141963392
 20
233.0213437075809
 10
78.28216141963392
 20
240.5075822396909
 10
88.48216141963396
 20
240.5075822396909
  0
LWPOLYLINE
  5
370
330
1F
100
AcDbEntity
  8
0
 62
     4
100
AcDbPolyline
 90
        4
 70
     1
 43
0.0
 10
78.28216141963392
 20
233.0213437075809
 10
78.28216141963392
 20
240.5075822396909
 10
83.38216141963405
 20
240.5075822396909
 10
83.38216141963405
 20
233.0213437075809
  0
CIRCLE
  5
371
330
1F
100
AcDbEntity
  8
0
 62
     4
100
AcDbCircle
 10
80.83216141963388
 20
236.73521985437
 30
0.0
 40
1.871559633027523
  0
LWPOLYLINE
  5
372
330
1F
100
AcDbEntity
  8
0
 62
     4
100
AcDbPolyline
 90
        4
 70
     1
 43
0.0
 10
81.86669409098035
 20
238.1644937166439
 10
82.3519451529926
 20
237.6315116736351
 10
79.7976287482875
 20
235.305945992096
 10
79.31237768627537
 20
235.8389280351048
  0
LWPOLYLINE
  5
373
330
1F
100
AcDbEntity
  8
0
 62
     4
100
AcDbPolyline
 90
        4
 70
     1
 43
0.0
 10
83.38216141963405
 20
233.0213437075809
 10
83.38216141963405
 20
240.5075822396909
 10
88.48216141963396
 20
240.5075822396909
 10
88.48216141963396
 20
233.0213437075809
  0
CIRCLE
  5
374
330
1F
100
AcDbEntity
  8
0
 62
     4
100
AcDbCircle
 10
85.9321614196339
 20
236.73521985437
 30
0.0
 40
1.871559633027523
  0
LWPOLYLINE
  5
375
330
1F
100
AcDbEntity
  8
0
 62
     4
100
AcDbPolyline
 90
        4
 70
     1
 43
0.0
 10
86.96669409098038
 20
238.1644937166439
 10
87.45194515299251
 20
237.6315116736351
 10
84.89762874828741
 20
235.305945992096
 10
84.41237768627539
 20
235.8389280351048
  0
LWPOLYLINE
  5
376
330
1F
100
AcDbEntity
  8
0
 62
     4
100
AcDbPolyline
 90
        4
 70
     1
 43
0.0
 10
98.68216141963401
 20
233.0213437075809
 10
98.68216141963401
 20
240.5075822396909
 10
103.7821614196339
 20
240.5075822396909
 10
103.7821614196339
 20
233.0213437075809
  0
CIRCLE
  5
377
330
1F
100
AcDbEntity
  8
0
 62
     4
100
AcDbCircle
 10
101.2321614196339
 20
236.73521985437
 30
0.0
 40
1.871559633027523
  0
LWPOLYLINE
  5
378
330
1F
100
AcDbEntity
  8
0
 62
     4
100
AcDbPolyline
 90
        4
 70
     1
 43
0.0
 10
102.2666940909804
 20
238.1644937166439
 10
102.7519451529925
 20
237.6315116736351
 10
100.1976287482875
 20
235.305945992096
 10
99.71237768627545
 20
235.8389280351048
  0
LWPOLYLINE
  5
379
330
1F
100
AcDbEntity
  8
0
 62
     4
100
AcDbPolyline
 90
        4
 70
     1
 43
0.0
 10
103.7821614196339
 20
233.0213437075809
 10
103.7821614196339
 20
240.5075822396909
 10
108.8821614196338
 20
240.5075822396909
 10
108.8821614196338
 20
233.0213437075809
  0
CIRCLE
  5
37A
330
1F
100
AcDbEntity
  8
0
 62
     4
100
AcDbCircle
 10
106.3321614196339
 20
236.73521985437
 30
0.0
 40
1.871559633027523
  0
LWPOLYLINE
  5
37B
330
1F
100
AcDbEntity
  8
0
 62
     4
100
AcDbPolyline
 90
        4
 70
     1
 43
0.0
 10
107.3666940909804
 20
238.1644937166439
 10
107.8519451529924
 20
237.6315116736351
 10
105.2976287482874
 20
235.305945992096
 10
104.8123776862753
 20
235.8389280351048
  0
LWPOLYLINE
  5
37C
330
1F
100
AcDbEntity
  8
0
 62
     4
100
AcDbPolyline
 90
        4
 70
     1
 43
0.0
 10
108.8821614196338
 20
233.0213437075809
 10
108.8821614196338
 20
240.5075822396909
 10
113.9821614196339
 20
240.5075822396909
 10
113.9821614196339
 20
233.0213437075809
  0
CIRCLE
  5
37D
330
1F
100
AcDbEntity
  8
0
 62
     4
100
AcDbCircle
 10
111.432161419634
 20
236.73521985437
 30
0.0
 40
1.871559633027523
  0
LWPOLYLINE
  5
37E
330
1F
100
AcDbEntity
  8
0
 62
     4
100
AcDbPolyline
 90
        4
 70
     1
 43
0.0
 10
112.4666940909804
 20
238.1644937166439
 10
112.9519451529925
 20
237.6315116736351
 10
110.3976287482874
 20
235.305945992096
 10
109.9123776862754
 20
235.8389280351048
  0
LWPOLYLINE
  5
37F
330
1F
100
AcDbEntity
  8
0
 62
     4
100
AcDbPolyline
 90
        4
 70
     1
 43
0.0
 10
113.9821614196339
 20
233.0213437075809
 10
113.9821614196339
 20
240.5075822396909
 10
119.0821614196339
 20
240.5075822396909
 10
119.0821614196339
 20
233.0213437075809
  0
CIRCLE
  5
380
330
1F
100
AcDbEntity
  8
0
 62
     4
100
AcDbCircle
 10
116.5321614196339
 20
236.73521985437
 30
0.0
 40
1.871559633027523
  0
LWPOLYLINE
  5
381
330
1F
100
AcDbEntity
  8
0
 62
     4
100
AcDbPolyline
 90
        4
 70
     1
 43
0.0
 10
117.5666940909803
 20
238.1644937166439
 10
118.0519451529925
 20
237.6315116736351
 10
115.4976287482875
 20
235.305945992096
 10
115.0123776862754
 20
235.8389280351048
  0
LWPOLYLINE
  5
382
330
1F
100
AcDbEntity
  8
0
 62
     4
100
AcDbPolyline
 90
        4
 70
     1
 43
0.0
 10
119.0821614196339
 20
233.0213437075809
 10
119.0821614196339
 20
240.5075822396909
 10
124.182161419634
 20
240.5075822396909
 10
124.182161419634
 20
233.0213437075809
  0
CIRCLE
  5
383
330
1F
100
AcDbEntity
  8
0
 62
     4
100
AcDbCircle
 10
121.6321614196338
 20
236.73521985437
 30
0.0
 40
1.871559633027523
  0
LWPOLYLINE
  5
384
330
1F
100
AcDbEntity
  8
0
 62
     4
100
AcDbPolyline
 90
        4
 70
     1
 43
0.0
 10
122.6666940909804
 20
238.1644937166439
 10
123.1519451529925
 20
237.6315116736351
 10
120.5976287482874
 20
235.305945992096
 10
120.1123776862753
 20
235.8389280351048
  0
LWPOLYLINE
  5
385
330
1F
100
AcDbEntity
  8
0
 62
     4
100
AcDbPolyline
 90
        4
 70
     1
 43
0.0
 10
124.182161419634
 20
233.0213437075809
 10
124.182161419634
 20
240.5075822396909
 10
129.2821614196339
 20
240.5075822396909
 10
129.2821614196339
 20
233.0213437075809
  0
CIRCLE
  5
386
330
1F
100
AcDbEntity
  8
0
 62
     4
100
AcDbCircle
 10
126.7321614196339
 20
236.73521985437
 30
0.0
 40
1.871559633027523
  0
LWPOLYLINE
  5
387
330
1F
100
AcDbEntity
  8
0
 62
     4
100
AcDbPolyline
 90
        4
 70
     1
 43
0.0
 10
127.7666940909804
 20
238.1644937166439
 10
128.2519451529924
 20
237.6315116736351
 10
125.6976287482875
 20
235.305945992096
 10
125.2123776862754
 20
235.8389280351048
  0
LWPOLYLINE
  5
388
330
1F
100
AcDbEntity
  8
0
 62
     4
100
AcDbPolyline
 90
        4
 70
     1
 43
0.0
 10
129.2821614196339
 20
233.0213437075809
 10
129.2821614196339
 20
240.5075822396909
 10
134.3821614196338
 20
240.5075822396909
 10
134.3821614196338
 20
233.0213437075809
  0
CIRCLE
  5
389
330
1F
100
AcDbEntity
  8
0
 62
     4
100
AcDbCircle
 10
131.8321614196338
 20
236.73521985437
 30
0.0
 40
1.871559633027523
  0
LWPOLYLINE
  5
38A
330
1F
100
AcDbEntity
  8
0
 62
     4
100
AcDbPolyline
 90
        4
 70
     1
 43
0.0
 10
132.8666940909805
 20
238.1644937166439
 10
133.3519451529924
 20
237.6315116736351
 10
130.7976287482875
 20
235.305945992096
 10
130.3123776862755
 20
235.8389280351048
  0
LWPOLYLINE
  5
38B
330
1F
100
AcDbEntity
  8
0
 62
     4
100
AcDbPolyline
 90
        4
 70
     1
 43
0.0
 10
134.382161419634
 20
233.0213437075809
 10
134.382161419634
 20
240.5075822396909
 10
139.4821614196339
 20
240.5075822396909
 10
139.4821614196339
 20
233.0213437075809
  0
CIRCLE
  5
38C
330
1F
100
AcDbEntity
  8
0
 62
     4
100
AcDbCircle
 10
136.932161419634
 20
236.73521985437
 30
0.0
 40
1.871559633027523
  0
LWPOLYLINE
  5
38D
330
1F
100
AcDbEntity
  8
0
 62
     4
100
AcDbPolyline
 90
        4
 70
     1
 43
0.0
 10
137.9666940909804
 20
238.1644937166439
 10
138.4519451529925
 20
237.6315116736351
 10
135.8976287482874
 20
235.305945992096
 10
135.4123776862754
 20
235.8389280351048
  0
LWPOLYLINE
  5
38E
330
1F
100
AcDbEntity
  8
0
 62
     4
100
AcDbPolyline
 90
        4
 70
     1
 43
0.0
 10
139.4821614196339
 20
233.0213437075809
 10
139.4821614196339
 20
240.5075822396909
 10
144.5821614196338
 20
240.5075822396909
 10
144.5821614196338
 20
233.0213437075809
  0
CIRCLE
  5
38F
330
1F
100
AcDbEntity
  8
0
 62
     4
100
AcDbCircle
 10
142.0321614196339
 20
236.73521985437
 30
0.0
 40
1.871559633027523
  0
LWPOLYLINE
  5
390
330
1F
100
AcDbEntity
  8
0
 62
     4
100
AcDbPolyline
 90
        4
 70
     1
 43
0.0
 10
143.0666940909803
 20
238.1644937166439
 10
143.5519451529925
 20
237.6315116736351
 10
140.9976287482875
 20
235.305945992096
 10
140.5123776862754
 20
235.8389280351048
  0
LWPOLYLINE
  5
391
330
1F
100
AcDbEntity
  8
0
 62
     4
100
AcDbPolyline
 90
        4
 70
     1
 43
0.0
 10
144.5821614196338
 20
233.0213437075809
 10
144.5821614196338
 20
240.5075822396909
 10
149.682161419634
 20
240.5075822396909
 10
149.682161419634
 20
233.0213437075809
  0
CIRCLE
  5
392
330
1F
100
AcDbEntity
  8
0
 62
     4
100
AcDbCircle
 10
147.1321614196338
 20
236.73521985437
 30
0.0
 40
1.871559633027523
  0
LWPOLYLINE
  5
393
330
1F
100
AcDbEntity
  8
0
 62
     4
100
AcDbPolyline
 90
        4
 70
     1
 43
0.0
 10
148.1666940909804
 20
238.1644937166439
 10
148.6519451529925
 20
237.6315116736351
 10
146.0976287482876
 20
235.305945992096
 10
145.6123776862753
 20
235.8389280351048
  0
LWPOLYLINE
  5
394
330
1F
100
AcDbEntity
  8
0
 62
     4
100
AcDbPolyline
 90
        4
 70
     1
 43
0.0
 10
149.682161419634
 20
233.0213437075809
 10
149.682161419634
 20
240.5075822396909
 10
154.7821614196339
 20
240.5075822396909
 10
154.7821614196339
 20
233.0213437075809
  0
CIRCLE
  5
395
330
1F
100
AcDbEntity
  8
0
 62
     4
100
AcDbCircle
 10
152.232161419634
 20
236.73521985437
 30
0.0
 40
1.871559633027523
  0
LWPOLYLINE
  5
396
330
1F
100
AcDbEntity
  8
0
 62
     4
100
AcDbPolyline
 90
        4
 70
     1
 43
0.0
 10
153.2666940909804
 20
238.1644937166439
 10
153.7519451529925
 20
237.6315116736351
 10
151.1976287482875
 20
235.305945992096
 10
150.7123776862754
 20
235.8389280351048
  0
LWPOLYLINE
  5
397
330
1F
100
AcDbEntity
  8
0
 62
     4
100
AcDbPolyline
 90
        4
 70
     1
 43
0.0
 10
154.7821614196339
 20
233.0213437075809
 10
154.7821614196339
 20
240.5075822396909
 10
159.882161419634
 20
240.5075822396909
 10
159.882161419634
 20
233.0213437075809
  0
CIRCLE
  5
398
330
1F
100
AcDbEntity
  8
0
 62
     4
100
AcDbCircle
 10
157.3321614196339
 20
236.73521985437
 30
0.0
 40
1.871559633027523
  0
LWPOLYLINE
  5
399
330
1F
100
AcDbEntity
  8
0
 62
     4
100
AcDbPolyline
 90
        4
 70
     1
 43
0.0
 10
158.3666940909804
 20
238.1644937166439
 10
158.8519451529924
 20
237.6315116736351
 10
156.2976287482875
 20
235.305945992096
 10
155.8123776862755
 20
235.8389280351048
  0
LWPOLYLINE
  5
39A
330
1F
100
AcDbEntity
  8
0
 62
     4
100
AcDbPolyline
 90
        4
 70
     1
 43
0.0
 10
159.882161419634
 20
233.0213437075809
 10
159.882161419634
 20
240.5075822396909
 10
164.9821614196339
 20
240.5075822396909
 10
164.9821614196339
 20
233.0213437075809
  0
CIRCLE
  5
39B
330
1F
100
AcDbEntity
  8
0
 62
     4
100
AcDbCircle
 10
162.432161419634
 20
236.73521985437
 30
0.0
 40
1.871559633027523
  0
LWPOLYLINE
  5
39C
330
1F
100
AcDbEntity
  8
0
 62
     4
100
AcDbPolyline
 90
        4
 70
     1
 43
0.0
 10
163.4666940909804
 20
238.1644937166439
 10
163.9519451529925
 20
237.6315116736351
 10
161.3976287482874
 20
235.305945992096
 10
160.9123776862754
 20
235.8389280351048
  0
LWPOLYLINE
  5
39D
330
1F
100
AcDbEntity
  8
0
 62
     4
100
AcDbPolyline
 90
        4
 70
     1
 43
0.0
 10
164.9821614196339
 20
233.0213437075809
 10
164.9821614196339
 20
240.5075822396909
 10
170.0821614196339
 20
240.5075822396909
 10
170.0821614196339
 20
233.0213437075809
  0
CIRCLE
  5
39E
330
1F
100
AcDbEntity
  8
0
 62
     4
100
AcDbCircle
 10
167.5321614196339
 20
236.73521985437
 30
0.0
 40
1.871559633027523
  0
LWPOLYLINE
  5
39F
330
1F
100
AcDbEntity
  8
0
 62
     4
100
AcDbPolyline
 90
        4
 70
     1
 43
0.0
 10
168.5666940909805
 20
238.1644937166439
 10
169.0519451529925
 20
237.6315116736351
 10
166.4976287482875
 20
235.305945992096
 10
166.0123776862754
 20
235.8389280351048
  0
LWPOLYLINE
  5
3A0
330
1F
100
AcDbEntity
  8
0
 62
     4
100
AcDbPolyline
 90
        4
 70
     1
 43
0.0
 10
170.0821614196339
 20
233.0213437075809
 10
170.0821614196339
 20
240.5075822396909
 10
175.182161419634
 20
240.5075822396909
 10
175.182161419634
 20
233.0213437075809
  0
CIRCLE
  5
3A1
330
1F
100
AcDbEntity
  8
0
 62
     4
100
AcDbCircle
 10
172.632161419634
 20
236.73521985437
 30
0.0
 40
1.871559633027523
  0
LWPOLYLINE
  5
3A2
330
1F
100
AcDbEntity
  8
0
 62
     4
100
AcDbPolyline
 90
        4
 70
     1
 43
0.0
 10
173.6666940909804
 20
238.1644937166439
 10
174.1519451529925
 20
237.6315116736351
 10
171.5976287482876
 20
235.305945992096
 10
171.1123776862753
 20
235.8389280351048
  0
LWPOLYLINE
  5
3A3
330
1F
100
AcDbEntity
  8
0
 62
     4
100
AcDbPolyline
 90
        4
 70
     1
 43
0.0
 10
175.182161419634
 20
233.0213437075809
 10
175.182161419634
 20
240.5075822396909
 10
180.282161419634
 20
240.5075822396909
 10
180.282161419634
 20
233.0213437075809
  0
CIRCLE
  5
3A4
330
1F
100
AcDbEntity
  8
0
 62
     4
100
AcDbCircle
 10
177.7321614196339
 20
236.73521985437
 30
0.0
 40
1.871559633027523
  0
LWPOLYLINE
  5
3A5
330
1F
100
AcDbEntity
  8
0
 62
     4
100
AcDbPolyline
 90
        4
 70
     1
 43
0.0
 10
178.7666940909804
 20
238.1644937166439
 10
179.2519451529924
 20
237.6315116736351
 10
176.6976287482875
 20
235.305945992096
 10
176.2123776862754
 20
235.8389280351048
  0
LWPOLYLINE
  5
3A6
330
1F
100
AcDbEntity
  8
0
 62
     4
100
AcDbPolyline
 90
        2
 70
     0
 43
0.0
 10
98.6821614196338
 20
122.5786831571222
 10
78.28216141963392
 20
122.5786831571222
  0
LWPOLYLINE
  5
3A7
330
1F
100
AcDbEntity
  8
0
 62
     4
100
AcDbPolyline
 90
        4
 70
     0
 43
0.0
 10
180.2821614196338
 20
122.5786831571222
 10
113.9821614196337
 20
122.5786831571222
 10
113.9821614196337
 20
115.0924446250122
 10
180.2821614196338
 20
115.0924446250119
  0
LWPOLYLINE
  5
3A8
330
1F
100
AcDbEntity
  8
0
 62
     4
100
AcDbPolyline
 90
        4
 70
     1
 43
0.0
 10
113.9821614196337
 20
122.5786831571222
 10
113.9821614196337
 20
115.0924446250122
 10
119.0821614196339
 20
115.0924446250122
 10
119.0821614196339
 20
122.5786831571222
  0
CIRCLE
  5
3A9
330
1F
100
AcDbEntity
  8
0
 62
     4
100
AcDbCircle
 10
116.5321614196337
 20
118.8648070103331
 30
0.0
 40
1.871559633027523
  0
LWPOLYLINE
  5
3AA
330
1F
100
AcDbEntity
  8
0
 62
     4
100
AcDbPolyline
 90
        4
 70
     1
 43
0.0
 10
117.5666940909803
 20
117.4355331480592
 10
118.0519451529924
 20
117.968515191068
 10
115.4976287482873
 20
120.2940808726071
 10
115.0123776862752
 20
119.7610988295983
  0
LWPOLYLINE
  5
3AB
330
1F
100
AcDbEntity
  8
0
 62
     4
100
AcDbPolyline
 90
        4
 70
     1
 43
0.0
 10
119.0821614196339
 20
122.5786831571222
 10
119.0821614196339
 20
115.0924446250122
 10
124.1821614196338
 20
115.0924446250122
 10
124.1821614196338
 20
122.5786831571222
  0
CIRCLE
  5
3AC
330
1F
100
AcDbEntity
  8
0
 62
     4
100
AcDbCircle
 10
121.6321614196338
 20
118.8648070103331
 30
0.0
 40
1.871559633027523
  0
LWPOLYLINE
  5
3AD
330
1F
100
AcDbEntity
  8
0
 62
     4
100
AcDbPolyline
 90
        4
 70
     1
 43
0.0
 10
122.6666940909803
 20
117.4355331480592
 10
123.1519451529923
 20
117.968515191068
 10
120.5976287482873
 20
120.2940808726071
 10
120.1123776862753
 20
119.7610988295983
  0
LWPOLYLINE
  5
3AE
330
1F
100
AcDbEntity
  8
0
 62
     4
100
AcDbPolyline
 90
        4
 70
     1
 43
0.0
 10
124.1821614196338
 20
122.5786831571222
 10
124.1821614196338
 20
115.0924446250122
 10
129.2821614196337
 20
115.0924446250122
 10
129.2821614196338
 20
122.5786831571222
  0
CIRCLE
  5
3AF
330
1F
100
AcDbEntity
  8
0
 62
     4
100
AcDbCircle
 10
126.7321614196337
 20
118.8648070103331
 30
0.0
 40
1.871559633027523
  0
LWPOLYLINE
  5
3B0
330
1F
100
AcDbEntity
  8
0
 62
     4
100
AcDbPolyline
 90
        4
 70
     1
 43
0.0
 10
127.7666940909803
 20
117.4355331480592
 10
128.2519451529922
 20
117.968515191068
 10
125.6976287482872
 20
120.2940808726071
 10
125.2123776862753
 20
119.7610988295983
  0
LWPOLYLINE
  5
3B1
330
1F
100
AcDbEntity
  8
0
 62
     4
100
AcDbPolyline
 90
        4
 70
     1
 43
0.0
 10
129.2821614196338
 20
122.5786831571222
 10
129.2821614196337
 20
115.0924446250122
 10
134.3821614196338
 20
115.0924446250122
 10
134.3821614196338
 20
122.5786831571222
  0
CIRCLE
  5
3B2
330
1F
100
AcDbEntity
  8
0
 62
     4
100
AcDbCircle
 10
131.8321614196337
 20
118.8648070103331
 30
0.0
 40
1.871559633027523
  0
LWPOLYLINE
  5
3B3
330
1F
100
AcDbEntity
  8
0
 62
     4
100
AcDbPolyline
 90
        4
 70
     1
 43
0.0
 10
132.8666940909802
 20
117.4355331480592
 10
133.3519451529924
 20
117.968515191068
 10
130.7976287482873
 20
120.2940808726071
 10
130.3123776862752
 20
119.7610988295983
  0
LWPOLYLINE
  5
3B4
330
1F
100
AcDbEntity
  8
0
 62
     4
100
AcDbPolyline
 90
        4
 70
     1
 43
0.0
 10
134.3821614196338
 20
122.5786831571222
 10
134.3821614196338
 20
115.0924446250122
 10
139.4821614196337
 20
115.0924446250122
 10
139.4821614196337
 20
122.5786831571222
  0
CIRCLE
  5
3B5
330
1F
100
AcDbEntity
  8
0
 62
     4
100
AcDbCircle
 10
136.9321614196338
 20
118.8648070103331
 30
0.0
 40
1.871559633027523
  0
LWPOLYLINE
  5
3B6
330
1F
100
AcDbEntity
  8
0
 62
     4
100
AcDbPolyline
 90
        4
 70
     1
 43
0.0
 10
137.9666940909804
 20
117.4355331480592
 10
138.4519451529924
 20
117.968515191068
 10
135.8976287482872
 20
120.2940808726071
 10
135.4123776862752
 20
119.7610988295983
  0
LWPOLYLINE
  5
3B7
330
1F
100
AcDbEntity
  8
0
 62
     4
100
AcDbPolyline
 90
        4
 70
     1
 43
0.0
 10
139.4821614196337
 20
122.5786831571222
 10
139.4821614196337
 20
115.0924446250122
 10
144.5821614196337
 20
115.0924446250122
 10
144.5821614196337
 20
122.5786831571222
  0
CIRCLE
  5
3B8
330
1F
100
AcDbEntity
  8
0
 62
     4
100
AcDbCircle
 10
142.0321614196338
 20
118.8648070103331
 30
0.0
 40
1.871559633027523
  0
LWPOLYLINE
  5
3B9
330
1F
100
AcDbEntity
  8
0
 62
     4
100
AcDbPolyline
 90
        4
 70
     1
 43
0.0
 10
143.0666940909803
 20
117.4355331480592
 10
143.5519451529923
 20
117.968515191068
 10
140.9976287482873
 20
120.2940808726071
 10
140.5123776862752
 20
119.7610988295983
  0
LWPOLYLINE
  5
3BA
330
1F
100
AcDbEntity
  8
0
 62
     4
100
AcDbPolyline
 90
        4
 70
     1
 43
0.0
 10
144.5821614196337
 20
122.5786831571222
 10
144.5821614196337
 20
115.0924446250122
 10
149.6821614196338
 20
115.0924446250122
 10
149.6821614196338
 20
122.5786831571222
  0
CIRCLE
  5
3BB
330
1F
100
AcDbEntity
  8
0
 62
     4
100
AcDbCircle
 10
147.1321614196338
 20
118.8648070103331
 30
0.0
 40
1.871559633027523
  0
LWPOLYLINE
  5
3BC
330
1F
100
AcDbEntity
  8
0
 62
     4
100
AcDbPolyline
 90
        4
 70
     1
 43
0.0
 10
148.1666940909803
 20
117.4355331480592
 10
148.6519451529923
 20
117.968515191068
 10
146.0976287482873
 20
120.2940808726071
 10
145.6123776862753
 20
119.7610988295983
  0
LWPOLYLINE
  5
3BD
330
1F
100
AcDbEntity
  8
0
 62
     4
100
AcDbPolyline
 90
        4
 70
     1
 43
0.0
 10
149.6821614196338
 20
122.5786831571222
 10
149.6821614196338
 20
115.0924446250122
 10
154.7821614196338
 20
115.0924446250122
 10
154.7821614196338
 20
122.5786831571222
  0
CIRCLE
  5
3BE
330
1F
100
AcDbEntity
  8
0
 62
     4
100
AcDbCircle
 10
152.2321614196337
 20
118.8648070103331
 30
0.0
 40
1.871559633027523
  0
LWPOLYLINE
  5
3BF
330
1F
100
AcDbEntity
  8
0
 62
     4
100
AcDbPolyline
 90
        4
 70
     1
 43
0.0
 10
153.2666940909802
 20
117.4355331480592
 10
153.7519451529925
 20
117.968515191068
 10
151.1976287482873
 20
120.2940808726071
 10
150.7123776862752
 20
119.7610988295983
  0
LWPOLYLINE
  5
3C0
330
1F
100
AcDbEntity
  8
0
 62
     4
100
AcDbPolyline
 90
        4
 70
     1
 43
0.0
 10
154.7821614196338
 20
122.5786831571222
 10
154.7821614196338
 20
115.0924446250122
 10
159.8821614196338
 20
115.0924446250122
 10
159.8821614196338
 20
122.5786831571222
  0
CIRCLE
  5
3C1
330
1F
100
AcDbEntity
  8
0
 62
     4
100
AcDbCircle
 10
157.3321614196337
 20
118.8648070103331
 30
0.0
 40
1.871559633027523
  0
LWPOLYLINE
  5
3C2
330
1F
100
AcDbEntity
  8
0
 62
     4
100
AcDbPolyline
 90
        4
 70
     1
 43
0.0
 10
158.3666940909802
 20
117.4355331480592
 10
158.8519451529924
 20
117.968515191068
 10
156.2976287482872
 20
120.2940808726071
 10
155.8123776862752
 20
119.7610988295983
  0
LWPOLYLINE
  5
3C3
330
1F
100
AcDbEntity
  8
0
 62
     4
100
AcDbPolyline
 90
        4
 70
     1
 43
0.0
 10
159.8821614196338
 20
122.5786831571222
 10
159.8821614196338
 20
115.0924446250122
 10
164.9821614196337
 20
115.0924446250122
 10
164.9821614196337
 20
122.5786831571222
  0
CIRCLE
  5
3C4
330
1F
100
AcDbEntity
  8
0
 62
     4
100
AcDbCircle
 10
162.4321614196338
 20
118.8648070103331
 30
0.0
 40
1.871559633027523
  0
LWPOLYLINE
  5
3C5
330
1F
100
AcDbEntity
  8
0
 62
     4
100
AcDbPolyline
 90
        4
 70
     1
 43
0.0
 10
163.4666940909804
 20
117.4355331480592
 10
163.9519451529924
 20
117.968515191068
 10
161.3976287482872
 20
120.2940808726071
 10
160.9123776862753
 20
119.7610988295983
  0
LWPOLYLINE
  5
3C6
330
1F
100
AcDbEntity
  8
0
 62
     4
100
AcDbPolyline
 90
        4
 70
     1
 43
0.0
 10
164.9821614196337
 20
122.5786831571222
 10
164.9821614196337
 20
115.0924446250122
 10
170.0821614196337
 20
115.0924446250122
 10
170.0821614196337
 20
122.5786831571222
  0
CIRCLE
  5
3C7
330
1F
100
AcDbEntity
  8
0
 62
     4
100
AcDbCircle
 10
167.5321614196338
 20
118.8648070103331
 30
0.0
 40
1.871559633027523
  0
LWPOLYLINE
  5
3C8
330
1F
100
AcDbEntity
  8
0
 62
     4
100
AcDbPolyline
 90
        4
 70
     1
 43
0.0
 10
168.5666940909803
 20
117.4355331480592
 10
169.0519451529923
 20
117.968515191068
 10
166.4976287482873
 20
120.2940808726071
 10
166.0123776862752
 20
119.7610988295983
  0
LWPOLYLINE
  5
3C9
330
1F
100
AcDbEntity
  8
0
 62
     4
100
AcDbPolyline
 90
        4
 70
     1
 43
0.0
 10
170.0821614196337
 20
122.5786831571222
 10
170.0821614196337
 20
115.0924446250122
 10
175.1821614196338
 20
115.0924446250122
 10
175.1821614196338
 20
122.5786831571222
  0
CIRCLE
  5
3CA
330
1F
100
AcDbEntity
  8
0
 62
     4
100
AcDbCircle
 10
172.6321614196338
 20
118.8648070103331
 30
0.0
 40
1.871559633027523
  0
LWPOLYLINE
  5
3CB
330
1F
100
AcDbEntity
  8
0
 62
     4
100
AcDbPolyline
 90
        4
 70
     1
 43
0.0
 10
173.6666940909803
 20
117.4355331480592
 10
174.1519451529923
 20
117.968515191068
 10
171.5976287482873
 20
120.2940808726071
 10
171.1123776862753
 20
119.7610988295983
  0
LWPOLYLINE
  5
3CC
330
1F
100
AcDbEntity
  8
0
 62
     4
100
AcDbPolyline
 90
        4
 70
     1
 43
0.0
 10
175.1821614196338
 20
122.5786831571222
 10
175.1821614196338
 20
115.0924446250122
 10
180.2821614196338
 20
115.0924446250122
 10
180.2821614196338
 20
122.5786831571222
  0
CIRCLE
  5
3CD
330
1F
100
AcDbEntity
  8
0
 62
     4
100
AcDbCircle
 10
177.7321614196337
 20
118.8648070103331
 30
0.0
 40
1.871559633027523
  0
LWPOLYLINE
  5
3CE
330
1F
100
AcDbEntity
  8
0
 62
     4
100
AcDbPolyline
 90
        4
 70
     1
 43
0.0
 10
178.7666940909802
 20
117.4355331480592
 10
179.2519451529924
 20
117.968515191068
 10
176.6976287482874
 20
120.2940808726071
 10
176.2123776862752
 20
119.7610988295983
  0
LWPOLYLINE
  5
3CF
330
1F
100
AcDbEntity
  8
0
 62
     4
100
AcDbPolyline
 90
        4
 70
     1
 43
0.0
 10
78.28216141963392
 20
122.5786831571222
 10
78.28216141963392
 20
115.0924446250122
 10
83.38216141963384
 20
115.0924446250122
 10
83.38216141963384
 20
122.5786831571222
  0
CIRCLE
  5
3D0
330
1F
100
AcDbEntity
  8
0
 62
     4
100
AcDbCircle
 10
80.83216141963388
 20
118.8648070103331
 30
0.0
 40
1.871559633027523
  0
LWPOLYLINE
  5
3D1
330
1F
100
AcDbEntity
  8
0
 62
     4
100
AcDbPolyline
 90
        4
 70
     1
 43
0.0
 10
81.86669409098035
 20
117.4355331480592
 10
82.35194515299239
 20
117.968515191068
 10
79.7976287482874
 20
120.2940808726071
 10
79.31237768627537
 20
119.7610988295983
  0
LWPOLYLINE
  5
3D2
330
1F
100
AcDbEntity
  8
0
 62
     4
100
AcDbPolyline
 90
        4
 70
     1
 43
0.0
 10
83.38216141963384
 20
122.5786831571222
 10
83.38216141963384
 20
115.0924446250122
 10
88.48216141963375
 20
115.0924446250122
 10
88.48216141963375
 20
122.5786831571222
  0
CIRCLE
  5
3D3
330
1F
100
AcDbEntity
  8
0
 62
     4
100
AcDbCircle
 10
85.93216141963379
 20
118.8648070103331
 30
0.0
 40
1.871559633027523
  0
LWPOLYLINE
  5
3D4
330
1F
100
AcDbEntity
  8
0
 62
     4
100
AcDbPolyline
 90
        4
 70
     1
 43
0.0
 10
86.96669409098038
 20
117.4355331480592
 10
87.4519451529923
 20
117.968515191068
 10
84.89762874828741
 20
120.2940808726071
 10
84.41237768627528
 20
119.7610988295983
  0
LWPOLYLINE
  5
3D5
330
1F
100
AcDbEntity
  8
0
 62
     4
100
AcDbPolyline
 90
        4
 70
     1
 43
0.0
 10
88.48216141963375
 20
122.5786831571222
 10
88.48216141963375
 20
115.0924446250122
 10
93.58216141963387
 20
115.0924446250119
 10
93.58216141963387
 20
122.5786831571222
  0
CIRCLE
  5
3D6
330
1F
100
AcDbEntity
  8
0
 62
     4
100
AcDbCircle
 10
91.03216141963391
 20
118.8648070103331
 30
0.0
 40
1.871559633027523
  0
LWPOLYLINE
  5
3D7
330
1F
100
AcDbEntity
  8
0
 62
     4
100
AcDbPolyline
 90
        4
 70
     1
 43
0.0
 10
92.06669409098029
 20
117.4355331480592
 10
92.55194515299242
 20
117.968515191068
 10
89.99762874828732
 20
120.2940808726071
 10
89.5123776862753
 20
119.7610988295983
  0
LWPOLYLINE
  5
3D8
330
1F
100
AcDbEntity
  8
0
 62
     4
100
AcDbPolyline
 90
        4
 70
     1
 43
0.0
 10
93.58216141963387
 20
122.5786831571222
 10
93.58216141963387
 20
115.0924446250119
 10
98.6821614196338
 20
115.0924446250119
 10
98.6821614196338
 20
122.5786831571222
  0
CIRCLE
  5
3D9
330
1F
100
AcDbEntity
  8
0
 62
     4
100
AcDbCircle
 10
96.13216141963384
 20
118.8648070103331
 30
0.0
 40
1.871559633027523
  0
LWPOLYLINE
  5
3DA
330
1F
100
AcDbEntity
  8
0
 62
     4
100
AcDbPolyline
 90
        4
 70
     1
 43
0.0
 10
97.1666940909802
 20
117.4355331480592
 10
97.65194515299246
 20
117.968515191068
 10
95.09762874828746
 20
120.2940808726071
 10
94.61237768627531
 20
119.7610988295983
  0
LWPOLYLINE
  5
3DB
330
1F
100
AcDbEntity
  8
0
 62
     4
100
AcDbPolyline
 90
        2
 70
     0
 43
0.0
 10
98.6821614196338
 20
122.5786831571222
 10
98.6821614196338
 20
115.0924446250119
  0
LWPOLYLINE
  5
3DC
330
1F
100
AcDbEntity
  8
0
100
AcDbPolyline
 90
        4
 70
     1
 43
0.0
 10
76.98791267351274
 20
137.8000134323515
 10
76.98791267351274
 20
140.8000134323515
 10
79.98791267351274
 20
140.8000134323515
 10
79.98791267351274
 20
137.8000134323515
  0
LWPOLYLINE
  5
3DD
330
1F
100
AcDbEntity
  8
0
100
AcDbPolyline
 90
        4
 70
     0
 43
0.0
 10
79.98791267351274
 20
137.8000134323515
 10
79.98791267351274
 20
140.8000134323515
 10
82.98791267351274
 20
140.8000134323515
 10
82.98791267351274
 20
137.8000134323515
  0
LWPOLYLINE
  5
3DE
330
1F
100
AcDbEntity
  8
0
100
AcDbPolyline
 90
        4
 70
     1
 43
0.0
 10
82.98791267351274
 20
137.8000134323515
 10
82.98791267351274
 20
140.8000134323515
 10
85.98791267351273
 20
140.8000134323515
 10
85.98791267351273
 20
137.8000134323515
  0
LWPOLYLINE
  5
3DF
330
1F
100
AcDbEntity
  8
0
100
AcDbPolyline
 90
        4
 70
     0
 43
0.0
 10
85.98791267351273
 20
137.8000134323515
 10
85.98791267351273
 20
140.8000134323515
 10
88.98791267351274
 20
140.8000134323515
 10
88.98791267351274
 20
137.8000134323515
  0
LWPOLYLINE
  5
3E0
330
1F
100
AcDbEntity
  8
0
100
AcDbPolyline
 90
        4
 70
     1
 43
0.0
 10
88.98791267351274
 20
137.8000134323515
 10
88.98791267351274
 20
140.8000134323515
 10
91.98791267351273
 20
140.8000134323515
 10
91.98791267351273
 20
137.8000134323515
  0
LWPOLYLINE
  5
3E1
330
1F
100
AcDbEntity
  8
0
100
AcDbPolyline
 90
        4
 70
     0
 43
0.0
 10
91.98791267351273
 20
137.8000134323515
 10
91.98791267351273
 20
140.8000134323515
 10
94.98791267351263
 20
140.8000134323515
 10
94.98791267351263
 20
137.8000134323515
  0
LWPOLYLINE
  5
3E2
330
1F
100
AcDbEntity
  8
0
100
AcDbPolyline
 90
        4
 70
     1
 43
0.0
 10
94.98791267351263
 20
137.8000134323515
 10
94.98791267351263
 20
140.8000134323515
 10
97.98791267351262
 20
140.8000134323515
 10
97.98791267351262
 20
137.8000134323515
  0
LWPOLYLINE
  5
3E3
330
1F
100
AcDbEntity
  8
0
100
AcDbPolyline
 90
        4
 70
     0
 43
0.0
 10
97.98791267351262
 20
137.8000134323515
 10
97.98791267351262
 20
140.8000134323515
 10
100.9879126735126
 20
140.8000134323515
 10
100.9879126735126
 20
137.8000134323515
  0
LWPOLYLINE
  5
3E4
330
1F
100
AcDbEntity
  8
0
100
AcDbPolyline
 90
        4
 70
     1
 43
0.0
 10
100.9879126735126
 20
137.8000134323515
 10
100.9879126735126
 20
140.8000134323515
 10
103.9879126735126
 20
140.8000134323515
 10
103.9879126735126
 20
137.8000134323515
  0
LWPOLYLINE
  5
3E5
330
1F
100
AcDbEntity
  8
0
100
AcDbPolyline
 90
        4
 70
     0
 43
0.0
 10
103.9879126735126
 20
137.8000134323515
 10
103.9879126735126
 20
140.8000134323515
 10
106.9879126735126
 20
140.8000134323515
 10
106.9879126735126
 20
137.8000134323515
  0
LWPOLYLINE
  5
3E6
330
1F
100
AcDbEntity
  8
0
100
AcDbPolyline
 90
        4
 70
     1
 43
0.0
 10
106.9879126735126
 20
137.8000134323515
 10
106.9879126735126
 20
140.8000134323515
 10
109.9879126735126
 20
140.8000134323515
 10
109.9879126735126
 20
137.8000134323515
  0
LWPOLYLINE
  5
3E7
330
1F
100
AcDbEntity
  8
0
100
AcDbPolyline
 90
        4
 70
     0
 43
0.0
 10
109.9879126735126
 20
137.8000134323515
 10
109.9879126735126
 20
140.8000134323515
 10
112.9879126735126
 20
140.8000134323515
 10
112.9879126735126
 20
137.8000134323515
  0
LWPOLYLINE
  5
3E8
330
1F
100
AcDbEntity
  8
0
100
AcDbPolyline
 90
        4
 70
     1
 43
0.0
 10
112.9879126735126
 20
137.8000134323515
 10
112.9879126735126
 20
140.8000134323515
 10
115.9879126735126
 20
140.8000134323515
 10
115.9879126735126
 20
137.8000134323515
  0
LWPOLYLINE
  5
3E9
330
1F
100
AcDbEntity
  8
0
100
AcDbPolyline
 90
        4
 70
     0
 43
0.0
 10
115.9879126735126
 20
137.8000134323515
 10
115.9879126735126
 20
140.8000134323515
 10
118.9879126735126
 20
140.8000134323515
 10
118.9879126735126
 20
137.8000134323515
  0
LWPOLYLINE
  5
3EA
330
1F
100
AcDbEntity
  8
0
100
AcDbPolyline
 90
        4
 70
     1
 43
0.0
 10
118.9879126735126
 20
137.8000134323515
 10
118.9879126735126
 20
140.8000134323515
 10
121.9879126735126
 20
140.8000134323515
 10
121.9879126735126
 20
137.8000134323515
  0
LWPOLYLINE
  5
3EB
330
1F
100
AcDbEntity
  8
0
100
AcDbPolyline
 90
        4
 70
     0
 43
0.0
 10
121.9879126735126
 20
137.8000134323515
 10
121.9879126735126
 20
140.8000134323515
 10
124.9879126735126
 20
140.8000134323515
 10
124.9879126735126
 20
137.8000134323515
  0
LWPOLYLINE
  5
3EC
330
1F
100
AcDbEntity
  8
0
100
AcDbPolyline
 90
        4
 70
     1
 43
0.0
 10
124.9879126735126
 20
137.8000134323515
 10
124.9879126735126
 20
140.8000134323515
 10
127.9879126735126
 20
140.8000134323515
 10
127.9879126735126
 20
137.8000134323515
  0
LWPOLYLINE
  5
3ED
330
1F
100
AcDbEntity
  8
0
100
AcDbPolyline
 90
        4
 70
     0
 43
0.0
 10
127.9879126735126
 20
137.8000134323515
 10
127.9879126735126
 20
140.8000134323515
 10
130.9879126735126
 20
140.8000134323515
 10
130.9879126735126
 20
137.8000134323515
  0
LWPOLYLINE
  5
3EE
330
1F
100
AcDbEntity
  8
0
100
AcDbPolyline
 90
        4
 70
     1
 43
0.0
 10
130.9879126735126
 20
137.8000134323515
 10
130.9879126735126
 20
140.8000134323515
 10
133.9879126735126
 20
140.8000134323515
 10
133.9879126735126
 20
137.8000134323515
  0
LWPOLYLINE
  5
3EF
330
1F
100
AcDbEntity
  8
0
100
AcDbPolyline
 90
        4
 70
     0
 43
0.0
 10
133.9879126735126
 20
137.8000134323515
 10
133.9879126735126
 20
140.8000134323515
 10
136.9879126735126
 20
140.8000134323515
 10
136.9879126735126
 20
137.8000134323515
  0
LWPOLYLINE
  5
3F0
330
1F
100
AcDbEntity
  8
0
100
AcDbPolyline
 90
        4
 70
     1
 43
0.0
 10
136.9879126735126
 20
137.8000134323515
 10
136.9879126735126
 20
140.8000134323515
 10
139.9879126735126
 20
140.8000134323515
 10
139.9879126735126
 20
137.8000134323515
  0
LWPOLYLINE
  5
3F1
330
1F
100
AcDbEntity
  8
0
100
AcDbPolyline
 90
        4
 70
     0
 43
0.0
 10
139.9879126735126
 20
137.8000134323515
 10
139.9879126735126
 20
140.8000134323515
 10
142.9879126735126
 20
140.8000134323515
 10
142.9879126735126
 20
137.8000134323515
  0
LWPOLYLINE
  5
3F2
330
1F
100
AcDbEntity
  8
0
100
AcDbPolyline
 90
        4
 70
     1
 43
0.0
 10
142.9879126735126
 20
137.8000134323515
 10
142.9879126735126
 20
140.8000134323515
 10
145.9879126735126
 20
140.8000134323515
 10
145.9879126735126
 20
137.8000134323515
  0
LWPOLYLINE
  5
3F3
330
1F
100
AcDbEntity
  8
0
100
AcDbPolyline
 90
        4
 70
     0
 43
0.0
 10
145.9879126735126
 20
137.8000134323515
 10
145.9879126735126
 20
140.8000134323515
 10
148.9879126735126
 20
140.8000134323515
 10
148.9879126735126
 20
137.8000134323515
  0
LWPOLYLINE
  5
3F4
330
1F
100
AcDbEntity
  8
0
100
AcDbPolyline
 90
        4
 70
     1
 43
0.0
 10
148.9879126735126
 20
137.8000134323515
 10
148.9879126735126
 20
140.8000134323515
 10
151.9879126735126
 20
140.8000134323515
 10
151.9879126735126
 20
137.8000134323515
  0
LWPOLYLINE
  5
3F5
330
1F
100
AcDbEntity
  8
0
100
AcDbPolyline
 90
        4
 70
     0
 43
0.0
 10
151.9879126735126
 20
137.8000134323515
 10
151.9879126735126
 20
140.8000134323515
 10
154.9879126735126
 20
140.8000134323515
 10
154.9879126735126
 20
137.8000134323515
  0
LWPOLYLINE
  5
3F6
330
1F
100
AcDbEntity
  8
0
100
AcDbPolyline
 90
        4
 70
     1
 43
0.0
 10
154.9879126735126
 20
137.8000134323515
 10
154.9879126735126
 20
140.8000134323515
 10
157.9879126735126
 20
140.8000134323515
 10
157.9879126735126
 20
137.8000134323515
  0
LWPOLYLINE
  5
3F7
330
1F
100
AcDbEntity
  8
0
100
AcDbPolyline
 90
        4
 70
     0
 43
0.0
 10
157.9879126735126
 20
137.8000134323515
 10
157.9879126735126
 20
140.8000134323515
 10
160.9879126735126
 20
140.8000134323515
 10
160.9879126735126
 20
137.8000134323515
  0
LWPOLYLINE
  5
3F8
330
1F
100
AcDbEntity
  8
0
100
AcDbPolyline
 90
        4
 70
     1
 43
0.0
 10
160.9879126735126
 20
137.8000134323515
 10
160.9879126735126
 20
140.8000134323515
 10
163.9879126735126
 20
140.8000134323515
 10
163.9879126735126
 20
137.8000134323515
  0
LWPOLYLINE
  5
3F9
330
1F
100
AcDbEntity
  8
0
100
AcDbPolyline
 90
        4
 70
     0
 43
0.0
 10
163.9879126735126
 20
137.8000134323515
 10
163.9879126735126
 20
140.8000134323515
 10
166.9879126735126
 20
140.8000134323515
 10
166.9879126735126
 20
137.8000134323515
  0
LWPOLYLINE
  5
3FA
330
1F
100
AcDbEntity
  8
0
100
AcDbPolyline
 90
        4
 70
     1
 43
0.0
 10
166.9879126735126
 20
137.8000134323515
 10
166.9879126735126
 20
140.8000134323515
 10
169.9879126735126
 20
140.8000134323515
 10
169.9879126735126
 20
137.8000134323515
  0
LWPOLYLINE
  5
3FB
330
1F
100
AcDbEntity
  8
0
100
AcDbPolyline
 90
        4
 70
     0
 43
0.0
 10
169.9879126735126
 20
137.8000134323515
 10
169.9879126735126
 20
140.8000134323515
 10
172.9879126735126
 20
140.8000134323515
 10
172.9879126735126
 20
137.8000134323515
  0
LWPOLYLINE
  5
3FC
330
1F
100
AcDbEntity
  8
0
100
AcDbPolyline
 90
        4
 70
     1
 43
0.0
 10
172.9879126735126
 20
137.8000134323515
 10
172.9879126735126
 20
140.8000134323515
 10
175.9879126735126
 20
140.8000134323515
 10
175.9879126735126
 20
137.8000134323515
  0
LWPOLYLINE
  5
3FD
330
1F
100
AcDbEntity
  8
0
100
AcDbPolyline
 90
        4
 70
     0
 43
0.0
 10
175.9879126735126
 20
137.8000134323515
 10
175.9879126735126
 20
140.8000134323515
 10
178.9879126735126
 20
140.8000134323515
 10
178.9879126735126
 20
137.8000134323515
  0
LWPOLYLINE
  5
3FE
330
1F
100
AcDbEntity
  8
0
100
AcDbPolyline
 90
        4
 70
     1
 43
0.0
 10
178.9879126735126
 20
137.8000134323515
 10
178.9879126735126
 20
140.8000134323515
 10
181.9879126735126
 20
140.8000134323515
 10
181.9879126735126
 20
137.8000134323515
  0
LINE
  5
3FF
330
1F
100
AcDbEntity
  8
0
100
AcDbLine
 10
78.82591488208802
 20
140.8000134323515
 30
0.0
 11
70.53216141963392
 21
140.8000134323515
 31
0.0
  0
LINE
  5
400
330
1F
100
AcDbEntity
  8
0
100
AcDbLine
 10
181.9879126735126
 20
140.8000134323515
 30
0.0
 11
189.0321614196339
 21
140.8000134323515
 31
0.0
  0
LWPOLYLINE
  5
401
330
1F
100
AcDbEntity
  8
0
100
AcDbPolyline
 90
        2
 70
     0
 43
0.0
 10
181.9879126735126
 20
217.8000134323516
 10
178.9879126735126
 20
217.8000134323516
  0
LWPOLYLINE
  5
402
330
1F
100
AcDbEntity
  8
0
100
AcDbPolyline
 90
        2
 70
     0
 43
0.0
 10
175.9879126735126
 20
217.8000134323516
 10
172.9879126735127
 20
217.8000134323516
  0
LWPOLYLINE
  5
403
330
1F
100
AcDbEntity
  8
0
100
AcDbPolyline
 90
        2
 70
     0
 43
0.0
 10
169.9879126735126
 20
217.8000134323516
 10
166.9879126735126
 20
217.8000134323516
  0
LWPOLYLINE
  5
404
330
1F
100
AcDbEntity
  8
0
100
AcDbPolyline
 90
        2
 70
     0
 43
0.0
 10
163.9879126735126
 20
217.8000134323516
 10
160.9879126735126
 20
217.8000134323516
  0
LWPOLYLINE
  5
405
330
1F
100
AcDbEntity
  8
0
100
AcDbPolyline
 90
        2
 70
     0
 43
0.0
 10
157.9879126735126
 20
217.8000134323516
 10
154.9879126735126
 20
217.8000134323516
  0
LWPOLYLINE
  5
406
330
1F
100
AcDbEntity
  8
0
100
AcDbPolyline
 90
        2
 70
     0
 43
0.0
 10
151.9879126735126
 20
217.8000134323516
 10
148.9879126735126
 20
217.8000134323516
  0
LWPOLYLINE
  5
407
330
1F
100
AcDbEntity
  8
0
100
AcDbPolyline
 90
        2
 70
     0
 43
0.0
 10
145.9879126735126
 20
217.8000134323516
 10
142.9879126735126
 20
217.8000134323516
  0
LWPOLYLINE
  5
408
330
1F
100
AcDbEntity
  8
0
100
AcDbPolyline
 90
        2
 70
     0
 43
0.0
 10
139.9879126735126
 20
217.8000134323516
 10
136.9879126735126
 20
217.8000134323516
  0
LWPOLYLINE
  5
409
330
1F
100
AcDbEntity
  8
0
100
AcDbPolyline
 90
        2
 70
     0
 43
0.0
 10
133.9879126735126
 20
217.8000134323516
 10
130.9879126735126
 20
217.8000134323516
  0
LWPOLYLINE
  5
40A
330
1F
100
AcDbEntity
  8
0
100
AcDbPolyline
 90
        2
 70
     0
 43
0.0
 10
127.9879126735126
 20
217.8000134323516
 10
124.9879126735126
 20
217.8000134323516
  0
LWPOLYLINE
  5
40B
330
1F
100
AcDbEntity
  8
0
100
AcDbPolyline
 90
        2
 70
     0
 43
0.0
 10
121.9879126735126
 20
217.8000134323516
 10
118.9879126735126
 20
217.8000134323516
  0
LWPOLYLINE
  5
40C
330
1F
100
AcDbEntity
  8
0
100
AcDbPolyline
 90
        2
 70
     0
 43
0.0
 10
115.9879126735126
 20
217.8000134323516
 10
112.9879126735126
 20
217.8000134323516
  0
LWPOLYLINE
  5
40D
330
1F
100
AcDbEntity
  8
0
100
AcDbPolyline
 90
        2
 70
     0
 43
0.0
 10
109.9879126735126
 20
217.8000134323516
 10
106.9879126735126
 20
217.8000134323516
  0
LWPOLYLINE
  5
40E
330
1F
100
AcDbEntity
  8
0
100
AcDbPolyline
 90
        2
 70
     0
 43
0.0
 10
103.9879126735126
 20
217.8000134323516
 10
100.9879126735126
 20
217.8000134323516
  0
LWPOLYLINE
  5
40F
330
1F
100
AcDbEntity
  8
0
100
AcDbPolyline
 90
        2
 70
     0
 43
0.0
 10
97.98791267351262
 20
217.8000134323516
 10
94.98791267351263
 20
217.8000134323516
  0
LWPOLYLINE
  5
410
330
1F
100
AcDbEntity
  8
0
100
AcDbPolyline
 90
        2
 70
     0
 43
0.0
 10
91.98791267351273
 20
217.8000134323516
 10
88.98791267351274
 20
217.8000134323516
  0
LWPOLYLINE
  5
411
330
1F
100
AcDbEntity
  8
0
100
AcDbPolyline
 90
        2
 70
     0
 43
0.0
 10
85.98791267351273
 20
217.8000134323516
 10
82.98791267351274
 20
217.8000134323516
  0
LWPOLYLINE
  5
412
330
1F
100
AcDbEntity
  8
0
100
AcDbPolyline
 90
        2
 70
     0
 43
0.0
 10
79.98791267351274
 20
217.8000134323516
 10
76.98791267351274
 20
217.8000134323516
  0
LWPOLYLINE
  5
413
330
1F
100
AcDbEntity
  8
0
100
AcDbPolyline
 90
        4
 70
     1
 43
0.0
 10
76.98791267351274
 20
217.8000134323516
 10
76.98791267351274
 20
214.8000134323515
 10
79.98791267351274
 20
214.8000134323515
 10
79.98791267351274
 20
217.8000134323516
  0
LWPOLYLINE
  5
414
330
1F
100
AcDbEntity
  8
0
100
AcDbPolyline
 90
        4
 70
     0
 43
0.0
 10
79.98791267351274
 20
217.8000134323516
 10
79.98791267351274
 20
214.8000134323515
 10
82.98791267351274
 20
214.8000134323515
 10
82.98791267351274
 20
217.8000134323516
  0
LWPOLYLINE
  5
415
330
1F
100
AcDbEntity
  8
0
100
AcDbPolyline
 90
        4
 70
     1
 43
0.0
 10
82.98791267351274
 20
217.8000134323516
 10
82.98791267351274
 20
214.8000134323515
 10
85.98791267351273
 20
214.8000134323515
 10
85.98791267351273
 20
217.8000134323516
  0
LWPOLYLINE
  5
416
330
1F
100
AcDbEntity
  8
0
100
AcDbPolyline
 90
        4
 70
     0
 43
0.0
 10
85.98791267351273
 20
217.8000134323516
 10
85.98791267351273
 20
214.8000134323515
 10
88.98791267351274
 20
214.8000134323515
 10
88.98791267351274
 20
217.8000134323516
  0
LWPOLYLINE
  5
417
330
1F
100
AcDbEntity
  8
0
100
AcDbPolyline
 90
        4
 70
     1
 43
0.0
 10
88.98791267351274
 20
217.8000134323516
 10
88.98791267351274
 20
214.8000134323515
 10
91.98791267351273
 20
214.8000134323515
 10
91.98791267351273
 20
217.8000134323516
  0
LWPOLYLINE
  5
418
330
1F
100
AcDbEntity
  8
0
100
AcDbPolyline
 90
        4
 70
     0
 43
0.0
 10
91.98791267351273
 20
217.8000134323516
 10
91.98791267351273
 20
214.8000134323515
 10
94.98791267351263
 20
214.8000134323515
 10
94.98791267351263
 20
217.8000134323516
  0
LWPOLYLINE
  5
419
330
1F
100
AcDbEntity
  8
0
100
AcDbPolyline
 90
        4
 70
     1
 43
0.0
 10
94.98791267351263
 20
217.8000134323516
 10
94.98791267351263
 20
214.8000134323515
 10
97.98791267351262
 20
214.8000134323515
 10
97.98791267351262
 20
217.8000134323516
  0
LWPOLYLINE
  5
41A
330
1F
100
AcDbEntity
  8
0
100
AcDbPolyline
 90
        4
 70
     0
 43
0.0
 10
97.98791267351262
 20
217.8000134323516
 10
97.98791267351262
 20
214.8000134323515
 10
100.9879126735126
 20
214.8000134323515
 10
100.9879126735126
 20
217.8000134323516
  0
LWPOLYLINE
  5
41B
330
1F
100
AcDbEntity
  8
0
100
AcDbPolyline
 90
        4
 70
     1
 43
0.0
 10
100.9879126735126
 20
217.8000134323516
 10
100.9879126735126
 20
214.8000134323515
 10
103.9879126735126
 20
214.8000134323515
 10
103.9879126735126
 20
217.8000134323516
  0
LWPOLYLINE
  5
41C
330
1F
100
AcDbEntity
  8
0
100
AcDbPolyline
 90
        4
 70
     0
 43
0.0
 10
103.9879126735126
 20
217.8000134323516
 10
103.9879126735126
 20
214.8000134323515
 10
106.9879126735126
 20
214.8000134323515
 10
106.9879126735126
 20
217.8000134323516
  0
LWPOLYLINE
  5
41D
330
1F
100
AcDbEntity
  8
0
100
AcDbPolyline
 90
        4
 70
     1
 43
0.0
 10
106.9879126735126
 20
217.8000134323516
 10
106.9879126735126
 20
214.8000134323515
 10
109.9879126735126
 20
214.8000134323515
 10
109.9879126735126
 20
217.8000134323516
  0
LWPOLYLINE
  5
41E
330
1F
100
AcDbEntity
  8
0
100
AcDbPolyline
 90
        4
 70
     0
 43
0.0
 10
109.9879126735126
 20
217.8000134323516
 10
109.9879126735126
 20
214.8000134323515
 10
112.9879126735126
 20
214.8000134323515
 10
112.9879126735126
 20
217.8000134323516
  0
LWPOLYLINE
  5
41F
330
1F
100
AcDbEntity
  8
0
100
AcDbPolyline
 90
        4
 70
     1
 43
0.0
 10
112.9879126735126
 20
217.8000134323516
 10
112.9879126735126
 20
214.8000134323515
 10
115.9879126735126
 20
214.8000134323515
 10
115.9879126735126
 20
217.8000134323516
  0
LWPOLYLINE
  5
420
330
1F
100
AcDbEntity
  8
0
100
AcDbPolyline
 90
        4
 70
     0
 43
0.0
 10
115.9879126735126
 20
217.8000134323516
 10
115.9879126735126
 20
214.8000134323515
 10
118.9879126735126
 20
214.8000134323515
 10
118.9879126735126
 20
217.8000134323516
  0
LWPOLYLINE
  5
421
330
1F
100
AcDbEntity
  8
0
100
AcDbPolyline
 90
        4
 70
     1
 43
0.0
 10
118.9879126735126
 20
217.8000134323516
 10
118.9879126735126
 20
214.8000134323515
 10
121.9879126735126
 20
214.8000134323515
 10
121.9879126735126
 20
217.8000134323516
  0
LWPOLYLINE
  5
422
330
1F
100
AcDbEntity
  8
0
100
AcDbPolyline
 90
        4
 70
     0
 43
0.0
 10
121.9879126735126
 20
217.8000134323516
 10
121.9879126735126
 20
214.8000134323515
 10
124.9879126735126
 20
214.8000134323515
 10
124.9879126735126
 20
217.8000134323516
  0
LWPOLYLINE
  5
423
330
1F
100
AcDbEntity
  8
0
100
AcDbPolyline
 90
        4
 70
     1
 43
0.0
 10
124.9879126735126
 20
217.8000134323516
 10
124.9879126735126
 20
214.8000134323515
 10
127.9879126735126
 20
214.8000134323515
 10
127.9879126735126
 20
217.8000134323516
  0
LWPOLYLINE
  5
424
330
1F
100
AcDbEntity
  8
0
100
AcDbPolyline
 90
        4
 70
     0
 43
0.0
 10
127.9879126735126
 20
217.8000134323516
 10
127.9879126735126
 20
214.8000134323515
 10
130.9879126735126
 20
214.8000134323515
 10
130.9879126735126
 20
217.8000134323516
  0
LWPOLYLINE
  5
425
330
1F
100
AcDbEntity
  8
0
100
AcDbPolyline
 90
        4
 70
     1
 43
0.0
 10
130.9879126735126
 20
217.8000134323516
 10
130.9879126735126
 20
214.8000134323515
 10
133.9879126735126
 20
214.8000134323515
 10
133.9879126735126
 20
217.8000134323516
  0
LWPOLYLINE
  5
426
330
1F
100
AcDbEntity
  8
0
100
AcDbPolyline
 90
        4
 70
     0
 43
0.0
 10
133.9879126735126
 20
217.8000134323516
 10
133.9879126735126
 20
214.8000134323515
 10
136.9879126735126
 20
214.8000134323515
 10
136.9879126735126
 20
217.8000134323516
  0
LWPOLYLINE
  5
427
330
1F
100
AcDbEntity
  8
0
100
AcDbPolyline
 90
        4
 70
     1
 43
0.0
 10
136.9879126735126
 20
217.8000134323516
 10
136.9879126735126
 20
214.8000134323515
 10
139.9879126735126
 20
214.8000134323515
 10
139.9879126735126
 20
217.8000134323516
  0
LWPOLYLINE
  5
428
330
1F
100
AcDbEntity
  8
0
100
AcDbPolyline
 90
        4
 70
     0
 43
0.0
 10
139.9879126735126
 20
217.8000134323516
 10
139.9879126735126
 20
214.8000134323515
 10
142.9879126735126
 20
214.8000134323515
 10
142.9879126735126
 20
217.8000134323516
  0
LWPOLYLINE
  5
429
330
1F
100
AcDbEntity
  8
0
100
AcDbPolyline
 90
        4
 70
     1
 43
0.0
 10
142.9879126735126
 20
217.8000134323516
 10
142.9879126735126
 20
214.8000134323515
 10
145.9879126735126
 20
214.8000134323515
 10
145.9879126735126
 20
217.8000134323516
  0
LWPOLYLINE
  5
42A
330
1F
100
AcDbEntity
  8
0
100
AcDbPolyline
 90
        4
 70
     0
 43
0.0
 10
145.9879126735126
 20
217.8000134323516
 10
145.9879126735126
 20
214.8000134323515
 10
148.9879126735126
 20
214.8000134323515
 10
148.9879126735126
 20
217.8000134323516
  0
LWPOLYLINE
  5
42B
330
1F
100
AcDbEntity
  8
0
100
AcDbPolyline
 90
        4
 70
     1
 43
0.0
 10
148.9879126735126
 20
217.8000134323516
 10
148.9879126735126
 20
214.8000134323515
 10
151.9879126735126
 20
214.8000134323515
 10
151.9879126735126
 20
217.8000134323516
  0
LWPOLYLINE
  5
42C
330
1F
100
AcDbEntity
  8
0
100
AcDbPolyline
 90
        4
 70
     0
 43
0.0
 10
151.9879126735126
 20
217.8000134323516
 10
151.9879126735126
 20
214.8000134323515
 10
154.9879126735126
 20
214.8000134323515
 10
154.9879126735126
 20
217.8000134323516
  0
LWPOLYLINE
  5
42D
330
1F
100
AcDbEntity
  8
0
100
AcDbPolyline
 90
        4
 70
     1
 43
0.0
 10
154.9879126735126
 20
217.8000134323516
 10
154.9879126735126
 20
214.8000134323515
 10
157.9879126735126
 20
214.8000134323515
 10
157.9879126735126
 20
217.8000134323516
  0
LWPOLYLINE
  5
42E
330
1F
100
AcDbEntity
  8
0
100
AcDbPolyline
 90
        4
 70
     0
 43
0.0
 10
157.9879126735126
 20
217.8000134323516
 10
157.9879126735126
 20
214.8000134323515
 10
160.9879126735126
 20
214.8000134323515
 10
160.9879126735126
 20
217.8000134323516
  0
LWPOLYLINE
  5
42F
330
1F
100
AcDbEntity
  8
0
100
AcDbPolyline
 90
        4
 70
     1
 43
0.0
 10
160.9879126735126
 20
217.8000134323516
 10
160.9879126735126
 20
214.8000134323515
 10
163.9879126735126
 20
214.8000134323515
 10
163.9879126735126
 20
217.8000134323516
  0
LWPOLYLINE
  5
430
330
1F
100
AcDbEntity
  8
0
100
AcDbPolyline
 90
        4
 70
     0
 43
0.0
 10
163.9879126735126
 20
217.8000134323516
 10
163.9879126735126
 20
214.8000134323515
 10
166.9879126735126
 20
214.8000134323515
 10
166.9879126735126
 20
217.8000134323516
  0
LWPOLYLINE
  5
431
330
1F
100
AcDbEntity
  8
0
100
AcDbPolyline
 90
        4
 70
     1
 43
0.0
 10
166.9879126735126
 20
217.8000134323516
 10
166.9879126735126
 20
214.8000134323515
 10
169.9879126735126
 20
214.8000134323515
 10
169.9879126735126
 20
217.8000134323516
  0
LWPOLYLINE
  5
432
330
1F
100
AcDbEntity
  8
0
100
AcDbPolyline
 90
        4
 70
     0
 43
0.0
 10
169.9879126735126
 20
217.8000134323516
 10
169.9879126735126
 20
214.8000134323515
 10
172.9879126735127
 20
214.8000134323515
 10
172.9879126735127
 20
217.8000134323516
  0
LWPOLYLINE
  5
433
330
1F
100
AcDbEntity
  8
0
100
AcDbPolyline
 90
        4
 70
     1
 43
0.0
 10
172.9879126735127
 20
217.8000134323516
 10
172.9879126735127
 20
214.8000134323515
 10
175.9879126735126
 20
214.8000134323515
 10
175.9879126735126
 20
217.8000134323516
  0
LWPOLYLINE
  5
434
330
1F
100
AcDbEntity
  8
0
100
AcDbPolyline
 90
        4
 70
     0
 43
0.0
 10
175.9879126735126
 20
217.8000134323516
 10
175.9879126735126
 20
214.8000134323515
 10
178.9879126735126
 20
214.8000134323515
 10
178.9879126735126
 20
217.8000134323516
  0
LWPOLYLINE
  5
435
330
1F
100
AcDbEntity
  8
0
100
AcDbPolyline
 90
        4
 70
     1
 43
0.0
 10
178.9879126735126
 20
217.8000134323516
 10
178.9879126735126
 20
214.8000134323515
 10
181.9879126735126
 20
214.8000134323515
 10
181.9879126735126
 20
217.8000134323516
  0
LINE
  5
436
330
1F
100
AcDbEntity
  8
0
100
AcDbLine
 10
76.98791267351274
 20
214.8000134323515
 30
0.0
 11
70.53216141963392
 21
214.8000134323515
 31
0.0
  0
LINE
  5
437
330
1F
100
AcDbEntity
  8
0
100
AcDbLine
 10
181.9879126735126
 20
214.8000134323515
 30
0.0
 11
189.0321614196339
 21
214.8000134323515
 31
0.0
  0
MTEXT
  5
438
330
1F
100
AcDbEntity
  8
0
100
AcDbMText
 10
73.23392590323718
 20
190.4485421707143
 30
0.0
 40
8.0
 41
117.0266261906474
 71
     1
 72
     5
  1
{\fTimes New Roman|b0|i0|c0|p18;PNTECH CONTROLS}
 73
     1
 44
1.0
1001
ACAD
1000
MTEXTBEGIN
1070
    73
1070
     1
1070
    44
1040
1.0
1070
    74
1070
     0
1000
MTEXTEND
  0
MTEXT
  5
439
330
1F
100
AcDbEntity
  8
0
100
AcDbMText
 10
79.65068977628201
 20
218.1574245737202
 30
0.0
 40
2.339449541284403
 41
20.90355474354091
 71
     1
 72
     5
  1
{\fTimes New Roman|b0|i0|c0|p18;POWER IN}
 11
0.0000000000000001
 21
1.0
 31
0.0
 73
     1
 44
1.0
1001
ACAD
1000
MTEXTBEGIN
1070
    73
1070
     1
1070
    44
1040
1.0
1070
    74
1070
     0
1000
MTEXTEND
  0
MTEXT
  5
43A
330
1F
100
AcDbEntity
  8
0
100
AcDbMText
 10
84.59578702868478
 20
218.1574245737202
 30
0.0
 40
2.339449541284403
 41
16.3873234010998
 71
     1
 72
     5
  1
{\fTimes New Roman|b0|i0|c0|p18;GND}
 11
0.0000000000000001
 21
1.0
 31
0.0
 73
     1
 44
1.0
1001
ACAD
1000
MTEXTBEGIN
1070
    73
1070
     1
1070
    44
1040
1.0
1070
    74
1070
     0
1000
MTEXTEND
  0
MTEXT
  5
43B
330
1F
100
AcDbEntity
  8
0
100
AcDbMText
 10
110.0957870286848
 20
217.9548469182774
 30
0.0
 40
2.339449541284403
 41
16.3873234010998
 71
     1
 72
     5
  1
{\fTimes New Roman|b0|i0|c0|p18;UO 02}
 11
0.0000000000000001
 21
1.0
 31
0.0
 73
     1
 44
1.0
1001
ACAD
1000
MTEXTBEGIN
1070
    73
1070
     1
1070
    44
1040
1.0
1070
    74
1070
     0
1000
MTEXTEND
  0
MTEXT
  5
43C
330
1F
100
AcDbEntity
  8
0
100
AcDbMText
 10
115.1957870286849
 20
217.9548469182774
 30
0.0
 40
2.339449541284403
 41
16.3873234010998
 71
     1
 72
     5
  1
{\fTimes New Roman|b0|i0|c0|p18;GND}
 11
0.0000000000000001
 21
1.0
 31
0.0
 73
     1
 44
1.0
1001
ACAD
1000
MTEXTBEGIN
1070
    73
1070
     1
1070
    44
1040
1.0
1070
    74
1070
     0
1000
MTEXTEND
  0
MTEXT
  5
43D
330
1F
100
AcDbEntity
  8
0
100
AcDbMText
 10
120.2957870286849
 20
217.9548469182774
 30
0.0
 40
2.339449541284403
 41
16.3873234010998
 71
     1
 72
     5
  1
{\fTimes New Roman|b0|i0|c0|p18;UO 03}
 11
0.0000000000000001
 21
1.0
 31
0.0
 73
     1
 44
1.0
1001
ACAD
1000
MTEXTBEGIN
1070
    73
1070
     1
1070
    44
1040
1.0
1070
    74
1070
     0
1000
MTEXTEND
  0
MTEXT
  5
43E
330
1F
100
AcDbEntity
  8
0
100
AcDbMText
 10
125.3957870286848
 20
217.9548469182774
 30
0.0
 40
2.339449541284403
 41
16.3873234010998
 71
     1
 72
     5
  1
{\fTimes New Roman|b0|i0|c0|p18;GND}
 11
0.0000000000000001
 21
1.0
 31
0.0
 73
     1
 44
1.0
1001
ACAD
1000
MTEXTBEGIN
1070
    73
1070
     1
1070
    44
1040
1.0
1070
    74
1070
     0
1000
MTEXTEND
  0
MTEXT
  5
43F
330
1F
100
AcDbEntity
  8
0
100
AcDbMText
 10
130.4957870286848
 20
217.9548469182774
 30
0.0
 40
2.339449541284403
 41
16.3873234010998
 71
     1
 72
     5
  1
{\fTimes New Roman|b0|i0|c0|p18;UO 04}
 11
0.0000000000000001
 21
1.0
 31
0.0
 73
     1
 44
1.0
1001
ACAD
1000
MTEXTBEGIN
1070
    73
1070
     1
1070
    44
1040
1.0
1070
    74
1070
     0
1000
MTEXTEND
  0
MTEXT
  5
440
330
1F
100
AcDbEntity
  8
0
100
AcDbMText
 10
140.6957870286849
 20
217.9548469182774
 30
0.0
 40
2.339449541284403
 41
16.3873234010998
 71
     1
 72
     5
  1
{\fTimes New Roman|b0|i0|c0|p18;UO 05}
 11
0.0000000000000001
 21
1.0
 31
0.0
 73
     1
 44
1.0
1001
ACAD
1000
MTEXTBEGIN
1070
    73
1070
     1
1070
    44
1040
1.0
1070
    74
1070
     0
1000
MTEXTEND
  0
MTEXT
  5
441
330
1F
100
AcDbEntity
  8
0
100
AcDbMText
 10
145.7957870286848
 20
217.9548469182774
 30
0.0
 40
2.339449541284403
 41
16.3873234010998
 71
     1
 72
     5
  1
{\fTimes New Roman|b0|i0|c0|p18;GND}
 11
0.0000000000000001
 21
1.0
 31
0.0
 73
     1
 44
1.0
1001
ACAD
1000
MTEXTBEGIN
1070
    73
1070
     1
1070
    44
1040
1.0
1070
    74
1070
     0
1000
MTEXTEND
  0
MTEXT
  5
442
330
1F
100
AcDbEntity
  8
0
100
AcDbMText
 10
150.8957870286848
 20
217.9548469182774
 30
0.0
 40
2.339449541284403
 41
16.3873234010998
 71
     1
 72
     5
  1
{\fTimes New Roman|b0|i0|c0|p18;UO 06}
 11
0.0000000000000001
 21
1.0
 31
0.0
 73
     1
 44
1.0
1001
ACAD
1000
MTEXTBEGIN
1070
    73
1070
     1
1070
    44
1040
1.0
1070
    74
1070
     0
1000
MTEXTEND
  0
MTEXT
  5
443
330
1F
100
AcDbEntity
  8
0
100
AcDbMText
 10
155.9957870286849
 20
217.9548469182774
 30
0.0
 40
2.339449541284403
 41
16.3873234010998
 71
     1
 72
     5
  1
{\fTimes New Roman|b0|i0|c0|p18;GND}
 11
0.0000000000000001
 21
1.0
 31
0.0
 73
     1
 44
1.0
1001
ACAD
1000
MTEXTBEGIN
1070
    73
1070
     1
1070
    44
1040
1.0
1070
    74
1070
     0
1000
MTEXTEND
  0
MTEXT
  5
444
330
1F
100
AcDbEntity
  8
0
100
AcDbMText
 10
161.0957870286848
 20
217.9548469182774
 30
0.0
 40
2.339449541284403
 41
16.3873234010998
 71
     1
 72
     5
  1
{\fTimes New Roman|b0|i0|c0|p18;UO 07}
 11
0.0000000000000001
 21
1.0
 31
0.0
 73
     1
 44
1.0
1001
ACAD
1000
MTEXTBEGIN
1070
    73
1070
     1
1070
    44
1040
1.0
1070
    74
1070
     0
1000
MTEXTEND
  0
MTEXT
  5
445
330
1F
100
AcDbEntity
  8
0
100
AcDbMText
 10
166.1957870286849
 20
217.9548469182774
 30
0.0
 40
2.339449541284403
 41
16.3873234010998
 71
     1
 72
     5
  1
{\fTimes New Roman|b0|i0|c0|p18;GND}
 11
0.0000000000000001
 21
1.0
 31
0.0
 73
     1
 44
1.0
1001
ACAD
1000
MTEXTBEGIN
1070
    73
1070
     1
1070
    44
1040
1.0
1070
    74
1070
     0
1000
MTEXTEND
  0
MTEXT
  5
446
330
1F
100
AcDbEntity
  8
0
100
AcDbMText
 10
171.2957870286848
 20
217.9548469182774
 30
0.0
 40
2.339449541284403
 41
16.3873234010998
 71
     1
 72
     5
  1
{\fTimes New Roman|b0|i0|c0|p18;UO 08}
 11
0.0000000000000001
 21
1.0
 31
0.0
 73
     1
 44
1.0
1001
ACAD
1000
MTEXTBEGIN
1070
    73
1070
     1
1070
    44
1040
1.0
1070
    74
1070
     0
1000
MTEXTEND
  0
MTEXT
  5
447
330
1F
100
AcDbEntity
  8
0
100
AcDbMText
 10
176.3957870286848
 20
217.9548469182774
 30
0.0
 40
2.339449541284403
 41
16.3873234010998
 71
     1
 72
     5
  1
{\fTimes New Roman|b0|i0|c0|p18;GND}
 11
0.0000000000000001
 21
1.0
 31
0.0
 73
     1
 44
1.0
1001
ACAD
1000
MTEXTBEGIN
1070
    73
1070
     1
1070
    44
1040
1.0
1070
    74
1070
     0
1000
MTEXTEND
  0
MTEXT
  5
448
330
1F
100
AcDbEntity
  8
0
100
AcDbMText
 10
135.595787028685
 20
217.9548469182774
 30
0.0
 40
2.339449541284403
 41
16.3873234010998
 71
     1
 72
     5
  1
{\fTimes New Roman|b0|i0|c0|p18;GND}
 11
0.0000000000000001
 21
1.0
 31
0.0
 73
     1
 44
1.0
1001
ACAD
1000
MTEXTBEGIN
1070
    73
1070
     1
1070
    44
1040
1.0
1070
    74
1070
     0
1000
MTEXTEND
  0
MTEXT
  5
449
330
1F
100
AcDbEntity
  8
0
100
AcDbMText
 10
99.89578702868485
 20
217.9548469182774
 30
0.0
 40
2.339449541284403
 41
16.3873234010998
 71
     1
 72
     5
  1
{\fTimes New Roman|b0|i0|c0|p18;UO 01}
 11
0.0000000000000001
 21
1.0
 31
0.0
 73
     1
 44
1.0
1001
ACAD
1000
MTEXTBEGIN
1070
    73
1070
     1
1070
    44
1040
1.0
1070
    74
1070
     0
1000
MTEXTEND
  0
MTEXT
  5
44A
330
1F
100
AcDbEntity
  8
0
100
AcDbMText
 10
104.9957870286849
 20
217.9548469182774
 30
0.0
 40
2.339449541284403
 41
16.3873234010998
 71
     1
 72
     5
  1
{\fTimes New Roman|b0|i0|c0|p18;GND}
 11
0.0000000000000001
 21
1.0
 31
0.0
 73
     1
 44
1.0
1001
ACAD
1000
MTEXTBEGIN
1070
    73
1070
     1
1070
    44
1040
1.0
1070
    74
1070
     0
1000
MTEXTEND
  0
MTEXT
  5
44B
330
1F
100
AcDbEntity
  8
0
100
AcDbMText
 10
79.76413773015818
 20
127.5500134323515
 30
0.0
 40
2.339449541284403
 41
16.3873234010998
 71
     1
 72
     5
  1
{\fTimes New Roman|b0|i0|c0|p18;NET1 +}
 11
0.0000000000000001
 21
1.0
 31
0.0
 73
     1
 44
1.0
1001
ACAD
1000
MTEXTBEGIN
1070
    73
1070
     1
1070
    44
1040
1.0
1070
    74
1070
     0
1000
MTEXTEND
  0
MTEXT
  5
44C
330
1F
100
AcDbEntity
  8
0
100
AcDbMText
 10
84.8641377301581
 20
127.5500134323515
 30
0.0
 40
2.339449541284403
 41
16.3873234010998
 71
     1
 72
     5
  1
{\fTimes New Roman|b0|i0|c0|p18;NET1 -}
 11
0.0000000000000001
 21
1.0
 31
0.0
 73
     1
 44
1.0
1001
ACAD
1000
MTEXTBEGIN
1070
    73
1070
     1
1070
    44
1040
1.0
1070
    74
1070
     0
1000
MTEXTEND
  0
MTEXT
  5
44D
330
1F
100
AcDbEntity
  8
0
100
AcDbMText
 10
89.96413773015822
 20
127.5500134323515
 30
0.0
 40
2.339449541284403
 41
16.3873234010998
 71
     1
 72
     5
  1
{\fTimes New Roman|b0|i0|c0|p18;NET2 +}
 11
0.0000000000000001
 21
1.0
 31
0.0
 73
     1
 44
1.0
1001
ACAD
1000
MTEXTBEGIN
1070
    73
1070
     1
1070
    44
1040
1.0
1070
    74
1070
     0
1000
MTEXTEND
  0
MTEXT
  5
44E
330
1F
100
AcDbEntity
  8
0
100
AcDbMText
 10
95.06413773015813
 20
127.5500134323515
 30
0.0
 40
2.339449541284403
 41
16.3873234010998
 71
     1
 72
     5
  1
{\fTimes New Roman|b0|i0|c0|p18;NET2 -}
 11
0.0000000000000001
 21
1.0
 31
0.0
 73
     1
 44
1.0
1001
ACAD
1000
MTEXTBEGIN
1070
    73
1070
     1
1070
    44
1040
1.0
1070
    74
1070
     0
1000
MTEXTEND
  0
MTEXT
  5
44F
330
1F
100
AcDbEntity
  8
0
100
AcDbMText
 10
100.1641377301581
 20
127.5500134323515
 30
0.0
 40
2.339449541284403
 41
16.3873234010998
 71
     1
 72
     5
  1
{\fTimes New Roman|b0|i0|c0|p18;GND}
 11
0.0000000000000001
 21
1.0
 31
0.0
 73
     1
 44
1.0
1001
ACAD
1000
MTEXTBEGIN
1070
    73
1070
     1
1070
    44
1040
1.0
1070
    74
1070
     0
1000
MTEXTEND
  0
MTEXT
  5
450
330
1F
100
AcDbEntity
  8
0
100
AcDbMText
 10
115.525459160565
 20
127.587862335452
 30
0.0
 40
2.339449541284403
 41
16.3873234010998
 71
     1
 72
     5
  1
{\fTimes New Roman|b0|i0|c0|p18;24V OUT}
 11
0.0000000000000001
 21
1.0
 31
0.0
 73
     1
 44
1.0
1001
ACAD
1000
MTEXTBEGIN
1070
    73
1070
     1
1070
    44
1040
1.0
1070
    74
1070
     0
1000
MTEXTEND
  0
MTEXT
  5
451
330
1F
100
AcDbEntity
  8
0
100
AcDbMText
 10
120.5641377301581
 20
127.5500134323515
 30
0.0
 40
2.339449541284403
 41
16.3873234010998
 71
     1
 72
     5
  1
{\fTimes New Roman|b0|i0|c0|p18;UI 01}
 11
0.0000000000000001
 21
1.0
 31
0.0
 73
     1
 44
1.0
1001
ACAD
1000
MTEXTBEGIN
1070
    73
1070
     1
1070
    44
1040
1.0
1070
    74
1070
     0
1000
MTEXTEND
  0
MTEXT
  5
452
330
1F
100
AcDbEntity
  8
0
100
AcDbMText
 10
125.6641377301582
 20
127.5500134323515
 30
0.0
 40
2.339449541284403
 41
16.3873234010998
 71
     1
 72
     5
  1
{\fTimes New Roman|b0|i0|c0|p18;UI 02}
 11
0.0000000000000001
 21
1.0
 31
0.0
 73
     1
 44
1.0
1001
ACAD
1000
MTEXTBEGIN
1070
    73
1070
     1
1070
    44
1040
1.0
1070
    74
1070
     0
1000
MTEXTEND
  0
MTEXT
  5
453
330
1F
100
AcDbEntity
  8
0
100
AcDbMText
 10
130.7641377301582
 20
127.5500134323515
 30
0.0
 40
2.339449541284403
 41
16.3873234010998
 71
     1
 72
     5
  1
{\fTimes New Roman|b0|i0|c0|p18;GND}
 11
0.0000000000000001
 21
1.0
 31
0.0
 73
     1
 44
1.0
1001
ACAD
1000
MTEXTBEGIN
1070
    73
1070
     1
1070
    44
1040
1.0
1070
    74
1070
     0
1000
MTEXTEND
  0
MTEXT
  5
454
330
1F
100
AcDbEntity
  8
0
100
AcDbMText
 10
135.8641377301581
 20
127.5500134323515
 30
0.0
 40
2.339449541284403
 41
16.3873234010998
 71
     1
 72
     5
  1
{\fTimes New Roman|b0|i0|c0|p18;UI 03}
 11
0.0000000000000001
 21
1.0
 31
0.0
 73
     1
 44
1.0
1001
ACAD
1000
MTEXTBEGIN
1070
    73
1070
     1
1070
    44
1040
1.0
1070
    74
1070
     0
1000
MTEXTEND
  0
MTEXT
  5
455
330
1F
100
AcDbEntity
  8
0
100
AcDbMText
 10
140.9641377301582
 20
127.5500134323515
 30
0.0
 40
2.339449541284403
 41
16.3873234010998
 71
     1
 72
     5
  1
{\fTimes New Roman|b0|i0|c0|p18;UI 04}
 11
0.0000000000000001
 21
1.0
 31
0.0
 73
     1
 44
1.0
1001
ACAD
1000
MTEXTBEGIN
1070
    73
1070
     1
1070
    44
1040
1.0
1070
    74
1070
     0
1000
MTEXTEND
  0
MTEXT
  5
456
330
1F
100
AcDbEntity
  8
0
100
AcDbMText
 10
146.0641377301581
 20
127.5500134323515
 30
0.0
 40
2.339449541284403
 41
16.3873234010998
 71
     1
 72
     5
  1
{\fTimes New Roman|b0|i0|c0|p18;GND}
 11
0.0000000000000001
 21
1.0
 31
0.0
 73
     1
 44
1.0
1001
ACAD
1000
MTEXTBEGIN
1070
    73
1070
     1
1070
    44
1040
1.0
1070
    74
1070
     0
1000
MTEXTEND
  0
MTEXT
  5
457
330
1F
100
AcDbEntity
  8
0
100
AcDbMText
 10
151.1641377301583
 20
127.5500134323515
 30
0.0
 40
2.339449541284403
 41
16.3873234010998
 71
     1
 72
     5
  1
{\fTimes New Roman|b0|i0|c0|p18;UI 05}
 11
0.0000000000000001
 21
1.0
 31
0.0
 73
     1
 44
1.0
1001
ACAD
1000
MTEXTBEGIN
1070
    73
1070
     1
1070
    44
1040
1.0
1070
    74
1070
     0
1000
MTEXTEND
  0
MTEXT
  5
458
330
1F
100
AcDbEntity
  8
0
100
AcDbMText
 10
156.2641377301582
 20
127.5500134323515
 30
0.0
 40
2.339449541284403
 41
16.3873234010998
 71
     1
 72
     5
  1
{\fTimes New Roman|b0|i0|c0|p18;UI 06}
 11
0.0000000000000001
 21
1.0
 31
0.0
 73
     1
 44
1.0
1001
ACAD
1000
MTEXTBEGIN
1070
    73
1070
     1
1070
    44
1040
1.0
1070
    74
1070
     0
1000
MTEXTEND
  0
MTEXT
  5
459
330
1F
100
AcDbEntity
  8
0
100
AcDbMText
 10
161.3641377301582
 20
127.5500134323515
 30
0.0
 40
2.339449541284403
 41
16.3873234010998
 71
     1
 72
     5
  1
{\fTimes New Roman|b0|i0|c0|p18;GND}
 11
0.0000000000000001
 21
1.0
 31
0.0
 73
     1
 44
1.0
1001
ACAD
1000
MTEXTBEGIN
1070
    73
1070
     1
1070
    44
1040
1.0
1070
    74
1070
     0
1000
MTEXTEND
  0
MTEXT
  5
45A
330
1F
100
AcDbEntity
  8
0
100
AcDbMText
 10
166.4641377301581
 20
127.5500134323515
 30
0.0
 40
2.339449541284403
 41
16.3873234010998
 71
     1
 72
     5
  1
{\fTimes New Roman|b0|i0|c0|p18;UI 07}
 11
0.0000000000000001
 21
1.0
 31
0.0
 73
     1
 44
1.0
1001
ACAD
1000
MTEXTBEGIN
1070
    73
1070
     1
1070
    44
1040
1.0
1070
    74
1070
     0
1000
MTEXTEND
  0
MTEXT
  5
45B
330
1F
100
AcDbEntity
  8
0
100
AcDbMText
 10
171.5641377301581
 20
127.5500134323515
 30
0.0
 40
2.339449541284403
 41
16.3873234010998
 71
     1
 72
     5
  1
{\fTimes New Roman|b0|i0|c0|p18;UI 08}
 11
0.0000000000000001
 21
1.0
 31
0.0
 73
     1
 44
1.0
1001
ACAD
1000
MTEXTBEGIN
1070
    73
1070
     1
1070
    44
1040
1.0
1070
    74
1070
     0
1000
MTEXTEND
  0
MTEXT
  5
45C
330
1F
100
AcDbEntity
  8
0
100
AcDbMText
 10
176.6641377301582
 20
127.5500134323515
 30
0.0
 40
2.339449541284403
 41
16.3873234010998
 71
     1
 72
     5
  1
{\fTimes New Roman|b0|i0|c0|p18;GND}
 11
0.0000000000000001
 21
1.0
 31
0.0
 73
     1
 44
1.0
1001
ACAD
1000
MTEXTBEGIN
1070
    73
1070
     1
1070
    44
1040
1.0
1070
    74
1070
     0
1000
MTEXTEND
  0
LINE
  5
45D
330
1F
100
AcDbEntity
  8
0
 62
     4
100
AcDbLine
 10
108.8821614196337
 20
122.5786831571222
 30
0.0
 11
108.8821614196337
 21
127.5500134323515
 31
0.0
  0
LWPOLYLINE
  5
45E
330
1F
100
AcDbEntity
  8
0
 62
     4
100
AcDbPolyline
 90
        4
 70
     1
 43
0.0
 10
98.6821614196338
 20
122.5786831571222
 10
98.6821614196338
 20
115.0924446250122
 10
103.7821614196338
 20
115.0924446250122
 10
103.7821614196338
 20
122.5786831571222
  0
CIRCLE
  5
45F
330
1F
100
AcDbEntity
  8
0
 62
     4
100
AcDbCircle
 10
101.2321614196337
 20
118.8648070103331
 30
0.0
 40
1.871559633027523
  0
LWPOLYLINE
  5
460
330
1F
100
AcDbEntity
  8
0
 62
     4
100
AcDbPolyline
 90
        4
 70
     1
 43
0.0
 10
102.2666940909803
 20
117.4355331480592
 10
102.7519451529923
 20
117.968515191068
 10
100.1976287482873
 20
120.2940808726071
 10
99.71237768627524
 20
119.7610988295983
  0
LWPOLYLINE
  5
461
330
1F
100
AcDbEntity
  8
0
 62
     4
100
AcDbPolyline
 90
        4
 70
     1
 43
0.0
 10
103.7821614196338
 20
122.5786831571222
 10
103.7821614196338
 20
115.0924446250122
 10
108.8821614196337
 20
115.0924446250122
 10
108.8821614196337
 20
122.5786831571222
  0
CIRCLE
  5
462
330
1F
100
AcDbEntity
  8
0
 62
     4
100
AcDbCircle
 10
106.3321614196339
 20
118.8648070103331
 30
0.0
 40
1.871559633027523
  0
LWPOLYLINE
  5
463
330
1F
100
AcDbEntity
  8
0
 62
     4
100
AcDbPolyline
 90
        4
 70
     1
 43
0.0
 10
107.3666940909803
 20
117.4355331480592
 10
107.8519451529924
 20
117.968515191068
 10
105.2976287482872
 20
120.2940808726071
 10
104.8123776862752
 20
119.7610988295983
  0
MTEXT
  5
464
330
1F
100
AcDbEntity
  8
0
100
AcDbMText
 10
105.2641377301582
 20
127.5500134323515
 30
0.0
 40
2.339449541284403
 41
16.3873234010998
 71
     1
 72
     5
  1
{\fTimes New Roman|b0|i0|c0|p18;GND}
 11
0.0000000000000001
 21
1.0
 31
0.0
 73
     1
 44
1.0
1001
ACAD
1000
MTEXTBEGIN
1070
    73
1070
     1
1070
    44
1040
1.0
1070
    74
1070
     0
1000
MTEXTEND
  0
LINE
  5
465
330
1F
100
AcDbEntity
  8
0
 62
     4
100
AcDbLine
 10
180.2821614196338
 20
115.1509308635441
 30
0.0
 11
180.2821614196338
 21
127.5500134323515
 31
0.0
  0
LINE
  5
466
330
1F
100
AcDbEntity
  8
0
 62
     4
100
AcDbLine
 10
78.28216141963392
 20
115.0924446250119
 30
0.0
 11
78.28216141963392
 21
127.5500134323515
 31
0.0
  0
LINE
  5
467
330
1F
100
AcDbEntity
  8
0
 62
     4
100
AcDbLine
 10
88.48216141963396
 20
233.0213437075809
 30
0.0
 11
88.48216141963396
 21
228.0500134323516
 31
0.0
  0
LINE
  5
468
330
1F
100
AcDbEntity
  8
0
 62
     4
100
AcDbLine
 10
98.68216141963401
 20
233.0213437075809
 30
0.0
 11
98.68216141963401
 21
228.0500134323516
 31
0.0
  0
LWPOLYLINE
  5
469
330
1F
100
AcDbEntity
  8
0
 62
     3
100
AcDbPolyline
 90
        4
 70
     1
 43
0.0
 10
164.1071614196339
 20
150.3000134323515
 10
176.1071614196339
 20
150.3000134323515
 10
176.1071614196339
 20
148.3000134323515
 10
164.1071614196339
 20
148.3000134323515
  0
LINE
  5
46A
330
1F
100
AcDbEntity
  8
0
100
AcDbLine
 10
70.53216141963392
 20
70.57343150370346
 30
0.0
 11
70.53216141963392
 21
65.57343150370346
 31
0.0
  0
LINE
  5
46B
330
1F
100
AcDbEntity
  8
0
100
AcDbLine
 10
70.53216141963392
 20
64.57343150370346
 30
0.0
 11
70.53216141963392
 21
21.57343150370346
 31
0.0
  0
LINE
  5
46C
330
1F
100
AcDbEntity
  8
0
100
AcDbLine
 10
70.53216141963392
 20
21.57343150370346
 30
0.0
 11
119.175950196863
 21
21.57343150370346
 31
0.0
  0
LINE
  5
46D
330
1F
100
AcDbEntity
  8
0
100
AcDbLine
 10
140.3883726406804
 20
21.57343150370346
 30
0.0
 11
189.0321614179095
 21
21.57343150370346
 31
0.0
  0
LINE
  5
46E
330
1F
100
AcDbEntity
  8
0
100
AcDbLine
 10
189.0321614179095
 20
21.57343150370346
 30
0.0
 11
189.0321614179095
 21
70.57343150370346
 31
0.0
  0
LINE
  5
46F
330
1F
100
AcDbEntity
  8
0
100
AcDbLine
 10
188.0321614179096
 20
71.57343150370346
 30
0.0
 11
71.53216141963404
 21
71.57343150370346
 31
0.0
  0
LINE
  5
470
330
1F
100
AcDbEntity
  8
0
100
AcDbLine
 10
70.53216141963392
 20
65.57343150370346
 30
0.0
 11
189.0321614179095
 21
65.57343150370346
 31
0.0
  0
LINE
  5
471
330
1F
100
AcDbEntity
  8
0
100
AcDbLine
 10
70.53216141963392
 20
45.57343150370345
 30
0.0
 11
189.0321614179095
 21
45.57343150370345
 31
0.0
  0
LINE
  5
472
330
1F
100
AcDbEntity
  8
0
100
AcDbLine
 10
70.53216141963392
 20
45.57343150370345
 30
0.0
 11
70.53216141963392
 21
25.57343150370346
 31
0.0
  0
LINE
  5
473
330
1F
100
AcDbEntity
  8
0
100
AcDbLine
 10
70.53216141963392
 20
25.57343150370346
 30
0.0
 11
189.0321614179095
 21
25.57343150370346
 31
0.0
  0
LINE
  5
474
330
1F
100
AcDbEntity
  8
0
100
AcDbLine
 10
70.53216141963392
 20
21.57343150370346
 30
0.0
 11
70.53216141963392
 21
16.57343150370346
 31
0.0
  0
LINE
  5
475
102
{ACAD_REACTORS
330
519
102
}
330
1F
100
AcDbEntity
  8
0
100
AcDbLine
 10
70.53216141963392
 20
16.57343150370346
 30
0.0
 11
189.0321614179095
 21
16.57343150370346
 31
0.0
  0
LINE
  5
476
330
1F
100
AcDbEntity
  8
0
100
AcDbLine
 10
189.0321614179095
 20
16.57343150370346
 30
0.0
 11
189.0321614179095
 21
21.57343150370346
 31
0.0
  0
LINE
  5
477
330
1F
100
AcDbEntity
  8
0
100
AcDbLine
 10
70.53216141963392
 20
65.57343150370346
 30
0.0
 11
80.53216141963392
 21
65.57343150370346
 31
0.0
  0
LINE
  5
478
330
1F
100
AcDbEntity
  8
0
100
AcDbLine
 10
70.53216141963392
 20
65.57343150370346
 30
0.0
 11
75.53216141963392
 21
65.57343150370346
 31
0.0
  0
LINE
  5
479
330
1F
100
AcDbEntity
  8
0
100
AcDbLine
 10
78.78216141877172
 20
65.57343150370346
 30
0.0
 11
78.78216141877172
 21
45.57343150370345
 31
0.0
  0
LWPOLYLINE
  5
47A
330
1F
100
AcDbEntity
  8
0
100
AcDbPolyline
 90
        4
 70
     1
 43
0.0
 10
78.78216141877172
 20
45.57343150370345
 10
80.78216141877172
 20
45.57343150370345
 10
80.78216141877172
 20
65.57343150370346
 10
78.78216141877172
 20
65.57343150370346
  0
LWPOLYLINE
  5
47B
330
1F
100
AcDbEntity
  8
0
100
AcDbPolyline
 90
        4
 70
     1
 43
0.0
 10
80.78216141877172
 20
45.57343150370345
 10
82.78216141877171
 20
45.57343150370345
 10
82.78216141877171
 20
65.57343150370346
 10
80.78216141877172
 20
65.57343150370346
  0
LWPOLYLINE
  5
47C
330
1F
100
AcDbEntity
  8
0
100
AcDbPolyline
 90
        4
 70
     1
 43
0.0
 10
82.78216141877171
 20
45.57343150370345
 10
84.78216141877172
 20
45.57343150370345
 10
84.78216141877172
 20
65.57343150370346
 10
82.78216141877171
 20
65.57343150370346
  0
LWPOLYLINE
  5
47D
330
1F
100
AcDbEntity
  8
0
100
AcDbPolyline
 90
        4
 70
     1
 43
0.0
 10
84.78216141877172
 20
45.57343150370345
 10
86.78216141877172
 20
45.57343150370345
 10
86.78216141877172
 20
65.57343150370346
 10
84.78216141877172
 20
65.57343150370346
  0
LWPOLYLINE
  5
47E
330
1F
100
AcDbEntity
  8
0
100
AcDbPolyline
 90
        4
 70
     1
 43
0.0
 10
86.78216141877172
 20
45.57343150370345
 10
88.78216141877173
 20
45.57343150370345
 10
88.78216141877173
 20
65.57343150370346
 10
86.78216141877172
 20
65.57343150370346
  0
LWPOLYLINE
  5
47F
330
1F
100
AcDbEntity
  8
0
100
AcDbPolyline
 90
        4
 70
     1
 43
0.0
 10
88.78216141877173
 20
45.57343150370345
 10
90.78216141877172
 20
45.57343150370345
 10
90.78216141877172
 20
65.57343150370346
 10
88.78216141877173
 20
65.57343150370346
  0
LWPOLYLINE
  5
480
330
1F
100
AcDbEntity
  8
0
100
AcDbPolyline
 90
        4
 70
     1
 43
0.0
 10
90.78216141877172
 20
45.57343150370345
 10
92.78216141877171
 20
45.57343150370345
 10
92.78216141877171
 20
65.57343150370346
 10
90.78216141877172
 20
65.57343150370346
  0
LWPOLYLINE
  5
481
330
1F
100
AcDbEntity
  8
0
100
AcDbPolyline
 90
        4
 70
     1
 43
0.0
 10
92.78216141877171
 20
45.57343150370345
 10
94.78216141877172
 20
45.57343150370345
 10
94.78216141877172
 20
65.57343150370346
 10
92.78216141877171
 20
65.57343150370346
  0
LWPOLYLINE
  5
482
330
1F
100
AcDbEntity
  8
0
100
AcDbPolyline
 90
        4
 70
     1
 43
0.0
 10
94.78216141877172
 20
45.57343150370345
 10
96.78216141877172
 20
45.57343150370345
 10
96.78216141877172
 20
65.57343150370346
 10
94.78216141877172
 20
65.57343150370346
  0
LWPOLYLINE
  5
483
330
1F
100
AcDbEntity
  8
0
100
AcDbPolyline
 90
        4
 70
     1
 43
0.0
 10
96.78216141877172
 20
45.57343150370345
 10
98.78216141877173
 20
45.57343150370345
 10
98.78216141877173
 20
65.57343150370346
 10
96.78216141877172
 20
65.57343150370346
  0
LWPOLYLINE
  5
484
330
1F
100
AcDbEntity
  8
0
100
AcDbPolyline
 90
        4
 70
     1
 43
0.0
 10
98.78216141877173
 20
45.57343150370345
 10
100.7821614187717
 20
45.57343150370345
 10
100.7821614187717
 20
65.57343150370346
 10
98.78216141877173
 20
65.57343150370346
  0
LWPOLYLINE
  5
485
330
1F
100
AcDbEntity
  8
0
100
AcDbPolyline
 90
        4
 70
     1
 43
0.0
 10
100.7821614187717
 20
45.57343150370345
 10
102.7821614187717
 20
45.57343150370345
 10
102.7821614187717
 20
65.57343150370346
 10
100.7821614187717
 20
65.57343150370346
  0
LWPOLYLINE
  5
486
330
1F
100
AcDbEntity
  8
0
100
AcDbPolyline
 90
        4
 70
     1
 43
0.0
 10
102.7821614187717
 20
45.57343150370345
 10
104.7821614187717
 20
45.57343150370345
 10
104.7821614187717
 20
65.57343150370346
 10
102.7821614187717
 20
65.57343150370346
  0
LWPOLYLINE
  5
487
330
1F
100
AcDbEntity
  8
0
100
AcDbPolyline
 90
        4
 70
     1
 43
0.0
 10
104.7821614187717
 20
45.57343150370345
 10
106.7821614187717
 20
45.57343150370345
 10
106.7821614187717
 20
65.57343150370346
 10
104.7821614187717
 20
65.57343150370346
  0
LWPOLYLINE
  5
488
330
1F
100
AcDbEntity
  8
0
100
AcDbPolyline
 90
        4
 70
     1
 43
0.0
 10
106.7821614187717
 20
45.57343150370345
 10
108.7821614187717
 20
45.57343150370345
 10
108.7821614187717
 20
65.57343150370346
 10
106.7821614187717
 20
65.57343150370346
  0
LWPOLYLINE
  5
489
330
1F
100
AcDbEntity
  8
0
100
AcDbPolyline
 90
        4
 70
     1
 43
0.0
 10
108.7821614187717
 20
45.57343150370345
 10
110.7821614187717
 20
45.57343150370345
 10
110.7821614187717
 20
65.57343150370346
 10
108.7821614187717
 20
65.57343150370346
  0
LWPOLYLINE
  5
48A
330
1F
100
AcDbEntity
  8
0
100
AcDbPolyline
 90
        4
 70
     1
 43
0.0
 10
110.7821614187717
 20
45.57343150370345
 10
112.7821614187717
 20
45.57343150370345
 10
112.7821614187717
 20
65.57343150370346
 10
110.7821614187717
 20
65.57343150370346
  0
LWPOLYLINE
  5
48B
330
1F
100
AcDbEntity
  8
0
100
AcDbPolyline
 90
        4
 70
     1
 43
0.0
 10
112.7821614187717
 20
45.57343150370345
 10
114.7821614187717
 20
45.57343150370345
 10
114.7821614187717
 20
65.57343150370346
 10
112.7821614187717
 20
65.57343150370346
  0
LWPOLYLINE
  5
48C
330
1F
100
AcDbEntity
  8
0
100
AcDbPolyline
 90
        4
 70
     1
 43
0.0
 10
114.7821614187717
 20
45.57343150370345
 10
116.7821614187717
 20
45.57343150370345
 10
116.7821614187717
 20
65.57343150370346
 10
114.7821614187717
 20
65.57343150370346
  0
LWPOLYLINE
  5
48D
330
1F
100
AcDbEntity
  8
0
100
AcDbPolyline
 90
        4
 70
     1
 43
0.0
 10
116.7821614187717
 20
45.57343150370345
 10
118.7821614187717
 20
45.57343150370345
 10
118.7821614187717
 20
65.57343150370346
 10
116.7821614187717
 20
65.57343150370346
  0
LWPOLYLINE
  5
48E
330
1F
100
AcDbEntity
  8
0
100
AcDbPolyline
 90
        4
 70
     1
 43
0.0
 10
118.7821614187717
 20
45.57343150370345
 10
120.7821614187717
 20
45.57343150370345
 10
120.7821614187717
 20
65.57343150370346
 10
118.7821614187717
 20
65.57343150370346
  0
LWPOLYLINE
  5
48F
330
1F
100
AcDbEntity
  8
0
100
AcDbPolyline
 90
        4
 70
     1
 43
0.0
 10
120.7821614187717
 20
45.57343150370345
 10
122.7821614187717
 20
45.57343150370345
 10
122.7821614187717
 20
65.57343150370346
 10
120.7821614187717
 20
65.57343150370346
  0
LWPOLYLINE
  5
490
330
1F
100
AcDbEntity
  8
0
100
AcDbPolyline
 90
        4
 70
     1
 43
0.0
 10
122.7821614187717
 20
45.57343150370345
 10
124.7821614187717
 20
45.57343150370345
 10
124.7821614187717
 20
65.57343150370346
 10
122.7821614187717
 20
65.57343150370346
  0
LWPOLYLINE
  5
491
330
1F
100
AcDbEntity
  8
0
100
AcDbPolyline
 90
        4
 70
     1
 43
0.0
 10
124.7821614187717
 20
45.57343150370345
 10
126.7821614187717
 20
45.57343150370345
 10
126.7821614187717
 20
65.57343150370346
 10
124.7821614187717
 20
65.57343150370346
  0
LWPOLYLINE
  5
492
330
1F
100
AcDbEntity
  8
0
100
AcDbPolyline
 90
        4
 70
     1
 43
0.0
 10
126.7821614187717
 20
45.57343150370345
 10
128.7821614187717
 20
45.57343150370345
 10
128.7821614187717
 20
65.57343150370346
 10
126.7821614187717
 20
65.57343150370346
  0
LWPOLYLINE
  5
493
330
1F
100
AcDbEntity
  8
0
100
AcDbPolyline
 90
        4
 70
     1
 43
0.0
 10
128.7821614187717
 20
45.57343150370345
 10
130.7821614187717
 20
45.57343150370345
 10
130.7821614187717
 20
65.57343150370346
 10
128.7821614187717
 20
65.57343150370346
  0
LWPOLYLINE
  5
494
330
1F
100
AcDbEntity
  8
0
100
AcDbPolyline
 90
        4
 70
     1
 43
0.0
 10
130.7821614187717
 20
45.57343150370345
 10
132.7821614187717
 20
45.57343150370345
 10
132.7821614187717
 20
65.57343150370346
 10
130.7821614187717
 20
65.57343150370346
  0
LWPOLYLINE
  5
495
330
1F
100
AcDbEntity
  8
0
100
AcDbPolyline
 90
        4
 70
     1
 43
0.0
 10
132.7821614187717
 20
45.57343150370345
 10
134.7821614187717
 20
45.57343150370345
 10
134.7821614187717
 20
65.57343150370346
 10
132.7821614187717
 20
65.57343150370346
  0
LWPOLYLINE
  5
496
330
1F
100
AcDbEntity
  8
0
100
AcDbPolyline
 90
        4
 70
     1
 43
0.0
 10
134.7821614187717
 20
45.57343150370345
 10
136.7821614187717
 20
45.57343150370345
 10
136.7821614187717
 20
65.57343150370346
 10
134.7821614187717
 20
65.57343150370346
  0
LWPOLYLINE
  5
497
330
1F
100
AcDbEntity
  8
0
100
AcDbPolyline
 90
        4
 70
     1
 43
0.0
 10
136.7821614187717
 20
45.57343150370345
 10
138.7821614187717
 20
45.57343150370345
 10
138.7821614187717
 20
65.57343150370346
 10
136.7821614187717
 20
65.57343150370346
  0
LWPOLYLINE
  5
498
330
1F
100
AcDbEntity
  8
0
100
AcDbPolyline
 90
        4
 70
     1
 43
0.0
 10
138.7821614187717
 20
45.57343150370345
 10
140.7821614187717
 20
45.57343150370345
 10
140.7821614187717
 20
65.57343150370346
 10
138.7821614187717
 20
65.57343150370346
  0
LWPOLYLINE
  5
499
330
1F
100
AcDbEntity
  8
0
100
AcDbPolyline
 90
        4
 70
     1
 43
0.0
 10
140.7821614187717
 20
45.57343150370345
 10
142.7821614187717
 20
45.57343150370345
 10
142.7821614187717
 20
65.57343150370346
 10
140.7821614187717
 20
65.57343150370346
  0
LWPOLYLINE
  5
49A
330
1F
100
AcDbEntity
  8
0
100
AcDbPolyline
 90
        4
 70
     1
 43
0.0
 10
142.7821614187717
 20
45.57343150370345
 10
144.7821614187717
 20
45.57343150370345
 10
144.7821614187717
 20
65.57343150370346
 10
142.7821614187717
 20
65.57343150370346
  0
LWPOLYLINE
  5
49B
330
1F
100
AcDbEntity
  8
0
100
AcDbPolyline
 90
        4
 70
     1
 43
0.0
 10
144.7821614187717
 20
45.57343150370345
 10
146.7821614187717
 20
45.57343150370345
 10
146.7821614187717
 20
65.57343150370346
 10
144.7821614187717
 20
65.57343150370346
  0
LWPOLYLINE
  5
49C
330
1F
100
AcDbEntity
  8
0
100
AcDbPolyline
 90
        4
 70
     1
 43
0.0
 10
146.7821614187717
 20
45.57343150370345
 10
148.7821614187717
 20
45.57343150370345
 10
148.7821614187717
 20
65.57343150370346
 10
146.7821614187717
 20
65.57343150370346
  0
LWPOLYLINE
  5
49D
330
1F
100
AcDbEntity
  8
0
100
AcDbPolyline
 90
        4
 70
     1
 43
0.0
 10
148.7821614187717
 20
45.57343150370345
 10
150.7821614187717
 20
45.57343150370345
 10
150.7821614187717
 20
65.57343150370346
 10
148.7821614187717
 20
65.57343150370346
  0
LWPOLYLINE
  5
49E
330
1F
100
AcDbEntity
  8
0
100
AcDbPolyline
 90
        4
 70
     1
 43
0.0
 10
150.7821614187717
 20
45.57343150370345
 10
152.7821614187717
 20
45.57343150370345
 10
152.7821614187717
 20
65.57343150370346
 10
150.7821614187717
 20
65.57343150370346
  0
LWPOLYLINE
  5
49F
330
1F
100
AcDbEntity
  8
0
100
AcDbPolyline
 90
        4
 70
     1
 43
0.0
 10
152.7821614187717
 20
45.57343150370345
 10
154.7821614187717
 20
45.57343150370345
 10
154.7821614187717
 20
65.57343150370346
 10
152.7821614187717
 20
65.57343150370346
  0
LWPOLYLINE
  5
4A0
330
1F
100
AcDbEntity
  8
0
100
AcDbPolyline
 90
        4
 70
     1
 43
0.0
 10
154.7821614187717
 20
45.57343150370345
 10
156.7821614187717
 20
45.57343150370345
 10
156.7821614187717
 20
65.57343150370346
 10
154.7821614187717
 20
65.57343150370346
  0
LWPOLYLINE
  5
4A1
330
1F
100
AcDbEntity
  8
0
100
AcDbPolyline
 90
        4
 70
     1
 43
0.0
 10
156.7821614187717
 20
45.57343150370345
 10
158.7821614187717
 20
45.57343150370345
 10
158.7821614187717
 20
65.57343150370346
 10
156.7821614187717
 20
65.57343150370346
  0
LWPOLYLINE
  5
4A2
330
1F
100
AcDbEntity
  8
0
100
AcDbPolyline
 90
        4
 70
     1
 43
0.0
 10
158.7821614187717
 20
45.57343150370345
 10
160.7821614187717
 20
45.57343150370345
 10
160.7821614187717
 20
65.57343150370346
 10
158.7821614187717
 20
65.57343150370346
  0
LWPOLYLINE
  5
4A3
330
1F
100
AcDbEntity
  8
0
100
AcDbPolyline
 90
        4
 70
     1
 43
0.0
 10
160.7821614187717
 20
45.57343150370345
 10
162.7821614187717
 20
45.57343150370345
 10
162.7821614187717
 20
65.57343150370346
 10
160.7821614187717
 20
65.57343150370346
  0
LWPOLYLINE
  5
4A4
330
1F
100
AcDbEntity
  8
0
100
AcDbPolyline
 90
        4
 70
     1
 43
0.0
 10
162.7821614187717
 20
45.57343150370345
 10
164.7821614187717
 20
45.57343150370345
 10
164.7821614187717
 20
65.57343150370346
 10
162.7821614187717
 20
65.57343150370346
  0
LWPOLYLINE
  5
4A5
330
1F
100
AcDbEntity
  8
0
100
AcDbPolyline
 90
        4
 70
     1
 43
0.0
 10
164.7821614187717
 20
45.57343150370345
 10
166.7821614187717
 20
45.57343150370345
 10
166.7821614187717
 20
65.57343150370346
 10
164.7821614187717
 20
65.57343150370346
  0
LWPOLYLINE
  5
4A6
330
1F
100
AcDbEntity
  8
0
100
AcDbPolyline
 90
        4
 70
     1
 43
0.0
 10
166.7821614187717
 20
45.57343150370345
 10
168.7821614187717
 20
45.57343150370345
 10
168.7821614187717
 20
65.57343150370346
 10
166.7821614187717
 20
65.57343150370346
  0
LWPOLYLINE
  5
4A7
330
1F
100
AcDbEntity
  8
0
100
AcDbPolyline
 90
        4
 70
     1
 43
0.0
 10
168.7821614187717
 20
45.57343150370345
 10
170.7821614187717
 20
45.57343150370345
 10
170.7821614187717
 20
65.57343150370346
 10
168.7821614187717
 20
65.57343150370346
  0
LWPOLYLINE
  5
4A8
330
1F
100
AcDbEntity
  8
0
100
AcDbPolyline
 90
        4
 70
     1
 43
0.0
 10
170.7821614187717
 20
45.57343150370345
 10
172.7821614187717
 20
45.57343150370345
 10
172.7821614187717
 20
65.57343150370346
 10
170.7821614187717
 20
65.57343150370346
  0
LWPOLYLINE
  5
4A9
330
1F
100
AcDbEntity
  8
0
100
AcDbPolyline
 90
        4
 70
     1
 43
0.0
 10
172.7821614187717
 20
45.57343150370345
 10
174.7821614187717
 20
45.57343150370345
 10
174.7821614187717
 20
65.57343150370346
 10
172.7821614187717
 20
65.57343150370346
  0
LWPOLYLINE
  5
4AA
330
1F
100
AcDbEntity
  8
0
100
AcDbPolyline
 90
        4
 70
     1
 43
0.0
 10
174.7821614187717
 20
45.57343150370345
 10
176.7821614187717
 20
45.57343150370345
 10
176.7821614187717
 20
65.57343150370346
 10
174.7821614187717
 20
65.57343150370346
  0
LWPOLYLINE
  5
4AB
330
1F
100
AcDbEntity
  8
0
100
AcDbPolyline
 90
        4
 70
     1
 43
0.0
 10
176.7821614187717
 20
45.57343150370345
 10
178.7821614187717
 20
45.57343150370345
 10
178.7821614187717
 20
65.57343150370346
 10
176.7821614187717
 20
65.57343150370346
  0
LWPOLYLINE
  5
4AC
330
1F
100
AcDbEntity
  8
0
100
AcDbPolyline
 90
        4
 70
     1
 43
0.0
 10
178.7821614187717
 20
45.57343150370345
 10
180.7821614187717
 20
45.57343150370345
 10
180.7821614187717
 20
65.57343150370346
 10
178.7821614187717
 20
65.57343150370346
  0
LWPOLYLINE
  5
4AD
330
1F
100
AcDbEntity
  8
0
100
AcDbPolyline
 90
        4
 70
     1
 43
0.0
 10
119.175950196863
 20
22.51273709104001
 10
140.3883726406804
 20
22.51273709104001
 10
140.3883726406804
 20
19.2671766908816
 10
119.175950196863
 20
19.2671766908816
  0
LWPOLYLINE
  5
4AE
330
1F
100
AcDbEntity
  8
0
100
AcDbPolyline
 90
        4
 70
     1
 43
0.0
 10
126.6508939209247
 20
19.2671766908816
 10
132.8587413426112
 20
19.2671766908816
 10
132.8587413426112
 20
16.57343150370346
 10
126.6508939209247
 20
16.57343150370346
  0
LINE
  5
4AF
330
1F
100
AcDbEntity
  8
0
100
AcDbLine
 10
126.1508939209247
 20
19.2671766908816
 30
0.0
 11
126.1508939209247
 21
16.57343150370346
 31
0.0
  0
LINE
  5
4B0
330
1F
100
AcDbEntity
  8
0
100
AcDbLine
 10
132.8587413426112
 20
19.2671766908816
 30
0.0
 11
133.3587413426112
 21
19.2671766908816
 31
0.0
  0
LINE
  5
4B1
330
1F
100
AcDbEntity
  8
0
100
AcDbLine
 10
133.3587413426112
 20
19.2671766908816
 30
0.0
 11
133.3587413426112
 21
16.57343150370346
 31
0.0
  0
LINE
  5
4B2
330
1F
100
AcDbEntity
  8
0
100
AcDbLine
 10
78.78216141877172
 20
43.57343150370346
 30
0.0
 11
78.78216141877172
 21
25.57343150370346
 31
0.0
  0
LINE
  5
4B3
330
1F
100
AcDbEntity
  8
0
100
AcDbLine
 10
180.7821614187717
 20
43.57343150370346
 30
0.0
 11
180.7821614187717
 21
25.57343150370346
 31
0.0
  0
LINE
  5
4B4
330
1F
100
AcDbEntity
  8
0
100
AcDbLine
 10
180.7821614187717
 20
43.57343150370346
 30
0.0
 11
78.78216141877172
 21
43.57343150370346
 31
0.0
  0
LWPOLYLINE
  5
4B5
330
1F
100
AcDbEntity
  8
0
 62
     4
100
AcDbPolyline
 90
        4
 70
     0
 43
0.0
 10
99.78216141877162
 20
42.28686821067825
 10
79.78216141877149
 20
42.28686821067825
 10
79.78216141877149
 20
26.28686821067825
 10
99.78216141877162
 20
26.28686821067825
  0
LWPOLYLINE
  5
4B6
330
1F
100
AcDbEntity
  8
0
 62
     4
100
AcDbPolyline
 90
        2
 70
     0
 43
0.0
 10
99.78216141877162
 20
27.78686821067825
 10
99.78216141877162
 20
34.28686821067825
  0
LINE
  5
4B7
330
1F
100
AcDbEntity
  8
0
 62
     4
100
AcDbLine
 10
89.7821614187716
 20
27.78686821067825
 30
0.0
 11
89.7821614187716
 21
34.28686821067825
 31
0.0
  0
LINE
  5
4B8
330
1F
100
AcDbEntity
  8
0
 62
     4
100
AcDbLine
 10
99.78216141877162
 20
34.28686821067825
 30
0.0
 11
79.78216141877149
 21
34.28686821067825
 31
0.0
  0
LINE
  5
4B9
330
1F
100
AcDbEntity
  8
0
 62
     4
100
AcDbLine
 10
94.7821614187716
 20
27.78686821067825
 30
0.0
 11
94.7821614187716
 21
34.28686821067825
 31
0.0
  0
LINE
  5
4BA
330
1F
100
AcDbEntity
  8
0
 62
     4
100
AcDbLine
 10
84.7821614187716
 20
27.78686821067825
 30
0.0
 11
84.7821614187716
 21
34.28686821067825
 31
0.0
  0
LINE
  5
4BB
330
1F
100
AcDbEntity
  8
0
 62
     4
100
AcDbLine
 10
99.78216141877162
 20
27.78686821067825
 30
0.0
 11
79.78216141877149
 21
27.78686821067825
 31
0.0
  0
LWPOLYLINE
  5
4BC
330
1F
100
AcDbEntity
  8
0
 62
     4
100
AcDbPolyline
 90
        4
 70
     1
 43
0.0
 10
99.40626191899244
 20
28.76501642235192
 10
95.15753580791956
 20
28.76501642235192
 10
95.15753580791956
 20
34.05956067919627
 10
99.40626191899244
 20
34.05956067919627
  0
LWPOLYLINE
  5
4BD
330
1F
100
AcDbEntity
  8
0
 62
     4
100
AcDbPolyline
 90
        4
 70
     1
 43
0.0
 10
94.40573680836136
 20
28.76501642235192
 10
90.15701069728848
 20
28.76501642235192
 10
90.15701069728848
 20
34.05956067919627
 10
94.40573680836136
 20
34.05956067919627
  0
LWPOLYLINE
  5
4BE
330
1F
100
AcDbEntity
  8
0
 62
     4
100
AcDbPolyline
 90
        4
 70
     1
 43
0.0
 10
89.41783847165757
 20
28.76501642235192
 10
85.1691123605847
 20
28.76501642235192
 10
85.1691123605847
 20
34.05956067919627
 10
89.41783847165757
 20
34.05956067919627
  0
LWPOLYLINE
  5
4BF
330
1F
100
AcDbEntity
  8
0
 62
     4
100
AcDbPolyline
 90
        4
 70
     1
 43
0.0
 10
84.39967107411034
 20
28.76501642235192
 10
80.15094496303735
 20
28.76501642235192
 10
80.15094496303735
 20
34.05956067919627
 10
84.39967107411034
 20
34.05956067919627
  0
LINE
  5
4C0
330
1F
100
AcDbEntity
  8
0
 62
     0
100
AcDbLine
 10
99.40626191899244
 20
32.2633861934892
 30
0.0
 11
95.15753580791956
 21
32.2633861934892
 31
0.0
  0
LINE
  5
4C1
330
1F
100
AcDbEntity
  8
0
 62
     0
100
AcDbLine
 10
94.40573680836136
 20
32.2633861934892
 30
0.0
 11
90.15701069728848
 21
32.2633861934892
 31
0.0
  0
LINE
  5
4C2
330
1F
100
AcDbEntity
  8
0
 62
     0
100
AcDbLine
 10
89.41783847165757
 20
32.2633861934892
 30
0.0
 11
85.1691123605847
 21
32.2633861934892
 31
0.0
  0
LINE
  5
4C3
330
1F
100
AcDbEntity
  8
0
 62
     0
100
AcDbLine
 10
84.39967107411034
 20
32.2633861934892
 30
0.0
 11
80.15094496303735
 21
32.2633861934892
 31
0.0
  0
LINE
  5
4C4
330
1F
100
AcDbEntity
  8
0
 62
     4
100
AcDbLine
 10
99.78216141877162
 20
41.78686821067825
 30
0.0
 11
79.78216141877149
 21
41.78686821067825
 31
0.0
  0
LWPOLYLINE
  5
4C5
330
1F
100
AcDbEntity
  8
0
 62
     4
100
AcDbPolyline
 90
        2
 70
     0
 43
0.0
 10
99.78216141877162
 20
34.28686821067825
 10
99.78216141877162
 20
27.78686821067825
  0
LWPOLYLINE
  5
4C6
330
1F
100
AcDbEntity
  8
0
 62
     4
100
AcDbPolyline
 90
        2
 70
     0
 43
0.0
 10
99.78216141877162
 20
26.28686821067825
 10
119.7821614187716
 20
26.28686821067825
  0
LWPOLYLINE
  5
4C7
330
1F
100
AcDbEntity
  8
0
 62
     4
100
AcDbPolyline
 90
        2
 70
     0
 43
0.0
 10
119.7821614187716
 20
27.78686821067825
 10
119.7821614187716
 20
34.28686821067825
  0
LWPOLYLINE
  5
4C8
330
1F
100
AcDbEntity
  8
0
 62
     4
100
AcDbPolyline
 90
        2
 70
     0
 43
0.0
 10
119.7821614187716
 20
42.28686821067825
 10
99.78216141877162
 20
42.28686821067825
  0
LINE
  5
4C9
330
1F
100
AcDbEntity
  8
0
 62
     4
100
AcDbLine
 10
109.7821614187716
 20
27.78686821067825
 30
0.0
 11
109.7821614187716
 21
34.28686821067825
 31
0.0
  0
LINE
  5
4CA
330
1F
100
AcDbEntity
  8
0
 62
     4
100
AcDbLine
 10
119.7821614187716
 20
34.28686821067825
 30
0.0
 11
99.78216141877162
 21
34.28686821067825
 31
0.0
  0
LINE
  5
4CB
330
1F
100
AcDbEntity
  8
0
 62
     4
100
AcDbLine
 10
114.7821614187716
 20
27.78686821067825
 30
0.0
 11
114.7821614187716
 21
34.28686821067825
 31
0.0
  0
LINE
  5
4CC
330
1F
100
AcDbEntity
  8
0
 62
     4
100
AcDbLine
 10
104.7821614187716
 20
27.78686821067825
 30
0.0
 11
104.7821614187716
 21
34.28686821067825
 31
0.0
  0
LINE
  5
4CD
330
1F
100
AcDbEntity
  8
0
 62
     4
100
AcDbLine
 10
119.7821614187716
 20
27.78686821067825
 30
0.0
 11
99.78216141877162
 21
27.78686821067825
 31
0.0
  0
LWPOLYLINE
  5
4CE
330
1F
100
AcDbEntity
  8
0
 62
     4
100
AcDbPolyline
 90
        4
 70
     1
 43
0.0
 10
119.4062619189924
 20
28.76501642235192
 10
115.1575358079196
 20
28.76501642235192
 10
115.1575358079196
 20
34.05956067919627
 10
119.4062619189924
 20
34.05956067919627
  0
LWPOLYLINE
  5
4CF
330
1F
100
AcDbEntity
  8
0
 62
     4
100
AcDbPolyline
 90
        4
 70
     1
 43
0.0
 10
114.4057368083614
 20
28.76501642235192
 10
110.1570106972885
 20
28.76501642235192
 10
110.1570106972885
 20
34.05956067919627
 10
114.4057368083614
 20
34.05956067919627
  0
LWPOLYLINE
  5
4D0
330
1F
100
AcDbEntity
  8
0
 62
     4
100
AcDbPolyline
 90
        4
 70
     1
 43
0.0
 10
109.4178384716576
 20
28.76501642235192
 10
105.1691123605847
 20
28.76501642235192
 10
105.1691123605847
 20
34.05956067919627
 10
109.4178384716576
 20
34.05956067919627
  0
LWPOLYLINE
  5
4D1
330
1F
100
AcDbEntity
  8
0
 62
     4
100
AcDbPolyline
 90
        4
 70
     1
 43
0.0
 10
104.3996710741103
 20
28.76501642235192
 10
100.1509449630374
 20
28.76501642235192
 10
100.1509449630374
 20
34.05956067919627
 10
104.3996710741103
 20
34.05956067919627
  0
LINE
  5
4D2
330
1F
100
AcDbEntity
  8
0
 62
     0
100
AcDbLine
 10
119.4062619189924
 20
32.2633861934892
 30
0.0
 11
115.1575358079196
 21
32.2633861934892
 31
0.0
  0
LINE
  5
4D3
330
1F
100
AcDbEntity
  8
0
 62
     0
100
AcDbLine
 10
114.4057368083614
 20
32.2633861934892
 30
0.0
 11
110.1570106972885
 21
32.2633861934892
 31
0.0
  0
LINE
  5
4D4
330
1F
100
AcDbEntity
  8
0
 62
     0
100
AcDbLine
 10
109.4178384716576
 20
32.2633861934892
 30
0.0
 11
105.1691123605847
 21
32.2633861934892
 31
0.0
  0
LINE
  5
4D5
330
1F
100
AcDbEntity
  8
0
 62
     0
100
AcDbLine
 10
104.3996710741103
 20
32.2633861934892
 30
0.0
 11
100.1509449630374
 21
32.2633861934892
 31
0.0
  0
LINE
  5
4D6
330
1F
100
AcDbEntity
  8
0
 62
     4
100
AcDbLine
 10
119.7821614187716
 20
41.78686821067825
 30
0.0
 11
99.78216141877162
 21
41.78686821067825
 31
0.0
  0
LWPOLYLINE
  5
4D7
330
1F
100
AcDbEntity
  8
0
 62
     4
100
AcDbPolyline
 90
        2
 70
     0
 43
0.0
 10
119.7821614187716
 20
34.28686821067825
 10
119.7821614187716
 20
27.78686821067825
  0
LWPOLYLINE
  5
4D8
330
1F
100
AcDbEntity
  8
0
 62
     4
100
AcDbPolyline
 90
        2
 70
     0
 43
0.0
 10
119.7821614187716
 20
26.28686821067825
 10
139.7821614187717
 20
26.28686821067825
  0
LWPOLYLINE
  5
4D9
330
1F
100
AcDbEntity
  8
0
 62
     4
100
AcDbPolyline
 90
        2
 70
     0
 43
0.0
 10
139.7821614187717
 20
27.78686821067825
 10
139.7821614187717
 20
34.28686821067825
  0
LWPOLYLINE
  5
4DA
330
1F
100
AcDbEntity
  8
0
 62
     4
100
AcDbPolyline
 90
        2
 70
     0
 43
0.0
 10
139.7821614187717
 20
42.28686821067825
 10
119.7821614187716
 20
42.28686821067825
  0
LINE
  5
4DB
330
1F
100
AcDbEntity
  8
0
 62
     4
100
AcDbLine
 10
129.7821614187717
 20
26.28686821067825
 30
0.0
 11
129.7821614187717
 21
42.28686821067825
 31
0.0
  0
LINE
  5
4DC
330
1F
100
AcDbEntity
  8
0
 62
     4
100
AcDbLine
 10
139.7821614187717
 20
34.28686821067825
 30
0.0
 11
119.7821614187716
 21
34.28686821067825
 31
0.0
  0
LINE
  5
4DD
330
1F
100
AcDbEntity
  8
0
 62
     4
100
AcDbLine
 10
134.7821614187717
 20
27.78686821067825
 30
0.0
 11
134.7821614187717
 21
34.28686821067825
 31
0.0
  0
LINE
  5
4DE
330
1F
100
AcDbEntity
  8
0
 62
     4
100
AcDbLine
 10
124.7821614187717
 20
27.78686821067825
 30
0.0
 11
124.7821614187717
 21
34.28686821067825
 31
0.0
  0
LINE
  5
4DF
330
1F
100
AcDbEntity
  8
0
 62
     4
100
AcDbLine
 10
139.7821614187717
 20
27.78686821067825
 30
0.0
 11
119.7821614187716
 21
27.78686821067825
 31
0.0
  0
LWPOLYLINE
  5
4E0
330
1F
100
AcDbEntity
  8
0
 62
     4
100
AcDbPolyline
 90
        4
 70
     1
 43
0.0
 10
139.4062619189925
 20
28.76501642235192
 10
135.1575358079196
 20
28.76501642235192
 10
135.1575358079196
 20
34.05956067919627
 10
139.4062619189925
 20
34.05956067919627
  0
LWPOLYLINE
  5
4E1
330
1F
100
AcDbEntity
  8
0
 62
     4
100
AcDbPolyline
 90
        4
 70
     1
 43
0.0
 10
134.4057368083614
 20
28.76501642235192
 10
130.1570106972885
 20
28.76501642235192
 10
130.1570106972885
 20
34.05956067919627
 10
134.4057368083614
 20
34.05956067919627
  0
LWPOLYLINE
  5
4E2
330
1F
100
AcDbEntity
  8
0
 62
     4
100
AcDbPolyline
 90
        4
 70
     1
 43
0.0
 10
129.4178384716576
 20
28.76501642235192
 10
125.1691123605848
 20
28.76501642235192
 10
125.1691123605848
 20
34.05956067919627
 10
129.4178384716576
 20
34.05956067919627
  0
LWPOLYLINE
  5
4E3
330
1F
100
AcDbEntity
  8
0
 62
     4
100
AcDbPolyline
 90
        4
 70
     1
 43
0.0
 10
124.3996710741104
 20
28.76501642235192
 10
120.1509449630375
 20
28.76501642235192
 10
120.1509449630375
 20
34.05956067919627
 10
124.3996710741104
 20
34.05956067919627
  0
LINE
  5
4E4
330
1F
100
AcDbEntity
  8
0
 62
     0
100
AcDbLine
 10
139.4062619189925
 20
32.2633861934892
 30
0.0
 11
135.1575358079196
 21
32.2633861934892
 31
0.0
  0
LINE
  5
4E5
330
1F
100
AcDbEntity
  8
0
 62
     0
100
AcDbLine
 10
134.4057368083614
 20
32.2633861934892
 30
0.0
 11
130.1570106972885
 21
32.2633861934892
 31
0.0
  0
LINE
  5
4E6
330
1F
100
AcDbEntity
  8
0
 62
     0
100
AcDbLine
 10
129.4178384716576
 20
32.2633861934892
 30
0.0
 11
125.1691123605848
 21
32.2633861934892
 31
0.0
  0
LINE
  5
4E7
330
1F
100
AcDbEntity
  8
0
 62
     0
100
AcDbLine
 10
124.3996710741104
 20
32.2633861934892
 30
0.0
 11
120.1509449630375
 21
32.2633861934892
 31
0.0
  0
LINE
  5
4E8
330
1F
100
AcDbEntity
  8
0
 62
     4
100
AcDbLine
 10
139.7821614187717
 20
41.78686821067825
 30
0.0
 11
119.7821614187716
 21
41.78686821067825
 31
0.0
  0
LWPOLYLINE
  5
4E9
330
1F
100
AcDbEntity
  8
0
 62
     4
100
AcDbPolyline
 90
        2
 70
     0
 43
0.0
 10
139.7821614187717
 20
34.28686821067825
 10
139.7821614187717
 20
27.78686821067825
  0
LWPOLYLINE
  5
4EA
330
1F
100
AcDbEntity
  8
0
 62
     4
100
AcDbPolyline
 90
        2
 70
     0
 43
0.0
 10
139.7821614187717
 20
26.28686821067825
 10
159.7821614187717
 20
26.28686821067825
  0
LWPOLYLINE
  5
4EB
330
1F
100
AcDbEntity
  8
0
 62
     4
100
AcDbPolyline
 90
        2
 70
     0
 43
0.0
 10
159.7821614187717
 20
27.78686821067825
 10
159.7821614187717
 20
34.28686821067825
  0
LWPOLYLINE
  5
4EC
330
1F
100
AcDbEntity
  8
0
 62
     4
100
AcDbPolyline
 90
        2
 70
     0
 43
0.0
 10
159.7821614187717
 20
42.28686821067825
 10
139.7821614187717
 20
42.28686821067825
  0
LINE
  5
4ED
330
1F
100
AcDbEntity
  8
0
 62
     4
100
AcDbLine
 10
149.7821614187718
 20
27.78686821067825
 30
0.0
 11
149.7821614187717
 21
34.28686821067825
 31
0.0
  0
LINE
  5
4EE
330
1F
100
AcDbEntity
  8
0
 62
     4
100
AcDbLine
 10
159.7821614187717
 20
34.28686821067825
 30
0.0
 11
139.7821614187717
 21
34.28686821067825
 31
0.0
  0
LINE
  5
4EF
330
1F
100
AcDbEntity
  8
0
 62
     4
100
AcDbLine
 10
154.7821614187717
 20
27.78686821067825
 30
0.0
 11
154.7821614187717
 21
34.28686821067825
 31
0.0
  0
LINE
  5
4F0
330
1F
100
AcDbEntity
  8
0
 62
     4
100
AcDbLine
 10
144.7821614187717
 20
27.78686821067825
 30
0.0
 11
144.7821614187717
 21
34.28686821067825
 31
0.0
  0
LINE
  5
4F1
330
1F
100
AcDbEntity
  8
0
 62
     4
100
AcDbLine
 10
159.7821614187717
 20
27.78686821067825
 30
0.0
 11
139.7821614187717
 21
27.78686821067825
 31
0.0
  0
LWPOLYLINE
  5
4F2
330
1F
100
AcDbEntity
  8
0
 62
     4
100
AcDbPolyline
 90
        4
 70
     1
 43
0.0
 10
159.4062619189926
 20
28.76501642235192
 10
155.1575358079197
 20
28.76501642235192
 10
155.1575358079197
 20
34.05956067919627
 10
159.4062619189926
 20
34.05956067919627
  0
LWPOLYLINE
  5
4F3
330
1F
100
AcDbEntity
  8
0
 62
     4
100
AcDbPolyline
 90
        4
 70
     1
 43
0.0
 10
154.4057368083615
 20
28.76501642235192
 10
150.1570106972886
 20
28.76501642235192
 10
150.1570106972886
 20
34.05956067919627
 10
154.4057368083615
 20
34.05956067919627
  0
LWPOLYLINE
  5
4F4
330
1F
100
AcDbEntity
  8
0
 62
     4
100
AcDbPolyline
 90
        4
 70
     1
 43
0.0
 10
149.4178384716577
 20
28.76501642235192
 10
145.1691123605848
 20
28.76501642235192
 10
145.1691123605848
 20
34.05956067919627
 10
149.4178384716577
 20
34.05956067919627
  0
LWPOLYLINE
  5
4F5
330
1F
100
AcDbEntity
  8
0
 62
     4
100
AcDbPolyline
 90
        4
 70
     1
 43
0.0
 10
144.3996710741104
 20
28.76501642235192
 10
140.1509449630375
 20
28.76501642235192
 10
140.1509449630375
 20
34.05956067919627
 10
144.3996710741104
 20
34.05956067919627
  0
LINE
  5
4F6
330
1F
100
AcDbEntity
  8
0
 62
     0
100
AcDbLine
 10
159.4062619189926
 20
32.2633861934892
 30
0.0
 11
155.1575358079197
 21
32.2633861934892
 31
0.0
  0
LINE
  5
4F7
330
1F
100
AcDbEntity
  8
0
 62
     0
100
AcDbLine
 10
154.4057368083615
 20
32.2633861934892
 30
0.0
 11
150.1570106972886
 21
32.2633861934892
 31
0.0
  0
LINE
  5
4F8
330
1F
100
AcDbEntity
  8
0
 62
     0
100
AcDbLine
 10
149.4178384716577
 20
32.2633861934892
 30
0.0
 11
145.1691123605848
 21
32.2633861934892
 31
0.0
  0
LINE
  5
4F9
330
1F
100
AcDbEntity
  8
0
 62
     0
100
AcDbLine
 10
144.3996710741104
 20
32.2633861934892
 30
0.0
 11
140.1509449630375
 21
32.2633861934892
 31
0.0
  0
LINE
  5
4FA
330
1F
100
AcDbEntity
  8
0
 62
     4
100
AcDbLine
 10
159.7821614187717
 20
41.78686821067825
 30
0.0
 11
139.7821614187717
 21
41.78686821067825
 31
0.0
  0
LWPOLYLINE
  5
4FB
330
1F
100
AcDbEntity
  8
0
 62
     4
100
AcDbPolyline
 90
        2
 70
     0
 43
0.0
 10
159.7821614187717
 20
34.28686821067825
 10
159.7821614187717
 20
27.78686821067825
  0
LWPOLYLINE
  5
4FC
330
1F
100
AcDbEntity
  8
0
 62
     4
100
AcDbPolyline
 90
        4
 70
     0
 43
0.0
 10
159.7821614187717
 20
26.28686821067825
 10
179.7821614187718
 20
26.28686821067825
 10
179.7821614187718
 20
42.28686821067825
 10
159.7821614187717
 20
42.28686821067825
  0
LINE
  5
4FD
330
1F
100
AcDbEntity
  8
0
 62
     4
100
AcDbLine
 10
169.7821614187718
 20
27.78686821067825
 30
0.0
 11
169.7821614187718
 21
34.28686821067825
 31
0.0
  0
LINE
  5
4FE
330
1F
100
AcDbEntity
  8
0
 62
     4
100
AcDbLine
 10
179.7821614187718
 20
34.28686821067825
 30
0.0
 11
159.7821614187717
 21
34.28686821067825
 31
0.0
  0
LINE
  5
4FF
330
1F
100
AcDbEntity
  8
0
 62
     4
100
AcDbLine
 10
174.7821614187718
 20
27.78686821067825
 30
0.0
 11
174.7821614187718
 21
34.28686821067825
 31
0.0
  0
LINE
  5
500
330
1F
100
AcDbEntity
  8
0
 62
     4
100
AcDbLine
 10
179.7821614187718
 20
26.28686821067825
 30
0.0
 11
179.7821614187718
 21
27.78686821067825
 31
0.0
  0
LINE
  5
501
330
1F
100
AcDbEntity
  8
0
 62
     4
100
AcDbLine
 10
164.7821614187718
 20
27.78686821067825
 30
0.0
 11
164.7821614187718
 21
34.28686821067825
 31
0.0
  0
LINE
  5
502
330
1F
100
AcDbEntity
  8
0
 62
     4
100
AcDbLine
 10
179.7821614187718
 20
27.78686821067825
 30
0.0
 11
159.7821614187717
 21
27.78686821067825
 31
0.0
  0
LWPOLYLINE
  5
503
330
1F
100
AcDbEntity
  8
0
 62
     4
100
AcDbPolyline
 90
        4
 70
     1
 43
0.0
 10
179.4062619189926
 20
28.76501642235192
 10
175.1575358079197
 20
28.76501642235192
 10
175.1575358079197
 20
34.05956067919627
 10
179.4062619189926
 20
34.05956067919627
  0
LWPOLYLINE
  5
504
330
1F
100
AcDbEntity
  8
0
 62
     4
100
AcDbPolyline
 90
        4
 70
     1
 43
0.0
 10
174.4057368083615
 20
28.76501642235192
 10
170.1570106972887
 20
28.76501642235192
 10
170.1570106972887
 20
34.05956067919627
 10
174.4057368083615
 20
34.05956067919627
  0
LWPOLYLINE
  5
505
330
1F
100
AcDbEntity
  8
0
 62
     4
100
AcDbPolyline
 90
        4
 70
     1
 43
0.0
 10
169.4178384716577
 20
28.76501642235192
 10
165.1691123605849
 20
28.76501642235192
 10
165.1691123605849
 20
34.05956067919627
 10
169.4178384716577
 20
34.05956067919627
  0
LWPOLYLINE
  5
506
330
1F
100
AcDbEntity
  8
0
 62
     4
100
AcDbPolyline
 90
        4
 70
     1
 43
0.0
 10
164.3996710741105
 20
28.76501642235192
 10
160.1509449630376
 20
28.76501642235192
 10
160.1509449630376
 20
34.05956067919627
 10
164.3996710741105
 20
34.05956067919627
  0
LINE
  5
507
330
1F
100
AcDbEntity
  8
0
 62
     0
100
AcDbLine
 10
179.4062619189926
 20
32.2633861934892
 30
0.0
 11
175.1575358079197
 21
32.2633861934892
 31
0.0
  0
LINE
  5
508
330
1F
100
AcDbEntity
  8
0
 62
     0
100
AcDbLine
 10
174.4057368083615
 20
32.2633861934892
 30
0.0
 11
170.1570106972887
 21
32.2633861934892
 31
0.0
  0
LINE
  5
509
330
1F
100
AcDbEntity
  8
0
 62
     0
100
AcDbLine
 10
169.4178384716577
 20
32.2633861934892
 30
0.0
 11
165.1691123605849
 21
32.2633861934892
 31
0.0
  0
LINE
  5
50A
330
1F
100
AcDbEntity
  8
0
 62
     0
100
AcDbLine
 10
164.3996710741105
 20
32.2633861934892
 30
0.0
 11
160.1509449630376
 21
32.2633861934892
 31
0.0
  0
LINE
  5
50B
330
1F
100
AcDbEntity
  8
0
 62
     4
100
AcDbLine
 10
179.7821614187718
 20
42.28686821067825
 30
0.0
 11
179.7821614187718
 21
41.78686821067825
 31
0.0
  0
LINE
  5
50C
330
1F
100
AcDbEntity
  8
0
 62
     4
100
AcDbLine
 10
179.7821614187718
 20
41.78686821067825
 30
0.0
 11
159.7821614187717
 21
41.78686821067825
 31
0.0
  0
ARC
  5
50D
102
{ACAD_REACTORS
330
516
330
519
102
}
330
1F
100
AcDbEntity
  8
0
100
AcDbCircle
 10
71.81249150552358
 20
70.29310141781391
 30
0.0
 40
1.310660171779521
100
AcDbArc
 50
102.3501001262013
 51
167.6498998737891
  0
ARC
  5
50E
330
1F
100
AcDbEntity
  8
0
100
AcDbCircle
 10
71.81249150552358
 20
64.29310141781392
 30
0.0
 40
1.310660171779521
100
AcDbArc
 50
102.3501001262013
 51
167.6498998737891
  0
LINE
  5
50F
330
1F
100
AcDbEntity
  8
0
100
AcDbLine
 10
70.53216141963392
 20
65.57343150370346
 30
0.0
 11
70.53216141963392
 21
64.57343150370346
 31
0.0
  0
ARC
  5
510
330
1F
100
AcDbEntity
  8
0
100
AcDbCircle
 10
71.81249150552358
 20
44.29310141781392
 30
0.0
 40
1.310660171779521
100
AcDbArc
 50
102.3501001262013
 51
167.6498998737891
  0
ARC
  5
511
102
{ACAD_REACTORS
330
516
102
}
330
1F
100
AcDbEntity
  8
0
100
AcDbCircle
 10
187.7575068486155
 20
70.29877693440951
 30
0.0
 40
1.303909277310461
100
AcDbArc
 50
12.15982091124337
 51
77.84017908875933
  0
ARC
  5
512
330
1F
100
AcDbEntity
  8
0
100
AcDbCircle
 10
187.7575068486155
 20
64.29877693440952
 30
0.0
 40
1.303909277310461
100
AcDbArc
 50
12.15982091124337
 51
77.84017908875933
  0
ARC
  5
513
330
1F
100
AcDbEntity
  8
0
100
AcDbCircle
 10
187.7575068486155
 20
44.29877693440952
 30
0.0
 40
1.303909277310461
100
AcDbArc
 50
12.15982091124337
 51
77.84017908875933
  0
DIMENSION
  5
514
102
{ACAD_XDICTIONARY
360
515
102
}
102
{ACAD_REACTORS
330
516
102
}
330
1F
100
AcDbEntity
  8
0
370
    40
100
AcDbDimension
  2
*D15
 10
189.0321614179096
 20
82.47762981562154
 30
0.0
 11
129.7821614187718
 21
93.22787981562155
 31
0.0
 70
    32
  1
{\H0.7667x;\C256;119}
 71
     5
 42
118.4999999982756
  3
TRIEU
100
AcDbAlignedDimension
 13
70.53216141963396
 23
70.57343150370378
 33
0.0
 14
189.0321614179096
 24
70.57343150370378
 34
0.0
100
AcDbRotatedDimension
  0
DIMENSION
  5
517
102
{ACAD_XDICTIONARY
360
518
102
}
102
{ACAD_REACTORS
330
519
102
}
330
1F
100
AcDbEntity
  8
0
370
    40
100
AcDbDimension
  2
*D16
 10
57.3475767442371
 20
71.57343150370346
 30
0.0
 11
46.59732674423708
 21
44.07343150370347
 31
0.0
 70
    32
  1
{\H0.7667x;\C256;55}
 71
     5
 42
55.0
  3
TRIEU
100
AcDbAlignedDimension
 13
70.53216141963392
 23
16.57343150370346
 33
0.0
 14
71.53216141963392
 24
71.57343150370346
 34
0.0
 50
90.0
100
AcDbRotatedDimension
  0
LINE
  5
51A
330
1F
100
AcDbEntity
  8
0
100
AcDbLine
 10
226.4207403128306
 20
16.57343150370346
 30
0.0
 11
259.1236395954713
 21
16.57343150370346
 31
0.0
  0
LINE
  5
51B
330
1F
100
AcDbEntity
  8
0
100
AcDbLine
 10
289.0889359451163
 20
16.57343150370346
 30
0.0
 11
326.4207403128306
 21
16.57343150370346
 31
0.0
  0
LINE
  5
51C
330
1F
100
AcDbEntity
  8
0
100
AcDbLine
 10
326.4207403128306
 20
16.57343150370346
 30
0.0
 11
326.4207403128306
 21
44.57343150370346
 31
0.0
  0
LINE
  5
51D
330
1F
100
AcDbEntity
  8
0
100
AcDbLine
 10
226.4207403128306
 20
44.57343150370346
 30
0.0
 11
226.4207403128306
 21
16.57343150370346
 31
0.0
  0
LINE
  5
51E
330
1F
100
AcDbEntity
  8
0
100
AcDbLine
 10
226.4207403128306
 20
21.57343150370346
 30
0.0
 11
326.4207403128306
 21
21.57343150370346
 31
0.0
  0
LINE
  5
51F
330
1F
100
AcDbEntity
  8
0
100
AcDbLine
 10
226.4207403128306
 20
25.57343150370346
 30
0.0
 11
326.4207403128306
 21
25.57343150370346
 31
0.0
  0
LINE
  5
520
330
1F
100
AcDbEntity
  8
0
100
AcDbLine
 10
296.4207403128306
 20
21.57343150370346
 30
0.0
 11
276.4207403128306
 21
21.57343150370346
 31
0.0
  0
LINE
  5
521
330
1F
100
AcDbEntity
  8
0
100
AcDbLine
 10
256.4207403128306
 20
21.57343150370346
 30
0.0
 11
256.4207403128306
 21
16.57343150370346
 31
0.0
  0
LINE
  5
522
330
1F
100
AcDbEntity
  8
0
100
AcDbLine
 10
296.4207403128306
 20
21.57343150370346
 30
0.0
 11
296.4207403128306
 21
16.57343150370346
 31
0.0
  0
LINE
  5
523
330
1F
100
AcDbEntity
  8
0
100
AcDbLine
 10
296.4207403128306
 20
19.61884570760642
 30
0.0
 11
289.0889359451163
 21
18.09613860565517
 31
0.0
  0
LINE
  5
524
330
1F
100
AcDbEntity
  8
0
100
AcDbLine
 10
289.0889359451163
 20
18.09613860565517
 30
0.0
 11
289.0889359451163
 21
16.57343150370346
 31
0.0
  0
LINE
  5
525
330
1F
100
AcDbEntity
  8
0
100
AcDbLine
 10
256.4207403128306
 20
16.57343150370346
 30
0.0
 11
259.1236395954712
 21
16.57343150370346
 31
0.0
  0
LINE
  5
526
330
1F
100
AcDbEntity
  8
0
100
AcDbLine
 10
259.1236395954713
 20
16.57343150370346
 30
0.0
 11
263.7207403128306
 21
19.07343150370346
 31
0.0
  0
LINE
  5
527
330
1F
100
AcDbEntity
  8
0
100
AcDbLine
 10
263.7207403128306
 20
19.07343150370346
 30
0.0
 11
263.7207403128306
 21
19.69127055168476
 31
0.0
  0
LINE
  5
528
330
1F
100
AcDbEntity
  8
0
100
AcDbLine
 10
262.8412512757699
 20
20.30910959966562
 30
0.0
 11
256.4207403128306
 21
20.30910959966562
 31
0.0
  0
LINE
  5
529
330
1F
100
AcDbEntity
  8
0
100
AcDbLine
 10
263.7207403128306
 20
19.69127055168476
 30
0.0
 11
262.8412512757698
 21
20.30910959966562
 31
0.0
  0
LWPOLYLINE
  5
52A
330
1F
100
AcDbEntity
  8
0
100
AcDbPolyline
 90
        4
 70
     1
 43
0.0
 10
272.0756893894845
 20
27.22375783136184
 10
280.4456786921521
 20
27.22375783136184
 10
280.4456786921521
 20
31.55539733737263
 10
272.0756893894845
 20
31.55539733737263
  0
LINE
  5
52B
330
1F
100
AcDbEntity
  8
0
100
AcDbLine
 10
272.0756893894845
 20
30.65666489512526
 30
0.0
 11
280.4456786921521
 21
30.65666489512526
 31
0.0
  0
LINE
  5
52C
330
1F
100
AcDbEntity
  8
0
100
AcDbLine
 10
226.4207403128306
 20
25.57343150370346
 30
0.0
 11
226.4207403128306
 21
44.57343150370346
 31
0.0
  0
LINE
  5
52D
330
1F
100
AcDbEntity
  8
0
100
AcDbLine
 10
227.4207403128308
 20
45.57343150370345
 30
0.0
 11
239.4207403128306
 21
45.57343150370345
 31
0.0
  0
LINE
  5
52E
330
1F
100
AcDbEntity
  8
0
100
AcDbLine
 10
313.4207403128306
 20
45.57343150370345
 30
0.0
 11
325.4207403128306
 21
45.57343150370345
 31
0.0
  0
LINE
  5
52F
330
1F
100
AcDbEntity
  8
0
100
AcDbLine
 10
239.3451698891031
 20
65.57343150370346
 30
0.0
 11
247.4207403128307
 21
65.57343150370368
 31
0.0
  0
LINE
  5
530
330
1F
100
AcDbEntity
  8
0
100
AcDbLine
 10
305.4207403128306
 20
65.57343150370346
 30
0.0
 11
313.4207403128306
 21
65.57343150370346
 31
0.0
  0
LINE
  5
531
330
1F
100
AcDbEntity
  8
0
100
AcDbLine
 10
239.4207403128306
 20
45.57343150370345
 30
0.0
 11
239.4207403128306
 21
64.59234773476876
 31
0.0
  0
LINE
  5
532
330
1F
100
AcDbEntity
  8
0
100
AcDbLine
 10
325.4207403128305
 20
45.57343150370345
 30
0.0
 11
313.4207403128306
 21
45.57343150370345
 31
0.0
  0
LINE
  5
533
330
1F
100
AcDbEntity
  8
0
100
AcDbLine
 10
313.4207403128306
 20
45.57343150370345
 30
0.0
 11
313.4207403128306
 21
64.57343150370346
 31
0.0
  0
LINE
  5
534
330
1F
100
AcDbEntity
  8
0
100
AcDbLine
 10
239.4207403128306
 20
65.57343150370346
 30
0.0
 11
247.4207403128306
 21
65.57343150370346
 31
0.0
  0
LINE
  5
535
330
1F
100
AcDbEntity
  8
0
100
AcDbLine
 10
247.4207403128306
 20
65.57343150370346
 30
0.0
 11
247.4207403128306
 21
70.57343150370346
 31
0.0
  0
LINE
  5
536
330
1F
100
AcDbEntity
  8
0
100
AcDbLine
 10
313.4207403128306
 20
65.57343150370346
 30
0.0
 11
305.4207403128306
 21
65.57343150370346
 31
0.0
  0
LINE
  5
537
330
1F
100
AcDbEntity
  8
0
100
AcDbLine
 10
305.4207403128306
 20
65.57343150370346
 30
0.0
 11
305.4207403128306
 21
70.57343150370346
 31
0.0
  0
LINE
  5
538
330
1F
100
AcDbEntity
  8
0
100
AcDbLine
 10
239.4207403128306
 20
65.57343150370346
 30
0.0
 11
239.3451698891028
 21
65.57343150370346
 31
0.0
  0
LINE
  5
539
330
1F
100
AcDbEntity
  8
0
100
AcDbLine
 10
238.4207403128306
 20
64.59234773476876
 30
0.0
 11
238.4207403128306
 21
45.57343150370345
 31
0.0
  0
LINE
  5
53A
330
1F
100
AcDbEntity
  8
0
100
AcDbLine
 10
313.4207403128306
 20
45.57343150370345
 30
0.0
 11
314.4207403128306
 21
45.57343150370345
 31
0.0
  0
LINE
  5
53B
330
1F
100
AcDbEntity
  8
0
100
AcDbLine
 10
314.4207403128306
 20
45.57343150370345
 30
0.0
 11
314.4207403128306
 21
64.57343150370346
 31
0.0
  0
LINE
  5
53C
330
1F
100
AcDbEntity
  8
0
100
AcDbLine
 10
276.4207403128306
 20
71.57343150370346
 30
0.0
 11
273.9207403128306
 21
71.57343150370346
 31
0.0
  0
LINE
  5
53D
330
1F
100
AcDbEntity
  8
0
100
AcDbLine
 10
276.4207403128306
 20
71.57343150370346
 30
0.0
 11
278.9207403128306
 21
71.57343150370346
 31
0.0
  0
LINE
  5
53E
330
1F
100
AcDbEntity
  8
0
100
AcDbLine
 10
274.8263742692067
 20
71.57343150370346
 30
0.0
 11
271.8263742692067
 21
71.57343150370346
 31
0.0
  0
LINE
  5
53F
330
1F
100
AcDbEntity
  8
0
100
AcDbLine
 10
276.4207403128306
 20
71.57343150370346
 30
0.0
 11
279.4207403128306
 21
71.57343150370346
 31
0.0
  0
LINE
  5
540
330
1F
100
AcDbEntity
  8
0
100
AcDbLine
 10
248.4207403128308
 20
71.57343150370346
 30
0.0
 11
274.8263742692067
 21
71.57343150370346
 31
0.0
  0
LINE
  5
541
102
{ACAD_REACTORS
330
56A
102
}
330
1F
100
AcDbEntity
  8
0
100
AcDbLine
 10
277.4679233346426
 20
71.57343150370346
 30
0.0
 11
304.4207403128305
 21
71.57343150370346
 31
0.0
  0
ARC
  5
542
330
1F
100
AcDbEntity
  8
0
100
AcDbCircle
 10
248.7010703987203
 20
70.29310141781391
 30
0.0
 40
1.310660171779521
100
AcDbArc
 50
102.3501001262013
 51
167.6498998738017
  0
ARC
  5
543
330
1F
100
AcDbEntity
  8
0
100
AcDbCircle
 10
239.7010703987203
 20
64.31201764887899
 30
0.0
 40
1.310660171779521
100
AcDbArc
 50
105.7561011091591
 51
167.6498998738017
  0
ARC
  5
544
330
1F
100
AcDbEntity
  8
0
100
AcDbCircle
 10
227.7010703987203
 20
44.29310141781392
 30
0.0
 40
1.310660171779521
100
AcDbArc
 50
102.3501001262013
 51
167.6498998738017
  0
ARC
  5
545
330
1F
100
AcDbEntity
  8
0
100
AcDbCircle
 10
240.7010703987203
 20
64.31201764887899
 30
0.0
 40
1.310660171779521
100
AcDbArc
 50
105.7561011091591
 51
167.6498998738017
  0
ARC
  5
546
102
{ACAD_REACTORS
330
56A
102
}
330
1F
100
AcDbEntity
  8
0
100
AcDbCircle
 10
304.1460857435366
 20
70.29877693440951
 30
0.0
 40
1.303909277310461
100
AcDbArc
 50
12.15982091124337
 51
77.84017908875601
  0
ARC
  5
547
330
1F
100
AcDbEntity
  8
0
100
AcDbCircle
 10
313.1460857435365
 20
64.29877693440952
 30
0.0
 40
1.303909277310461
100
AcDbArc
 50
12.15982091124337
 51
77.84017908875601
  0
ARC
  5
548
330
1F
100
AcDbEntity
  8
0
100
AcDbCircle
 10
325.1460857435366
 20
44.29877693440952
 30
0.0
 40
1.303909277310461
100
AcDbArc
 50
12.15982091124337
 51
77.84017908875601
  0
ARC
  5
549
330
1F
100
AcDbEntity
  8
0
100
AcDbCircle
 10
312.1460857435366
 20
64.29877693440952
 30
0.0
 40
1.303909277310461
100
AcDbArc
 50
12.15982091124337
 51
77.84017908875601
  0
LINE
  5
54A
330
1F
100
AcDbEntity
  8
0
100
AcDbLine
 10
226.4207403128306
 20
26.28686821067825
 30
0.0
 11
326.4207403128306
 21
26.28686821067825
 31
0.0
  0
LINE
  5
54B
330
1F
100
AcDbEntity
  8
0
 62
     4
100
AcDbLine
 10
326.4207403128306
 20
26.28686821067825
 30
0.0
 11
338.4207403128306
 21
26.28686821067825
 31
0.0
  0
LINE
  5
54C
330
1F
100
AcDbEntity
  8
0
 62
     4
100
AcDbLine
 10
338.4207403128306
 20
26.28686821067825
 30
0.0
 11
338.4207403128306
 21
42.28686821067825
 31
0.0
  0
LINE
  5
54D
330
1F
100
AcDbEntity
  8
0
 62
     4
100
AcDbLine
 10
338.4207403128306
 20
42.28686821067825
 30
0.0
 11
331.9207403128306
 21
42.28686821067825
 31
0.0
  0
LINE
  5
54E
330
1F
100
AcDbEntity
  8
0
 62
     4
100
AcDbLine
 10
330.4207403128306
 20
36.79770334636126
 30
0.0
 11
330.4207403128306
 21
26.28686821067825
 31
0.0
  0
LINE
  5
54F
330
1F
100
AcDbEntity
  8
0
 62
     4
100
AcDbLine
 10
330.4207403128306
 20
34.28686821067825
 30
0.0
 11
326.4207403128306
 21
34.28686821067825
 31
0.0
  0
LINE
  5
550
330
1F
100
AcDbEntity
  8
0
 62
     4
100
AcDbLine
 10
331.9207403128306
 20
42.28686821067825
 30
0.0
 11
330.4207403128306
 21
36.79770334636126
 31
0.0
  0
LINE
  5
551
330
1F
100
AcDbEntity
  8
0
 62
     4
100
AcDbLine
 10
330.4207403128306
 20
35.19255983863244
 30
0.0
 11
328.0964632168738
 21
34.73971402465534
 31
0.0
  0
LINE
  5
552
330
1F
100
AcDbEntity
  8
0
 62
     4
100
AcDbLine
 10
328.0964632168738
 20
34.73971402465534
 30
0.0
 11
328.0964632168738
 21
34.28686821067825
 31
0.0
  0
LINE
  5
553
330
1F
100
AcDbEntity
  8
0
 62
     4
100
AcDbLine
 10
338.4207403128306
 20
42.28686821067825
 30
0.0
 11
337.6207403128307
 21
42.28686821067825
 31
0.0
  0
LINE
  5
554
330
1F
100
AcDbEntity
  8
0
 62
     4
100
AcDbLine
 10
226.4207403128306
 20
26.28686821067825
 30
0.0
 11
214.4207403128306
 21
26.28686821067825
 31
0.0
  0
LINE
  5
555
330
1F
100
AcDbEntity
  8
0
 62
     4
100
AcDbLine
 10
214.4207403128306
 20
26.28686821067825
 30
0.0
 11
214.4207403128306
 21
42.28686821067825
 31
0.0
  0
LINE
  5
556
330
1F
100
AcDbEntity
  8
0
 62
     4
100
AcDbLine
 10
214.4207403128306
 20
42.28686821067825
 30
0.0
 11
220.9207403128306
 21
42.28686821067825
 31
0.0
  0
LINE
  5
557
330
1F
100
AcDbEntity
  8
0
 62
     4
100
AcDbLine
 10
214.4207403128306
 20
26.28686821067825
 30
0.0
 11
222.4207403128306
 21
26.28686821067825
 31
0.0
  0
LINE
  5
558
330
1F
100
AcDbEntity
  8
0
 62
     4
100
AcDbLine
 10
222.4207403128306
 20
26.28686821067825
 30
0.0
 11
222.4207403128306
 21
36.79770334636126
 31
0.0
  0
LINE
  5
559
330
1F
100
AcDbEntity
  8
0
 62
     4
100
AcDbLine
 10
222.4207403128306
 20
34.28686821067825
 30
0.0
 11
226.4207403128306
 21
34.28686821067825
 31
0.0
  0
LINE
  5
55A
330
1F
100
AcDbEntity
  8
0
 62
     4
100
AcDbLine
 10
226.4207403128306
 20
34.28686821067825
 30
0.0
 11
224.7207403128306
 21
34.28686821067825
 31
0.0
  0
LINE
  5
55B
330
1F
100
AcDbEntity
  8
0
 62
     4
100
AcDbLine
 10
224.7207403128306
 20
34.28686821067825
 30
0.0
 11
224.7207403128306
 21
34.78686821067825
 31
0.0
  0
LINE
  5
55C
330
1F
100
AcDbEntity
  8
0
 62
     4
100
AcDbLine
 10
222.4207403128306
 20
35.19255983863244
 30
0.0
 11
224.7207403128306
 21
34.78686821067825
 31
0.0
  0
LINE
  5
55D
330
1F
100
AcDbEntity
  8
0
 62
     4
100
AcDbLine
 10
214.4207403128306
 20
42.28686821067825
 30
0.0
 11
220.9207403128306
 21
42.28686821067825
 31
0.0
  0
LINE
  5
55E
330
1F
100
AcDbEntity
  8
0
 62
     4
100
AcDbLine
 10
220.9207403128306
 20
42.28686821067825
 30
0.0
 11
222.4207403128306
 21
36.79770334636126
 31
0.0
  0
LINE
  5
55F
330
1F
100
AcDbEntity
  8
0
 62
     4
100
AcDbLine
 10
214.4207403128306
 20
26.28686821067825
 30
0.0
 11
215.2207403128306
 21
26.28686821067825
 31
0.0
  0
LWPOLYLINE
  5
560
330
1F
100
AcDbEntity
  8
0
100
AcDbPolyline
 90
        4
 70
     1
 43
0.0
 10
226.4207403128306
 20
16.57343150370346
 10
222.8404923303455
 20
16.57343150370346
 10
222.8404923303455
 20
19.2671766908816
 10
226.4207403128306
 20
19.2671766908816
  0
LINE
  5
561
102
{ACAD_REACTORS
330
567
102
}
330
1F
100
AcDbEntity
  8
0
 62
     4
100
AcDbLine
 10
214.4207403128306
 20
26.28686821067825
 30
0.0
 11
214.9206320678279
 21
26.27646468792389
 31
0.0
  0
LINE
  5
562
330
1F
100
AcDbEntity
  8
0
 62
     4
100
AcDbLine
 10
214.9206320678279
 20
26.27646468792389
 30
0.0
 11
214.9206320678279
 21
42.28686821067825
 31
0.0
  0
LINE
  5
563
102
{ACAD_REACTORS
330
567
102
}
330
1F
100
AcDbEntity
  8
0
 62
     4
100
AcDbLine
 10
338.4207403128306
 20
26.28686821067825
 30
0.0
 11
337.9207403128306
 21
26.28686821067825
 31
0.0
  0
LINE
  5
564
330
1F
100
AcDbEntity
  8
0
 62
     4
100
AcDbLine
 10
337.9207403128306
 20
26.28686821067825
 30
0.0
 11
337.9207403128306
 21
42.28686821067825
 31
0.0
  0
DIMENSION
  5
565
102
{ACAD_XDICTIONARY
360
566
102
}
102
{ACAD_REACTORS
330
567
102
}
330
1F
100
AcDbEntity
  8
0
370
    40
100
AcDbDimension
  2
*D17
 10
338.4207403128306
 20
82.47762981562122
 30
0.0
 11
276.4207403128306
 21
93.2278798156212
 31
0.0
 70
    32
  1
{\H0.7667x;\C256;124}
 71
     5
 42
124.0
  3
TRIEU
100
AcDbAlignedDimension
 13
214.4207403128306
 23
26.28686821067825
 33
0.0
 14
338.4207403128306
 24
26.28686821067825
 34
0.0
100
AcDbRotatedDimension
  0
DIMENSION
  5
568
102
{ACAD_XDICTIONARY
360
569
102
}
102
{ACAD_REACTORS
330
56A
102
}
330
1F
100
AcDbEntity
  8
0
370
    40
100
AcDbDimension
  2
*D18
 10
364.7039520620971
 20
16.57343150370343
 30
0.0
 11
353.9537020620971
 21
44.07343150370349
 31
0.0
 70
    32
  1
{\H0.7667x;\C256;55}
 71
     5
 42
55.0
  3
TRIEU
100
AcDbAlignedDimension
 13
304.4207403128309
 23
71.57343150370346
 33
0.0
 14
304.4207403128309
 24
16.57343150370346
 34
0.0
 50
90.0
100
AcDbRotatedDimension
  0
DIMENSION
  5
56B
330
1F
100
AcDbEntity
  8
0
370
    40
100
AcDbDimension
  2
*D11
 10
214.4207403128306
 20
127.550013433814
 30
0.0
 11
203.6704903128306
 21
177.8000134330828
 31
0.0
 70
    32
  1
{\H0.7667x;\C256;101}
 71
     5
 42
100.4999999985375
  3
TRIEU
100
AcDbAlignedDimension
 13
189.0321614179095
 23
228.0500134323516
 33
0.0
 14
189.0321614179095
 24
127.550013433814
 34
0.0
 50
90.0
100
AcDbRotatedDimension
  0
DIMENSION
  5
56C
330
1F
100
AcDbEntity
  8
0
370
    40
100
AcDbDimension
  2
*D12
 10
242.3913838236271
 20
115.0924446266717
 30
0.0
 11
231.641133823627
 21
177.8000134330974
 31
0.0
 70
    32
  1
{\H0.7667x;\C256;125}
 71
     5
 42
125.4151376128512
  3
TRIEU
100
AcDbAlignedDimension
 13
180.2821614180368
 23
240.507582239523
 33
0.0
 14
180.2821614180368
 24
115.0924446266718
 34
0.0
 50
90.0
100
AcDbRotatedDimension
  0
DIMENSION
  5
56D
330
1F
100
AcDbEntity
  8
0
370
    40
100
AcDbDimension
  2
*D13
 10
180.2821614180368
 20
250.9191825877438
 30
0.0
 11
129.282161418779
 21
261.6694325877438
 31
0.0
 70
    32
  1
{\H0.7667x;\C256;102}
 71
     5
 42
101.9999999985157
  3
TRIEU
100
AcDbAlignedDimension
 13
78.28216141952115
 23
240.507582239523
 33
0.0
 14
180.2821614180368
 24
240.4490960009945
 34
0.0
100
AcDbRotatedDimension
  0
DIMENSION
  5
56E
330
1F
100
AcDbEntity
  8
0
370
    40
100
AcDbDimension
  2
*D14
 10
189.0321614179095
 20
271.8779270153305
 30
0.0
 11
129.7821614187717
 21
282.6281770153304
 31
0.0
 70
    32
  1
{\H0.7667x;\C256;119}
 71
     5
 42
118.4999999982756
  3
TRIEU
100
AcDbAlignedDimension
 13
70.53216141963392
 23
228.0500134323516
 33
0.0
 14
189.0321614179095
 24
228.0500134323516
 34
0.0
100
AcDbRotatedDimension
  0
ENDSEC
  0
SECTION
  2
OBJECTS
  0
DICTIONARY
  5
C
330
0
100
AcDbDictionary
281
     1
  3
ACAD_COLOR
350
73
  3
ACAD_GROUP
350
D
  3
ACAD_LAYOUT
350
1A
  3
ACAD_MATERIAL
350
72
  3
ACAD_MLINESTYLE
350
17
  3
ACAD_PLOTSETTINGS
350
19
  3
ACAD_PLOTSTYLENAME
350
E
  3
ACAD_TABLESTYLE
350
86
  3
ACAD_VISUALSTYLE
350
99
  3
AcDbVariableDictionary
350
66
  3
DWGPROPS
350
607
  0
DICTIONARY
  5
122
330
2
100
AcDbDictionary
280
     1
281
     1
  3
ACAD_LAYERSTATES
360
123
  0
DICTIONARY
  5
515
330
514
100
AcDbDictionary
280
     1
281
     1
  3
ACAD_DIMASSOC
360
516
  0
DICTIONARY
  5
518
330
517
100
AcDbDictionary
280
     1
281
     1
  3
ACAD_DIMASSOC
360
519
  0
DICTIONARY
  5
566
330
565
100
AcDbDictionary
280
     1
281
     1
  3
ACAD_DIMASSOC
360
567
  0
DICTIONARY
  5
569
330
568
100
AcDbDictionary
280
     1
281
     1
  3
ACAD_DIMASSOC
360
56A
  0
DICTIONARY
  5
73
102
{ACAD_REACTORS
330
C
102
}
330
C
100
AcDbDictionary
281
     1
  0
DICTIONARY
  5
D
102
{ACAD_REACTORS
330
C
102
}
330
C
100
AcDbDictionary
281
     1
  0
DICTIONARY
  5
1A
102
{ACAD_REACTORS
330
C
102
}
330
C
100
AcDbDictionary
281
     1
  3
Layout1
350
59
  3
Layout2
350
5E
  3
Model
350
22
  0
DICTIONARY
  5
72
102
{ACAD_REACTORS
330
C
102
}
330
C
100
AcDbDictionary
281
     1
  3
ByBlock
350
97
  3
ByLayer
350
96
  3
Global
350
98
  0
DICTIONARY
  5
17
102
{ACAD_REACTORS
330
C
102
}
330
C
100
AcDbDictionary
281
     1
  3
Standard
350
18
  0
DICTIONARY
  5
19
102
{ACAD_REACTORS
330
C
102
}
330
C
100
AcDbDictionary
281
     1
  0
ACDBDICTIONARYWDFLT
  5
E
102
{ACAD_REACTORS
330
C
102
}
330
C
100
AcDbDictionary
281
     1
  3
Normal
350
F
100
AcDbDictionaryWithDefault
340
F
  0
DICTIONARY
  5
86
102
{ACAD_REACTORS
330
C
102
}
330
C
100
AcDbDictionary
281
     1
  3
Standard
350
87
  0
DICTIONARY
  5
99
102
{ACAD_REACTORS
330
C
102
}
330
C
100
AcDbDictionary
281
     1
  3
2dWireframe
350
9F
  3
3D Hidden
350
A1
  3
3dWireframe
350
A0
  3
Basic
350
9E
  3
Brighten
350
A5
  3
ColorChange
350
A9
  3
Conceptual
350
A2
  3
Dim
350
A4
  3
Facepattern
350
A8
  3
Flat
350
9A
  3
FlatWithEdges
350
9B
  3
Gouraud
350
9C
  3
GouraudWithEdges
350
9D
  3
Linepattern
350
A7
  3
Realistic
350
A3
  3
Thicken
350
A6
  0
DICTIONARY
  5
66
102
{ACAD_REACTORS
330
C
102
}
330
C
100
AcDbDictionary
281
     1
  3
CTABLESTYLE
350
89
  3
DIMASSOC
350
67
  3
HIDETEXT
350
6B
  3
INDEXCTL
350
606
  3
SORTENTS
350
605
  0
XRECORD
  5
607
102
{ACAD_REACTORS
330
C
102
}
330
C
100
AcDbXrecord
280
     1
  1
DWGPROPS COOKIE
  2

  3

  4

  6

  7

  8
Administrator
  9

300
=
301
=
302
=
303
=
304
=
305
=
306
=
307
=
308
=
309
=
 40
0.0010731018518519
 41
2458472.387492257
 42
2458472.388563067
  1

 90
        0
  0
DICTIONARY
  5
123
102
{ACAD_REACTORS
330
122
102
}
330
122
100
AcDbDictionary
281
     1
  0
DIMASSOC
  5
516
102
{ACAD_REACTORS
330
515
102
}
330
515
100
AcDbDimAssoc
330
514
 90
        3
 70
     0
 71
     0
  1
AcDbOsnapPointRef
 72
     1
331
50D
 73
     2
 91
        0
 40
2.926042743436616
 10
0.0
 20
0.0
 30
2.000000000000000E+50
 75
     0
  1
AcDbOsnapPointRef
 72
    13
331
511
 73
     2
 91
        0
 40
0.2122289113540576
 10
0.0
 20
0.0
 30
2.000000000000000E+50
 75
     0
  0
DIMASSOC
  5
519
102
{ACAD_REACTORS
330
518
102
}
330
518
100
AcDbDimAssoc
330
517
 90
        3
 70
     0
 71
     0
  1
AcDbOsnapPointRef
 72
    13
331
475
 73
     2
 91
        0
 40
0.0
 10
0.0
 20
0.0
 30
2.000000000000000E+50
 75
     0
  1
AcDbOsnapPointRef
 72
    13
331
50D
 73
     2
 91
        0
 40
1.786346236948073
 10
0.0
 20
0.0
 30
2.000000000000000E+50
 75
     0
  0
DIMASSOC
  5
567
102
{ACAD_REACTORS
330
566
102
}
330
566
100
AcDbDimAssoc
330
565
 90
        3
 70
     0
 71
     0
  1
AcDbOsnapPointRef
 72
    13
331
561
 73
     2
 91
        0
 40
0.0
 10
0.0
 20
0.0
 30
2.000000000000000E+50
 75
     0
  1
AcDbOsnapPointRef
 72
    13
331
563
 73
     2
 91
        0
 40
0.0
 10
0.0
 20
0.0
 30
2.000000000000000E+50
 75
     0
  0
DIMASSOC
  5
56A
102
{ACAD_REACTORS
330
569
102
}
330
569
100
AcDbDimAssoc
330
568
 90
        1
 70
     0
 71
     0
  1
AcDbOsnapPointRef
 72
     6
331
541
 73
     2
 91
        0
 40
1.0
 10
0.0
 20
0.0
 30
0.0
332
546
 74
     2
 92
        0
 75
     0
  0
LAYOUT
  5
59
102
{ACAD_XDICTIONARY
360
60A
102
}
102
{ACAD_REACTORS
330
1A
102
}
330
1A
100
AcDbPlotSettings
  1

  2
None
  4

  6

 40
0.0
 41
0.0
 42
0.0
 43
0.0
 44
0.0
 45
0.0
 46
0.0
 47
0.0
 48
0.0
 49
0.0
140
0.0
141
0.0
142
1.0
143
1.0
 70
   688
 72
     0
 73
     0
 74
     5
  7

 75
    16
147
1.0
148
0.0
149
0.0
100
AcDbLayout
  1
Layout1
 70
     1
 71
     1
 10
0.0
 20
0.0
 11
12.0
 21
9.0
 12
0.0
 22
0.0
 32
0.0
 14
0.0
 24
0.0
 34
0.0
 15
0.0
 25
0.0
 35
0.0
146
0.0
 13
0.0
 23
0.0
 33
0.0
 16
1.0
 26
0.0
 36
0.0
 17
0.0
 27
1.0
 37
0.0
 76
     0
330
58
  0
LAYOUT
  5
5E
102
{ACAD_XDICTIONARY
360
60C
102
}
102
{ACAD_REACTORS
330
1A
102
}
330
1A
100
AcDbPlotSettings
  1

  2
None
  4

  6

 40
0.0
 41
0.0
 42
0.0
 43
0.0
 44
0.0
 45
0.0
 46
0.0
 47
0.0
 48
0.0
 49
0.0
140
0.0
141
0.0
142
1.0
143
1.0
 70
   688
 72
     0
 73
     0
 74
     5
  7

 75
    16
147
1.0
148
0.0
149
0.0
100
AcDbLayout
  1
Layout2
 70
     1
 71
     2
 10
0.0
 20
0.0
 11
12.0
 21
9.0
 12
0.0
 22
0.0
 32
0.0
 14
0.0
 24
0.0
 34
0.0
 15
0.0
 25
0.0
 35
0.0
146
0.0
 13
0.0
 23
0.0
 33
0.0
 16
1.0
 26
0.0
 36
0.0
 17
0.0
 27
1.0
 37
0.0
 76
     0
330
5D
  0
LAYOUT
  5
22
102
{ACAD_XDICTIONARY
360
608
102
}
102
{ACAD_REACTORS
330
1A
102
}
330
1A
100
AcDbPlotSettings
  1

  2
none_device
  4
ANSI_A_(8.50_x_11.00_Inches)
  6

 40
6.349999904632568
 41
19.04999923706055
 42
6.350006103515625
 43
19.04998779296875
 44
215.8999938964844
 45
279.3999938964844
 46
0.0
 47
0.0
 48
0.0
 49
0.0
140
0.0
141
0.0
142
1.0
143
2.584895464708373
 70
 11952
 72
     0
 73
     1
 74
     0
  7

 75
     0
147
0.3868628397755418
148
0.0
149
0.0
100
AcDbLayout
  1
Model
 70
     1
 71
     0
 10
0.0
 20
0.0
 11
12.0
 21
9.0
 12
0.0
 22
0.0
 32
0.0
 14
0.0
 24
0.0
 34
0.0
 15
0.0
 25
0.0
 35
0.0
146
0.0
 13
0.0
 23
0.0
 33
0.0
 16
1.0
 26
0.0
 36
0.0
 17
0.0
 27
1.0
 37
0.0
 76
     0
330
1F
331
94
  0
MATERIAL
  5
97
102
{ACAD_XDICTIONARY
360
612
102
}
102
{ACAD_REACTORS
330
72
102
}
330
72
100
AcDbMaterial
  1
ByBlock
  0
MATERIAL
  5
96
102
{ACAD_XDICTIONARY
360
610
102
}
102
{ACAD_REACTORS
330
72
102
}
330
72
100
AcDbMaterial
  1
ByLayer
  0
MATERIAL
  5
98
102
{ACAD_XDICTIONARY
360
614
102
}
102
{ACAD_REACTORS
330
72
102
}
330
72
100
AcDbMaterial
  1
Global
  0
MLINESTYLE
  5
18
102
{ACAD_REACTORS
330
17
102
}
330
17
100
AcDbMlineStyle
  2
STANDARD
 70
     0
  3

 62
   256
 51
90.0
 52
90.0
 71
     2
 49
0.5
 62
   256
  6
BYLAYER
 49
-0.5
 62
   256
  6
BYLAYER
  0
ACDBPLACEHOLDER
  5
F
102
{ACAD_REACTORS
330
E
102
}
330
E
  0
TABLESTYLE
  5
87
102
{ACAD_XDICTIONARY
360
60E
102
}
102
{ACAD_REACTORS
330
86
102
}
330
86
100
AcDbTableStyle
  3
Standard
 70
     0
 71
     0
 40
0.06
 41
0.06
280
     0
281
     0
  7
Standard
140
0.18
170
     2
 62
     0
 63
     7
283
     0
274
    -2
284
     1
 64
     0
275
    -2
285
     1
 65
     0
276
    -2
286
     1
 66
     0
277
    -2
287
     1
 67
     0
278
    -2
288
     1
 68
     0
279
    -2
289
     1
 69
     0
  7
Standard
140
0.25
170
     5
 62
     0
 63
     7
283
     0
274
    -2
284
     1
 64
     0
275
    -2
285
     1
 65
     0
276
    -2
286
     1
 66
     0
277
    -2
287
     1
 67
     0
278
    -2
288
     1
 68
     0
279
    -2
289
     1
 69
     0
  7
Standard
140
0.18
170
     5
 62
     0
 63
     7
283
     0
274
    -2
284
     1
 64
     0
275
    -2
285
     1
 65
     0
276
    -2
286
     1
 66
     0
277
    -2
287
     1
 67
     0
278
    -2
288
     1
 68
     0
279
    -2
289
     1
 69
     0
  0
VISUALSTYLE
  5
9F
102
{ACAD_REACTORS
330
99
102
}
330
99
100
AcDbVisualStyle
  2
2dWireframe
 70
     4
 71
     0
 72
     2
 73
     1
 90
        0
 40
-0.6
 41
-30.0
 62
     5
 63
     7
 74
     1
 91
        4
 64
     7
 65
   257
 75
     1
175
     1
 42
1.0
 92
        0
 66
   257
 43
1.0
 76
     1
 77
     6
 78
     2
 67
     7
 79
     5
170
     0
171
     0
290
     0
174
     0
 93
        1
 44
0.0
173
     0
291
     0
 45
0.0
1001
ACAD
1000
AcDbSavedByObjectVersion
1070
     0
  0
VISUALSTYLE
  5
A1
102
{ACAD_REACTORS
330
99
102
}
330
99
100
AcDbVisualStyle
  2
3D Hidden
 70
     6
 71
     1
 72
     2
 73
     2
 90
        0
 40
-0.6
 41
-30.0
 62
     5
 63
     7
 74
     2
 91
        2
 64
     7
 65
   257
 75
     2
175
     1
 42
40.0
 92
        0
 66
   257
 43
1.0
 76
     1
 77
     6
 78
     2
 67
     7
 79
     3
170
     0
171
     0
290
     0
174
     0
 93
        1
 44
0.0
173
     0
291
     0
 45
0.0
1001
ACAD
1000
AcDbSavedByObjectVersion
1070
     0
  0
VISUALSTYLE
  5
A0
102
{ACAD_REACTORS
330
99
102
}
330
99
100
AcDbVisualStyle
  2
3dWireframe
 70
     5
 71
     0
 72
     2
 73
     1
 90
        0
 40
-0.6
 41
-30.0
 62
     5
 63
     7
 74
     1
 91
        4
 64
     7
 65
   257
 75
     1
175
     1
 42
1.0
 92
        0
 66
   257
 43
1.0
 76
     1
 77
     6
 78
     2
 67
     7
 79
     5
170
     0
171
     0
290
     0
174
     0
 93
        1
 44
0.0
173
     0
291
     0
 45
0.0
1001
ACAD
1000
AcDbSavedByObjectVersion
1070
     0
  0
VISUALSTYLE
  5
9E
102
{ACAD_REACTORS
330
99
102
}
330
99
100
AcDbVisualStyle
  2
Basic
 70
     7
 71
     1
 72
     0
 73
     1
 90
        0
 40
-0.6
 41
-30.0
 62
     5
 63
     7
 74
     0
 91
        4
 64
     7
 65
   257
 75
     1
175
     1
 42
1.0
 92
        8
 66
     7
 43
1.0
 76
     1
 77
     6
 78
     2
 67
     7
 79
     5
170
     0
171
     0
290
     0
174
     0
 93
        1
 44
0.0
173
     0
291
     1
 45
0.0
1001
ACAD
1000
AcDbSavedByObjectVersion
1070
     0
  0
VISUALSTYLE
  5
A5
102
{ACAD_REACTORS
330
99
102
}
330
99
100
AcDbVisualStyle
  2
Brighten
 70
    12
 71
     2
 72
     2
 73
     1
 90
        0
 40
-0.6
 41
-30.0
 62
     5
 63
     7
 74
     1
 91
        4
 64
     7
 65
   257
 75
     1
175
     1
 42
1.0
 92
        8
 66
     7
 43
1.0
 76
     1
 77
     6
 78
     2
 67
     7
 79
     5
170
     0
171
     0
290
     0
174
     0
 93
        1
 44
50.0
173
     0
291
     1
 45
0.0
1001
ACAD
1000
AcDbSavedByObjectVersion
1070
     0
  0
VISUALSTYLE
  5
A9
102
{ACAD_REACTORS
330
99
102
}
330
99
100
AcDbVisualStyle
  2
ColorChange
 70
    16
 71
     2
 72
     2
 73
     3
 90
        0
 40
-0.6
 41
-30.0
 62
     5
 63
     8
 74
     1
 91
        4
 64
     7
 65
   257
 75
     1
175
     1
 42
1.0
 92
        8
 66
     8
 43
1.0
 76
     1
 77
     6
 78
     2
 67
     7
 79
     5
170
     0
171
     0
290
     0
174
     0
 93
        1
 44
0.0
173
     0
291
     1
 45
0.0
1001
ACAD
1000
AcDbSavedByObjectVersion
1070
     0
  0
VISUALSTYLE
  5
A2
102
{ACAD_REACTORS
330
99
102
}
330
99
100
AcDbVisualStyle
  2
Conceptual
 70
     9
 71
     3
 72
     2
 73
     1
 90
        0
 40
-0.6
 41
-30.0
 62
     5
 63
     7
 74
     2
 91
        2
 64
     7
 65
   257
 75
     1
175
     1
 42
40.0
 92
        8
 66
     7
 43
1.0
 76
     1
 77
     6
 78
     2
 67
     7
 79
     3
170
     0
171
     0
290
     0
174
     0
 93
        1
 44
0.0
173
     0
291
     0
 45
0.0
1001
ACAD
1000
AcDbSavedByObjectVersion
1070
     0
  0
VISUALSTYLE
  5
A4
102
{ACAD_REACTORS
330
99
102
}
330
99
100
AcDbVisualStyle
  2
Dim
 70
    11
 71
     2
 72
     2
 73
     1
 90
        0
 40
-0.6
 41
-30.0
 62
     5
 63
     7
 74
     1
 91
        4
 64
     7
 65
   257
 75
     1
175
     1
 42
1.0
 92
        8
 66
     7
 43
1.0
 76
     1
 77
     6
 78
     2
 67
     7
 79
     5
170
     0
171
     0
290
     0
174
     0
 93
        1
 44
-50.0
173
     0
291
     1
 45
0.0
1001
ACAD
1000
AcDbSavedByObjectVersion
1070
     0
  0
VISUALSTYLE
  5
A8
102
{ACAD_REACTORS
330
99
102
}
330
99
100
AcDbVisualStyle
  2
Facepattern
 70
    15
 71
     2
 72
     2
 73
     1
 90
        0
 40
-0.6
 41
-30.0
 62
     5
 63
     7
 74
     1
 91
        4
 64
     7
 65
   257
 75
     1
175
     1
 42
1.0
 92
        8
 66
     7
 43
1.0
 76
     1
 77
     6
 78
     2
 67
     7
 79
     5
170
     0
171
     0
290
     0
174
     0
 93
        1
 44
0.0
173
     0
291
     1
 45
0.0
1001
ACAD
1000
AcDbSavedByObjectVersion
1070
     0
  0
VISUALSTYLE
  5
9A
102
{ACAD_REACTORS
330
99
102
}
330
99
100
AcDbVisualStyle
  2
Flat
 70
     0
 71
     2
 72
     1
 73
     1
 90
        2
 40
-0.6
 41
30.0
 62
     5
 63
     7
 74
     0
 91
        4
 64
     7
 65
   257
 75
     1
175
     1
 42
1.0
 92
        8
 66
     7
 43
1.0
 76
     1
 77
     6
 78
     2
 67
     7
 79
     5
170
     0
171
     0
290
     0
174
     0
 93
        1
 44
0.0
173
     0
291
     1
 45
0.0
1001
ACAD
1000
AcDbSavedByObjectVersion
1070
     0
  0
VISUALSTYLE
  5
9B
102
{ACAD_REACTORS
330
99
102
}
330
99
100
AcDbVisualStyle
  2
FlatWithEdges
 70
     1
 71
     2
 72
     1
 73
     1
 90
        2
 40
-0.6
 41
30.0
 62
     5
 63
     7
 74
     1
 91
        4
 64
     7
 65
   257
 75
     1
175
     1
 42
1.0
 92
        0
 66
   257
 43
1.0
 76
     1
 77
     6
 78
     2
 67
     7
 79
     5
170
     0
171
     0
290
     0
174
     0
 93
        1
 44
0.0
173
     0
291
     1
 45
0.0
1001
ACAD
1000
AcDbSavedByObjectVersion
1070
     0
  0
VISUALSTYLE
  5
9C
102
{ACAD_REACTORS
330
99
102
}
330
99
100
AcDbVisualStyle
  2
Gouraud
 70
     2
 71
     2
 72
     2
 73
     1
 90
        2
 40
-0.6
 41
30.0
 62
     5
 63
     7
 74
     0
 91
        4
 64
     7
 65
   257
 75
     1
175
     1
 42
1.0
 92
        0
 66
     7
 43
1.0
 76
     1
 77
     6
 78
     2
 67
     7
 79
     5
170
     0
171
     0
290
     0
174
     0
 93
        1
 44
0.0
173
     0
291
     1
 45
0.0
1001
ACAD
1000
AcDbSavedByObjectVersion
1070
     0
  0
VISUALSTYLE
  5
9D
102
{ACAD_REACTORS
330
99
102
}
330
99
100
AcDbVisualStyle
  2
GouraudWithEdges
 70
     3
 71
     2
 72
     2
 73
     1
 90
        2
 40
-0.6
 41
30.0
 62
     5
 63
     7
 74
     1
 91
        4
 64
     7
 65
   257
 75
     1
175
     1
 42
1.0
 92
        0
 66
   257
 43
1.0
 76
     1
 77
     6
 78
     2
 67
     7
 79
     5
170
     0
171
     0
290
     0
174
     0
 93
        1
 44
0.0
173
     0
291
     1
 45
0.0
1001
ACAD
1000
AcDbSavedByObjectVersion
1070
     0
  0
VISUALSTYLE
  5
A7
102
{ACAD_REACTORS
330
99
102
}
330
99
100
AcDbVisualStyle
  2
Linepattern
 70
    14
 71
     2
 72
     2
 73
     1
 90
        0
 40
-0.6
 41
-30.0
 62
     5
 63
     7
 74
     1
 91
        4
 64
     7
 65
   257
 75
     7
175
     7
 42
1.0
 92
        8
 66
     7
 43
1.0
 76
     1
 77
     6
 78
     2
 67
     7
 79
     5
170
     0
171
     0
290
     0
174
     0
 93
        1
 44
0.0
173
     0
291
     1
 45
0.0
1001
ACAD
1000
AcDbSavedByObjectVersion
1070
     0
  0
VISUALSTYLE
  5
A3
102
{ACAD_REACTORS
330
99
102
}
330
99
100
AcDbVisualStyle
  2
Realistic
 70
     8
 71
     2
 72
     2
 73
     1
 90
        0
 40
-0.6
 41
-30.0
 62
     5
 63
     7
 74
     1
 91
        0
 64
     7
 65
   257
 75
     1
175
     1
 42
1.0
 92
        8
 66
     8
 43
1.0
 76
     1
 77
     6
 78
     2
 67
     7
 79
     5
170
     0
171
     0
290
     0
174
     0
 93
       13
 44
0.0
173
     0
291
     0
 45
0.0
1001
ACAD
1000
AcDbSavedByObjectVersion
1070
     0
  0
VISUALSTYLE
  5
A6
102
{ACAD_REACTORS
330
99
102
}
330
99
100
AcDbVisualStyle
  2
Thicken
 70
    13
 71
     2
 72
     2
 73
     1
 90
        0
 40
-0.6
 41
-30.0
 62
     5
 63
     7
 74
     1
 91
        4
 64
     7
 65
   257
 75
     1
175
     1
 42
1.0
 92
       12
 66
     7
 43
1.0
 76
     1
 77
     6
 78
     2
 67
     7
 79
     5
170
     0
171
     0
290
     0
174
     0
 93
        1
 44
0.0
173
     0
291
     1
 45
0.0
1001
ACAD
1000
AcDbSavedByObjectVersion
1070
     0
  0
DICTIONARYVAR
  5
89
102
{ACAD_REACTORS
330
66
102
}
330
66
100
DictionaryVariables
280
     0
  1
STANDARD
  0
DICTIONARYVAR
  5
67
102
{ACAD_REACTORS
330
66
102
}
330
66
100
DictionaryVariables
280
     0
  1
2
  0
DICTIONARYVAR
  5
6B
102
{ACAD_REACTORS
330
66
102
}
330
66
100
DictionaryVariables
280
     0
  1
1
  0
DICTIONARYVAR
  5
606
102
{ACAD_REACTORS
330
66
102
}
330
66
100
DictionaryVariables
280
     0
  1
0
  0
DICTIONARYVAR
  5
605
102
{ACAD_REACTORS
330
66
102
}
330
66
100
DictionaryVariables
280
     0
  1
127
  0
DICTIONARY
  5
60A
330
59
100
AcDbDictionary
280
     1
281
     1
  3
ACAD_XREC_ROUNDTRIP
360
60B
  0
DICTIONARY
  5
60C
330
5E
100
AcDbDictionary
280
     1
281
     1
  3
ACAD_XREC_ROUNDTRIP
360
60D
  0
DICTIONARY
  5
608
330
22
100
AcDbDictionary
280
     1
281
     1
  3
ACAD_XREC_ROUNDTRIP
360
609
  0
DICTIONARY
  5
612
330
97
100
AcDbDictionary
280
     1
281
     1
  3
ACAD_XREC_ROUNDTRIP
360
613
  0
DICTIONARY
  5
610
330
96
100
AcDbDictionary
280
     1
281
     1
  3
ACAD_XREC_ROUNDTRIP
360
611
  0
DICTIONARY
  5
614
330
98
100
AcDbDictionary
280
     1
281
     1
  3
ACAD_XREC_ROUNDTRIP
360
615
  0
DICTIONARY
  5
60E
330
87
100
AcDbDictionary
280
     1
281
     1
  3
ACAD_XREC_ROUNDTRIP
360
60F
  0
XRECORD
  5
60B
102
{ACAD_REACTORS
330
60A
102
}
330
60A
100
AcDbXrecord
280
     1
102
SHADEPLOT
 70
     0
102
SHADEPLOTRESLEVEL
 70
     2
102
SHADEPLOTCUSTOMDPI
 70
   300
  0
XRECORD
  5
60D
102
{ACAD_REACTORS
330
60C
102
}
330
60C
100
AcDbXrecord
280
     1
102
SHADEPLOT
 70
     0
102
SHADEPLOTRESLEVEL
 70
     2
102
SHADEPLOTCUSTOMDPI
 70
   300
  0
XRECORD
  5
609
102
{ACAD_REACTORS
330
608
102
}
330
608
100
AcDbXrecord
280
     1
102
SHADEPLOT
 70
     0
102
SHADEPLOTRESLEVEL
 70
     2
102
SHADEPLOTCUSTOMDPI
 70
   300
  0
XRECORD
  5
613
102
{ACAD_REACTORS
330
612
102
}
330
612
100
AcDbXrecord
280
     1
102
MATERIAL
148
0.0
149
0.0
149
0.0
 93
        0
 94
       63
282
     0
 72
     1
 77
     1
171
     1
175
     1
179
     1
273
     0
  0
XRECORD
  5
611
102
{ACAD_REACTORS
330
610
102
}
330
610
100
AcDbXrecord
280
     1
102
MATERIAL
148
0.0
149
0.0
149
0.0
 93
        0
 94
       63
282
     0
 72
     1
 77
     1
171
     1
175
     1
179
     1
273
     0
  0
XRECORD
  5
615
102
{ACAD_REACTORS
330
614
102
}
330
614
100
AcDbXrecord
280
     1
102
MATERIAL
148
0.0
149
0.0
149
0.0
 93
        0
 94
       63
282
     0
 72
     1
 77
     1
171
     1
175
     1
179
     1
273
     0
  0
XRECORD
  5
60F
102
{ACAD_REACTORS
330
60E
102
}
330
60E
100
AcDbXrecord
280
     1
102
ACAD_ROUNDTRIP_PRE2007_TABLESTYLE
 90
      512
 91
        0
  1

 92
      512
 93
        0
  2

 94
      512
 95
        0
  3

  0
ENDSEC
  0
EOF
