  0
SECTION
  2
HEADER
  9
$ACADVER
  1
AC1015
  9
$ACADMAINTVER
 70
    20
  9
$DWGCODEPAGE
  3
ANSI_1252
  9
$INSBASE
 10
0.0
 20
0.0
 30
0.0
  9
$EXTMIN
 10
50.8961640880792
 20
-37.61475967039537
 30
0.0
  9
$EXTMAX
 10
372.3241737783045
 20
232.1310505846894
 30
0.0
  9
$LIMMIN
 10
0.0
 20
0.0
  9
$LIMMAX
 10
12.0
 20
9.0
  9
$ORTHOMODE
 70
     0
  9
$REGENMODE
 70
     1
  9
$FILLMODE
 70
     1
  9
$QTEXTMODE
 70
     0
  9
$MIRRTEXT
 70
     0
  9
$LTSCALE
 40
1.0
  9
$ATTMODE
 70
     1
  9
$TEXTSIZE
 40
0.2
  9
$TRACEWID
 40
0.05
  9
$TEXTSTYLE
  7
Standard
  9
$CLAYER
  8
0
  9
$CELTYPE
  6
ByLayer
  9
$CECOLOR
 62
   256
  9
$CELTSCALE
 40
1.0
  9
$DISPSILH
 70
     0
  9
$DIMSCALE
 40
1.0
  9
$DIMASZ
 40
0.18
  9
$DIMEXO
 40
0.0625
  9
$DIMDLI
 40
0.38
  9
$DIMRND
 40
0.0
  9
$DIMDLE
 40
0.0
  9
$DIMEXE
 40
0.18
  9
$DIMTP
 40
0.0
  9
$DIMTM
 40
0.0
  9
$DIMTXT
 40
0.18
  9
$DIMCEN
 40
0.09
  9
$DIMTSZ
 40
0.0
  9
$DIMTOL
 70
     0
  9
$DIMLIM
 70
     0
  9
$DIMTIH
 70
     1
  9
$DIMTOH
 70
     1
  9
$DIMSE1
 70
     0
  9
$DIMSE2
 70
     0
  9
$DIMTAD
 70
     0
  9
$DIMZIN
 70
     0
  9
$DIMBLK
  1

  9
$DIMASO
 70
     1
  9
$DIMSHO
 70
     1
  9
$DIMPOST
  1

  9
$DIMAPOST
  1

  9
$DIMALT
 70
     0
  9
$DIMALTD
 70
     2
  9
$DIMALTF
 40
25.4
  9
$DIMLFAC
 40
1.0
  9
$DIMTOFL
 70
     0
  9
$DIMTVP
 40
0.0
  9
$DIMTIX
 70
     0
  9
$DIMSOXD
 70
     0
  9
$DIMSAH
 70
     0
  9
$DIMBLK1
  1

  9
$DIMBLK2
  1

  9
$DIMSTYLE
  2
Standard
  9
$DIMCLRD
 70
     0
  9
$DIMCLRE
 70
     0
  9
$DIMCLRT
 70
     0
  9
$DIMTFAC
 40
1.0
  9
$DIMGAP
 40
0.09
  9
$DIMJUST
 70
     0
  9
$DIMSD1
 70
     0
  9
$DIMSD2
 70
     0
  9
$DIMTOLJ
 70
     1
  9
$DIMTZIN
 70
     0
  9
$DIMALTZ
 70
     0
  9
$DIMALTTZ
 70
     0
  9
$DIMUPT
 70
     0
  9
$DIMDEC
 70
     4
  9
$DIMTDEC
 70
     4
  9
$DIMALTU
 70
     2
  9
$DIMALTTD
 70
     2
  9
$DIMTXSTY
  7
Standard
  9
$DIMAUNIT
 70
     0
  9
$DIMADEC
 70
     0
  9
$DIMALTRND
 40
0.0
  9
$DIMAZIN
 70
     0
  9
$DIMDSEP
 70
    46
  9
$DIMATFIT
 70
     3
  9
$DIMFRAC
 70
     0
  9
$DIMLDRBLK
  1

  9
$DIMLUNIT
 70
     2
  9
$DIMLWD
 70
    -2
  9
$DIMLWE
 70
    -2
  9
$DIMTMOVE
 70
     0
  9
$LUNITS
 70
     2
  9
$LUPREC
 70
     4
  9
$SKETCHINC
 40
0.1
  9
$FILLETRAD
 40
0.0
  9
$AUNITS
 70
     0
  9
$AUPREC
 70
     0
  9
$MENU
  1
.
  9
$ELEVATION
 40
0.0
  9
$PELEVATION
 40
0.0
  9
$THICKNESS
 40
0.0
  9
$LIMCHECK
 70
     0
  9
$CHAMFERA
 40
0.0
  9
$CHAMFERB
 40
0.0
  9
$CHAMFERC
 40
0.0
  9
$CHAMFERD
 40
0.0
  9
$SKPOLY
 70
     0
  9
$TDCREATE
 40
2458493.509175359
  9
$TDUCREATE
 40
2458493.217508693
  9
$TDUPDATE
 40
2458493.509764700
  9
$TDUUPDATE
 40
2458493.218098032
  9
$TDINDWG
 40
0.0005903935
  9
$TDUSRTIMER
 40
0.0005903472
  9
$USRTIMER
 70
     1
  9
$ANGBASE
 50
0.0
  9
$ANGDIR
 70
     0
  9
$PDMODE
 70
     0
  9
$PDSIZE
 40
0.0
  9
$PLINEWID
 40
0.0
  9
$SPLFRAME
 70
     0
  9
$SPLINETYPE
 70
     6
  9
$SPLINESEGS
 70
     8
  9
$HANDSEED
  5
604
  9
$SURFTAB1
 70
     6
  9
$SURFTAB2
 70
     6
  9
$SURFTYPE
 70
     6
  9
$SURFU
 70
     6
  9
$SURFV
 70
     6
  9
$UCSBASE
  2

  9
$UCSNAME
  2

  9
$UCSORG
 10
0.0
 20
0.0
 30
0.0
  9
$UCSXDIR
 10
1.0
 20
0.0
 30
0.0
  9
$UCSYDIR
 10
0.0
 20
1.0
 30
0.0
  9
$UCSORTHOREF
  2

  9
$UCSORTHOVIEW
 70
     0
  9
$UCSORGTOP
 10
0.0
 20
0.0
 30
0.0
  9
$UCSORGBOTTOM
 10
0.0
 20
0.0
 30
0.0
  9
$UCSORGLEFT
 10
0.0
 20
0.0
 30
0.0
  9
$UCSORGRIGHT
 10
0.0
 20
0.0
 30
0.0
  9
$UCSORGFRONT
 10
0.0
 20
0.0
 30
0.0
  9
$UCSORGBACK
 10
0.0
 20
0.0
 30
0.0
  9
$PUCSBASE
  2

  9
$PUCSNAME
  2

  9
$PUCSORG
 10
0.0
 20
0.0
 30
0.0
  9
$PUCSXDIR
 10
1.0
 20
0.0
 30
0.0
  9
$PUCSYDIR
 10
0.0
 20
1.0
 30
0.0
  9
$PUCSORTHOREF
  2

  9
$PUCSORTHOVIEW
 70
     0
  9
$PUCSORGTOP
 10
0.0
 20
0.0
 30
0.0
  9
$PUCSORGBOTTOM
 10
0.0
 20
0.0
 30
0.0
  9
$PUCSORGLEFT
 10
0.0
 20
0.0
 30
0.0
  9
$PUCSORGRIGHT
 10
0.0
 20
0.0
 30
0.0
  9
$PUCSORGFRONT
 10
0.0
 20
0.0
 30
0.0
  9
$PUCSORGBACK
 10
0.0
 20
0.0
 30
0.0
  9
$USERI1
 70
     0
  9
$USERI2
 70
     0
  9
$USERI3
 70
     0
  9
$USERI4
 70
     0
  9
$USERI5
 70
     0
  9
$USERR1
 40
0.0
  9
$USERR2
 40
0.0
  9
$USERR3
 40
0.0
  9
$USERR4
 40
0.0
  9
$USERR5
 40
0.0
  9
$WORLDVIEW
 70
     1
  9
$SHADEDGE
 70
     3
  9
$SHADEDIF
 70
    70
  9
$TILEMODE
 70
     1
  9
$MAXACTVP
 70
    64
  9
$PINSBASE
 10
0.0
 20
0.0
 30
0.0
  9
$PLIMCHECK
 70
     0
  9
$PEXTMIN
 10
0.0
 20
0.0
 30
0.0
  9
$PEXTMAX
 10
0.0
 20
0.0
 30
0.0
  9
$PLIMMIN
 10
0.0
 20
0.0
  9
$PLIMMAX
 10
12.0
 20
9.0
  9
$UNITMODE
 70
     0
  9
$VISRETAIN
 70
     1
  9
$PLINEGEN
 70
     0
  9
$PSLTSCALE
 70
     1
  9
$TREEDEPTH
 70
  3020
  9
$CMLSTYLE
  2
Standard
  9
$CMLJUST
 70
     0
  9
$CMLSCALE
 40
1.0
  9
$PROXYGRAPHICS
 70
     1
  9
$MEASUREMENT
 70
     0
  9
$CELWEIGHT
370
    -1
  9
$ENDCAPS
280
     0
  9
$JOINSTYLE
280
     0
  9
$LWDISPLAY
290
     0
  9
$INSUNITS
 70
     1
  9
$HYPERLINKBASE
  1

  9
$STYLESHEET
  1

  9
$XEDIT
290
     1
  9
$CEPSNTYPE
380
     0
  9
$PSTYLEMODE
290
     1
  9
$FINGERPRINTGUID
  2
{77CF0272-DDAB-49EF-B6F2-7C79D9073FA1}
  9
$VERSIONGUID
  2
{D4DB0B1B-92F0-42EB-8FB4-0A7873A33C0A}
  9
$EXTNAMES
290
     1
  9
$PSVPSCALE
 40
0.0
  9
$OLESTARTUP
290
     0
  0
ENDSEC
  0
SECTION
  2
CLASSES
  0
CLASS
  1
ACDBDICTIONARYWDFLT
  2
AcDbDictionaryWithDefault
  3
ObjectDBX Classes
 90
        0
280
     0
281
     0
  0
CLASS
  1
ACDBPLACEHOLDER
  2
AcDbPlaceHolder
  3
ObjectDBX Classes
 90
        0
280
     0
281
     0
  0
CLASS
  1
LAYOUT
  2
AcDbLayout
  3
ObjectDBX Classes
 90
        0
280
     0
281
     0
  0
CLASS
  1
DICTIONARYVAR
  2
AcDbDictionaryVar
  3
ObjectDBX Classes
 90
        0
280
     0
281
     0
  0
CLASS
  1
TABLESTYLE
  2
AcDbTableStyle
  3
ObjectDBX Classes
 90
     4095
280
     0
281
     0
  0
CLASS
  1
MATERIAL
  2
AcDbMaterial
  3
ObjectDBX Classes
 90
     1153
280
     0
281
     0
  0
CLASS
  1
VISUALSTYLE
  2
AcDbVisualStyle
  3
ObjectDBX Classes
 90
     4095
280
     0
281
     0
  0
CLASS
  1
DIMASSOC
  2
AcDbDimAssoc
  3
"AcDbDimAssoc|Product Desc:     AcDim ARX App For Dimension|Company:          Autodesk, Inc.|WEB Address:      www.autodesk.com"
 90
        0
280
     0
281
     0
  0
CLASS
  1
SORTENTSTABLE
  2
AcDbSortentsTable
  3
ObjectDBX Classes
 90
        0
280
     0
281
     0
  0
ENDSEC
  0
SECTION
  2
TABLES
  0
TABLE
  2
VPORT
  5
8
330
0
100
AcDbSymbolTable
 70
     1
  0
VPORT
  5
94
330
8
100
AcDbSymbolTableRecord
100
AcDbViewportTableRecord
  2
*Active
 70
     0
 10
0.0
 20
0.0
 11
1.0
 21
1.0
 12
219.3591146045409
 22
108.6079461462615
 13
0.0
 23
0.0
 14
0.5
 24
0.5
 15
0.5
 25
0.5
 16
0.0
 26
0.0
 36
1.0
 17
0.0
 27
0.0
 37
0.0
 40
383.0226515722327
 41
2.23076923076923
 42
50.0
 43
0.0
 44
0.0
 50
0.0
 51
0.0
 71
     0
 72
  1000
 73
     1
 74
     3
 75
     0
 76
     0
 77
     0
 78
     0
281
     0
 65
     1
110
0.0
120
0.0
130
0.0
111
1.0
121
0.0
131
0.0
112
0.0
122
1.0
132
0.0
 79
     0
146
0.0
  0
ENDTAB
  0
TABLE
  2
LTYPE
  5
5
330
0
100
AcDbSymbolTable
 70
     1
  0
LTYPE
  5
14
330
5
100
AcDbSymbolTableRecord
100
AcDbLinetypeTableRecord
  2
ByBlock
 70
     0
  3

 72
    65
 73
     0
 40
0.0
  0
LTYPE
  5
15
330
5
100
AcDbSymbolTableRecord
100
AcDbLinetypeTableRecord
  2
ByLayer
 70
     0
  3

 72
    65
 73
     0
 40
0.0
  0
LTYPE
  5
16
330
5
100
AcDbSymbolTableRecord
100
AcDbLinetypeTableRecord
  2
Continuous
 70
     0
  3
Solid line
 72
    65
 73
     0
 40
0.0
  0
ENDTAB
  0
TABLE
  2
LAYER
  5
2
102
{ACAD_XDICTIONARY
360
120
102
}
330
0
100
AcDbSymbolTable
 70
     2
  0
LAYER
  5
10
330
2
100
AcDbSymbolTableRecord
100
AcDbLayerTableRecord
  2
0
 70
     0
 62
     7
  6
Continuous
370
    -3
390
F
  0
LAYER
  5
11D
330
2
100
AcDbSymbolTableRecord
100
AcDbLayerTableRecord
  2
Defpoints
 70
     0
 62
     7
  6
Continuous
290
     0
370
    -3
390
F
  0
ENDTAB
  0
TABLE
  2
STYLE
  5
3
330
0
100
AcDbSymbolTable
 70
     1
  0
STYLE
  5
11
330
3
100
AcDbSymbolTableRecord
100
AcDbTextStyleTableRecord
  2
Standard
 70
     0
 40
0.0
 41
1.0
 50
0.0
 71
     0
 42
0.2
  3
txt
  4

  0
ENDTAB
  0
TABLE
  2
VIEW
  5
6
330
0
100
AcDbSymbolTable
 70
     0
  0
ENDTAB
  0
TABLE
  2
UCS
  5
7
330
0
100
AcDbSymbolTable
 70
     0
  0
ENDTAB
  0
TABLE
  2
APPID
  5
9
330
0
100
AcDbSymbolTable
 70
     2
  0
APPID
  5
12
330
9
100
AcDbSymbolTableRecord
100
AcDbRegAppTableRecord
  2
ACAD
 70
     0
  0
APPID
  5
603
330
9
100
AcDbSymbolTableRecord
100
AcDbRegAppTableRecord
  2
ACAD_DSTYLE_DIMTEXT_FILL
 70
     0
  0
ENDTAB
  0
TABLE
  2
DIMSTYLE
  5
A
330
0
100
AcDbSymbolTable
 70
     3
100
AcDbDimStyleTable
 71
     0
  0
DIMSTYLE
105
27
330
A
100
AcDbSymbolTableRecord
100
AcDbDimStyleTableRecord
  2
Standard
 70
     0
340
11
  0
DIMSTYLE
105
11E
102
{ACAD_REACTORS
330
337
330
33B
330
33E
330
341
330
344
330
347
330
34A
330
34D
330
56D
330
571
330
574
330
577
330
57A
330
57D
330
580
330
583
102
}
330
A
100
AcDbSymbolTableRecord
100
AcDbDimStyleTableRecord
  2
MV
 70
     0
 41
6.0
 73
     0
 77
     3
 78
     8
140
10.0
141
5.0
147
3.0
176
     9
177
     9
178
   256
271
     0
272
     0
340
11
342
B9
  0
DIMSTYLE
105
11F
330
A
100
AcDbSymbolTableRecord
100
AcDbDimStyleTableRecord
  2
MV2
 70
     0
 41
6.0
 73
     0
 77
     3
 78
     8
140
5.0
141
5.0
147
3.0
176
     9
177
     9
178
   256
271
     0
272
     0
340
11
342
B9
  0
ENDTAB
  0
TABLE
  2
BLOCK_RECORD
  5
1
330
0
100
AcDbSymbolTable
 70
    19
  0
BLOCK_RECORD
  5
1F
330
1
100
AcDbSymbolTableRecord
100
AcDbBlockTableRecord
  2
*Model_Space
340
22
  0
BLOCK_RECORD
  5
58
330
1
100
AcDbSymbolTableRecord
100
AcDbBlockTableRecord
  2
*Paper_Space
340
59
  0
BLOCK_RECORD
  5
5D
330
1
100
AcDbSymbolTableRecord
100
AcDbBlockTableRecord
  2
*Paper_Space0
340
5E
  0
BLOCK_RECORD
  5
B9
330
1
100
AcDbSymbolTableRecord
100
AcDbBlockTableRecord
  2
_Oblique
340
0
102
{BLKREFS
331
C2
331
C3
331
CE
331
CF
331
DA
331
DB
331
E6
331
E7
331
F2
331
F3
331
FE
331
FF
331
10A
331
10B
331
116
331
117
331
58D
331
58E
331
599
331
59A
331
5A5
331
5A6
331
5B1
331
5B2
331
5BD
331
5BE
331
5C9
331
5CA
331
5D5
331
5D6
331
5EC
331
5ED
102
}
  0
BLOCK_RECORD
  5
BD
330
1
100
AcDbSymbolTableRecord
100
AcDbBlockTableRecord
  2
*D2
340
0
  0
BLOCK_RECORD
  5
C9
330
1
100
AcDbSymbolTableRecord
100
AcDbBlockTableRecord
  2
*D3
340
0
  0
BLOCK_RECORD
  5
D5
330
1
100
AcDbSymbolTableRecord
100
AcDbBlockTableRecord
  2
*D4
340
0
  0
BLOCK_RECORD
  5
E1
330
1
100
AcDbSymbolTableRecord
100
AcDbBlockTableRecord
  2
*D5
340
0
  0
BLOCK_RECORD
  5
ED
330
1
100
AcDbSymbolTableRecord
100
AcDbBlockTableRecord
  2
*D6
340
0
  0
BLOCK_RECORD
  5
F9
330
1
100
AcDbSymbolTableRecord
100
AcDbBlockTableRecord
  2
*D7
340
0
  0
BLOCK_RECORD
  5
105
330
1
100
AcDbSymbolTableRecord
100
AcDbBlockTableRecord
  2
*D8
340
0
  0
BLOCK_RECORD
  5
111
330
1
100
AcDbSymbolTableRecord
100
AcDbBlockTableRecord
  2
*D9
340
0
  0
BLOCK_RECORD
  5
589
330
1
100
AcDbSymbolTableRecord
100
AcDbBlockTableRecord
  2
*D11
340
0
  0
BLOCK_RECORD
  5
595
330
1
100
AcDbSymbolTableRecord
100
AcDbBlockTableRecord
  2
*D12
340
0
  0
BLOCK_RECORD
  5
5A1
330
1
100
AcDbSymbolTableRecord
100
AcDbBlockTableRecord
  2
*D13
340
0
  0
BLOCK_RECORD
  5
5AD
330
1
100
AcDbSymbolTableRecord
100
AcDbBlockTableRecord
  2
*D14
340
0
  0
BLOCK_RECORD
  5
5B9
330
1
100
AcDbSymbolTableRecord
100
AcDbBlockTableRecord
  2
*D15
340
0
  0
BLOCK_RECORD
  5
5C5
330
1
100
AcDbSymbolTableRecord
100
AcDbBlockTableRecord
  2
*D16
340
0
  0
BLOCK_RECORD
  5
5D1
330
1
100
AcDbSymbolTableRecord
100
AcDbBlockTableRecord
  2
*D17
340
0
  0
BLOCK_RECORD
  5
5DD
330
1
100
AcDbSymbolTableRecord
100
AcDbBlockTableRecord
  2
*D18
340
0
  0
ENDTAB
  0
ENDSEC
  0
SECTION
  2
BLOCKS
  0
BLOCK
  5
20
330
1F
100
AcDbEntity
  8
0
100
AcDbBlockBegin
  2
*Model_Space
 70
     0
 10
0.0
 20
0.0
 30
0.0
  3
*Model_Space
  1

  0
ENDBLK
  5
21
330
1F
100
AcDbEntity
  8
0
100
AcDbBlockEnd
  0
BLOCK
  5
5A
330
58
100
AcDbEntity
 67
     1
  8
0
100
AcDbBlockBegin
  2
*Paper_Space
 70
     0
 10
0.0
 20
0.0
 30
0.0
  3
*Paper_Space
  1

  0
ENDBLK
  5
5B
330
58
100
AcDbEntity
 67
     1
  8
0
100
AcDbBlockEnd
  0
BLOCK
  5
5F
330
5D
100
AcDbEntity
 67
     1
  8
0
100
AcDbBlockBegin
  2
*Paper_Space0
 70
     0
 10
0.0
 20
0.0
 30
0.0
  3
*Paper_Space0
  1

  0
ENDBLK
  5
60
330
5D
100
AcDbEntity
 67
     1
  8
0
100
AcDbBlockEnd
  0
BLOCK
  5
BA
330
B9
100
AcDbEntity
  8
0
100
AcDbBlockBegin
  2
_Oblique
 70
     0
 10
0.0
 20
0.0
 30
0.0
  3
_Oblique
  1

  0
LINE
  5
BB
330
B9
100
AcDbEntity
  8
0
  6
ByBlock
 62
     0
370
    -2
100
AcDbLine
 10
-0.5
 20
-0.5
 30
0.0
 11
0.5
 21
0.5
 31
0.0
  0
ENDBLK
  5
BC
330
B9
100
AcDbEntity
  8
0
100
AcDbBlockEnd
  0
BLOCK
  5
BE
330
BD
100
AcDbEntity
  8
0
100
AcDbBlockBegin
  2
*D2
 70
     1
 10
0.0
 20
0.0
 30
0.0
  3
*D2
  1

  0
LINE
  5
BF
330
BD
100
AcDbEntity
  8
0
 62
     9
370
    -2
100
AcDbLine
 10
159.5018010521872
 20
175.9296053516174
 30
0.0
 11
177.5289811511777
 21
175.9296053516174
 31
0.0
  0
LINE
  5
C0
330
BD
100
AcDbEntity
  8
0
 62
     9
370
    -2
100
AcDbLine
 10
159.5018010521872
 20
75.36710535161737
 30
0.0
 11
177.5289811511777
 21
75.36710535161735
 31
0.0
  0
LINE
  5
C1
330
BD
100
AcDbEntity
  8
0
 62
     9
370
    -2
100
AcDbLine
 10
177.3489811511777
 20
175.9296053516174
 30
0.0
 11
177.3489811511777
 21
75.36710535161735
 31
0.0
  0
INSERT
  5
C2
330
BD
100
AcDbEntity
  8
0
 62
     9
370
    -2
100
AcDbBlockReference
  2
_Oblique
 10
177.3489811511777
 20
175.9296053516174
 30
0.0
 41
6.0
 42
6.0
 43
6.0
 50
90.0
  0
INSERT
  5
C3
330
BD
100
AcDbEntity
  8
0
 62
     9
370
    -2
100
AcDbBlockReference
  2
_Oblique
 10
177.3489811511777
 20
75.36710535161735
 30
0.0
 41
6.0
 42
6.0
 43
6.0
 50
270.0
  0
MTEXT
  5
C4
330
BD
100
AcDbEntity
  8
0
370
    40
100
AcDbMText
 10
169.3489811511776
 20
125.6483553516174
 30
0.0
 40
10.0
 41
0.0
 71
     5
 72
     1
  1
\A1;101
 11
0.0000000000000001
 21
1.0
 31
0.0
 73
     1
 44
1.0
1001
ACAD
1000
MTEXTBEGIN
1070
    73
1070
     1
1070
    44
1040
1.0
1070
    74
1070
     0
1000
MTEXTEND
  0
POINT
  5
C5
330
BD
100
AcDbEntity
  8
Defpoints
 62
     0
100
AcDbPoint
 10
159.4393010521871
 20
175.9296053516174
 30
0.0
  0
POINT
  5
C6
330
BD
100
AcDbEntity
  8
Defpoints
 62
     0
100
AcDbPoint
 10
159.4393010521871
 20
75.36710535161737
 30
0.0
  0
POINT
  5
C7
330
BD
100
AcDbEntity
  8
Defpoints
 62
     0
100
AcDbPoint
 10
177.3489811511777
 20
75.36710535161735
 30
0.0
  0
ENDBLK
  5
C8
330
BD
100
AcDbEntity
  8
0
100
AcDbBlockEnd
  0
BLOCK
  5
CA
330
C9
100
AcDbEntity
  8
0
100
AcDbBlockBegin
  2
*D3
 70
     1
 10
0.0
 20
0.0
 30
0.0
  3
*D3
  1

  0
LINE
  5
CB
330
C9
100
AcDbEntity
  8
0
 62
     9
370
    -2
100
AcDbLine
 10
150.7518010521871
 20
188.1171053516174
 30
0.0
 11
196.1508007524832
 21
188.1171053516174
 31
0.0
  0
LINE
  5
CC
330
C9
100
AcDbEntity
  8
0
 62
     9
370
    -2
100
AcDbLine
 10
150.7518010521871
 20
63.11710535161736
 30
0.0
 11
196.1508007524831
 21
63.11710535161736
 31
0.0
  0
LINE
  5
CD
330
C9
100
AcDbEntity
  8
0
 62
     9
370
    -2
100
AcDbLine
 10
195.9708007524831
 20
188.1171053516174
 30
0.0
 11
195.9708007524831
 21
63.11710535161736
 31
0.0
  0
INSERT
  5
CE
330
C9
100
AcDbEntity
  8
0
 62
     9
370
    -2
100
AcDbBlockReference
  2
_Oblique
 10
195.9708007524831
 20
188.1171053516174
 30
0.0
 41
6.0
 42
6.0
 43
6.0
 50
90.0
  0
INSERT
  5
CF
330
C9
100
AcDbEntity
  8
0
 62
     9
370
    -2
100
AcDbBlockReference
  2
_Oblique
 10
195.9708007524831
 20
63.11710535161736
 30
0.0
 41
6.0
 42
6.0
 43
6.0
 50
270.0
  0
MTEXT
  5
D0
330
C9
100
AcDbEntity
  8
0
370
    40
100
AcDbMText
 10
187.9708007524831
 20
125.6171053516174
 30
0.0
 40
10.0
 41
0.0
 71
     5
 72
     1
  1
\A1;125
 11
0.0000000000000001
 21
1.0
 31
0.0
 73
     1
 44
1.0
1001
ACAD
1000
MTEXTBEGIN
1070
    73
1070
     1
1070
    44
1040
1.0
1070
    74
1070
     0
1000
MTEXTEND
  0
POINT
  5
D1
330
C9
100
AcDbEntity
  8
Defpoints
 62
     0
100
AcDbPoint
 10
150.6893010521872
 20
188.1171053516174
 30
0.0
  0
POINT
  5
D2
330
C9
100
AcDbEntity
  8
Defpoints
 62
     0
100
AcDbPoint
 10
150.6893010521872
 20
63.11710535161736
 30
0.0
  0
POINT
  5
D3
330
C9
100
AcDbEntity
  8
Defpoints
 62
     0
100
AcDbPoint
 10
195.9708007524831
 20
63.11710535161736
 30
0.0
  0
ENDBLK
  5
D4
330
C9
100
AcDbEntity
  8
0
100
AcDbBlockEnd
  0
BLOCK
  5
D6
330
D5
100
AcDbEntity
  8
0
100
AcDbBlockBegin
  2
*D4
 70
     1
 10
0.0
 20
0.0
 30
0.0
  3
*D4
  1

  0
LINE
  5
D7
330
D5
100
AcDbEntity
  8
0
 62
     9
370
    -2
100
AcDbLine
 10
48.68930105218717
 20
188.1211191130853
 30
0.0
 11
48.68930105218717
 21
198.04830002274
 31
0.0
  0
LINE
  5
D8
330
D5
100
AcDbEntity
  8
0
 62
     9
370
    -2
100
AcDbLine
 10
150.6893010521872
 20
188.1211191130853
 30
0.0
 11
150.6893010521872
 21
198.04830002274
 31
0.0
  0
LINE
  5
D9
330
D5
100
AcDbEntity
  8
0
 62
     9
370
    -2
100
AcDbLine
 10
48.68930105218717
 20
197.86830002274
 30
0.0
 11
150.6893010521872
 21
197.86830002274
 31
0.0
  0
INSERT
  5
DA
330
D5
100
AcDbEntity
  8
0
 62
     9
370
    -2
100
AcDbBlockReference
  2
_Oblique
 10
48.68930105218717
 20
197.86830002274
 30
0.0
 41
6.0
 42
6.0
 43
6.0
 50
180.0
  0
INSERT
  5
DB
330
D5
100
AcDbEntity
  8
0
 62
     9
370
    -2
100
AcDbBlockReference
  2
_Oblique
 10
150.6893010521872
 20
197.86830002274
 30
0.0
 41
6.0
 42
6.0
 43
6.0
  0
MTEXT
  5
DC
330
D5
100
AcDbEntity
  8
0
370
    40
100
AcDbMText
 10
99.68930105218717
 20
205.86830002274
 30
0.0
 40
10.0
 41
0.0
 71
     5
 72
     1
  1
\A1;102
 73
     1
 44
1.0
1001
ACAD
1000
MTEXTBEGIN
1070
    73
1070
     1
1070
    44
1040
1.0
1070
    74
1070
     0
1000
MTEXTEND
  0
POINT
  5
DD
330
D5
100
AcDbEntity
  8
Defpoints
 62
     0
100
AcDbPoint
 10
48.68930105218717
 20
188.0586191130853
 30
0.0
  0
POINT
  5
DE
330
D5
100
AcDbEntity
  8
Defpoints
 62
     0
100
AcDbPoint
 10
150.6893010521872
 20
188.0586191130853
 30
0.0
  0
POINT
  5
DF
330
D5
100
AcDbEntity
  8
Defpoints
 62
     0
100
AcDbPoint
 10
150.6893010521872
 20
197.86830002274
 30
0.0
  0
ENDBLK
  5
E0
330
D5
100
AcDbEntity
  8
0
100
AcDbBlockEnd
  0
BLOCK
  5
E2
330
E1
100
AcDbEntity
  8
0
100
AcDbBlockBegin
  2
*D5
 70
     1
 10
0.0
 20
0.0
 30
0.0
  3
*D5
  1

  0
LINE
  5
E3
330
E1
100
AcDbEntity
  8
0
 62
     9
370
    -2
100
AcDbLine
 10
40.93930105218717
 20
175.9296053516174
 30
0.0
 11
40.93930105218717
 21
213.5165761024595
 31
0.0
  0
LINE
  5
E4
330
E1
100
AcDbEntity
  8
0
 62
     9
370
    -2
100
AcDbLine
 10
159.4393010521871
 20
175.9296053516174
 30
0.0
 11
159.4393010521871
 21
213.5165761024595
 31
0.0
  0
LINE
  5
E5
330
E1
100
AcDbEntity
  8
0
 62
     9
370
    -2
100
AcDbLine
 10
40.93930105218717
 20
213.3365761024595
 30
0.0
 11
159.4393010521871
 21
213.3365761024595
 31
0.0
  0
INSERT
  5
E6
330
E1
100
AcDbEntity
  8
0
 62
     9
370
    -2
100
AcDbBlockReference
  2
_Oblique
 10
40.93930105218717
 20
213.3365761024595
 30
0.0
 41
6.0
 42
6.0
 43
6.0
 50
180.0
  0
INSERT
  5
E7
330
E1
100
AcDbEntity
  8
0
 62
     9
370
    -2
100
AcDbBlockReference
  2
_Oblique
 10
159.4393010521871
 20
213.3365761024595
 30
0.0
 41
6.0
 42
6.0
 43
6.0
  0
MTEXT
  5
E8
330
E1
100
AcDbEntity
  8
0
370
    40
100
AcDbMText
 10
100.1893010521871
 20
221.3365761024595
 30
0.0
 40
10.0
 41
0.0
 71
     5
 72
     1
  1
\A1;119
 73
     1
 44
1.0
1001
ACAD
1000
MTEXTBEGIN
1070
    73
1070
     1
1070
    44
1040
1.0
1070
    74
1070
     0
1000
MTEXTEND
  0
POINT
  5
E9
330
E1
100
AcDbEntity
  8
Defpoints
 62
     0
100
AcDbPoint
 10
40.93930105218717
 20
175.8671053516174
 30
0.0
  0
POINT
  5
EA
330
E1
100
AcDbEntity
  8
Defpoints
 62
     0
100
AcDbPoint
 10
159.4393010521871
 20
175.8671053516174
 30
0.0
  0
POINT
  5
EB
330
E1
100
AcDbEntity
  8
Defpoints
 62
     0
100
AcDbPoint
 10
159.4393010521871
 20
213.3365761024595
 30
0.0
  0
ENDBLK
  5
EC
330
E1
100
AcDbEntity
  8
0
100
AcDbBlockEnd
  0
BLOCK
  5
EE
330
ED
100
AcDbEntity
  8
0
100
AcDbBlockBegin
  2
*D6
 70
     1
 10
0.0
 20
0.0
 30
0.0
  3
*D6
  1

  0
LINE
  5
EF
330
ED
100
AcDbEntity
  8
0
 62
     9
370
    -2
100
AcDbLine
 10
40.93930105218717
 20
13.65326584737468
 30
0.0
 11
40.93930105218717
 21
25.45976471671812
 31
0.0
  0
LINE
  5
F0
330
ED
100
AcDbEntity
  8
0
 62
     9
370
    -2
100
AcDbLine
 10
159.4393010504628
 20
13.65326584737468
 30
0.0
 11
159.4393010504628
 21
25.45976471671812
 31
0.0
  0
LINE
  5
F1
330
ED
100
AcDbEntity
  8
0
 62
     9
370
    -2
100
AcDbLine
 10
40.93930105218717
 20
25.27976471671812
 30
0.0
 11
159.4393010504628
 21
25.27976471671812
 31
0.0
  0
INSERT
  5
F2
330
ED
100
AcDbEntity
  8
0
 62
     9
370
    -2
100
AcDbBlockReference
  2
_Oblique
 10
40.93930105218717
 20
25.27976471671812
 30
0.0
 41
6.0
 42
6.0
 43
6.0
 50
180.0
  0
INSERT
  5
F3
330
ED
100
AcDbEntity
  8
0
 62
     9
370
    -2
100
AcDbBlockReference
  2
_Oblique
 10
159.4393010504628
 20
25.27976471671812
 30
0.0
 41
6.0
 42
6.0
 43
6.0
  0
MTEXT
  5
F4
330
ED
100
AcDbEntity
  8
0
370
    40
100
AcDbMText
 10
100.1893010513249
 20
33.27976471671812
 30
0.0
 40
10.0
 41
0.0
 71
     5
 72
     1
  1
\A1;119
 73
     1
 44
1.0
1001
ACAD
1000
MTEXTBEGIN
1070
    73
1070
     1
1070
    44
1040
1.0
1070
    74
1070
     0
1000
MTEXTEND
  0
POINT
  5
F5
330
ED
100
AcDbEntity
  8
Defpoints
 62
     0
100
AcDbPoint
 10
40.93930105218717
 20
13.59076584737468
 30
0.0
  0
POINT
  5
F6
330
ED
100
AcDbEntity
  8
Defpoints
 62
     0
100
AcDbPoint
 10
159.4393010504628
 20
13.59076584737468
 30
0.0
  0
POINT
  5
F7
330
ED
100
AcDbEntity
  8
Defpoints
 62
     0
100
AcDbPoint
 10
159.4393010504628
 20
25.27976471671812
 30
0.0
  0
ENDBLK
  5
F8
330
ED
100
AcDbEntity
  8
0
100
AcDbBlockEnd
  0
BLOCK
  5
FA
330
F9
100
AcDbEntity
  8
0
100
AcDbBlockBegin
  2
*D7
 70
     1
 10
0.0
 20
0.0
 30
0.0
  3
*D7
  1

  0
LINE
  5
FB
330
F9
100
AcDbEntity
  8
0
 62
     9
370
    -2
100
AcDbLine
 10
41.87680105218729
 20
14.59076584737468
 30
0.0
 11
28.45593060886562
 21
14.59076584737468
 31
0.0
  0
LINE
  5
FC
330
F9
100
AcDbEntity
  8
0
 62
     9
370
    -2
100
AcDbLine
 10
40.87680105218717
 20
-40.40923415262525
 30
0.0
 11
28.45593060886561
 21
-40.40923415262525
 31
0.0
  0
LINE
  5
FD
330
F9
100
AcDbEntity
  8
0
 62
     9
370
    -2
100
AcDbLine
 10
28.63593060886562
 20
14.59076584737468
 30
0.0
 11
28.63593060886561
 21
-40.40923415262525
 31
0.0
  0
INSERT
  5
FE
330
F9
100
AcDbEntity
  8
0
 62
     9
370
    -2
100
AcDbBlockReference
  2
_Oblique
 10
28.63593060886562
 20
14.59076584737468
 30
0.0
 41
6.0
 42
6.0
 43
6.0
 50
90.0
  0
INSERT
  5
FF
330
F9
100
AcDbEntity
  8
0
 62
     9
370
    -2
100
AcDbBlockReference
  2
_Oblique
 10
28.63593060886561
 20
-40.40923415262525
 30
0.0
 41
6.0
 42
6.0
 43
6.0
 50
270.0
  0
MTEXT
  5
100
330
F9
100
AcDbEntity
  8
0
370
    40
100
AcDbMText
 10
20.63593060886562
 20
-12.90923415262528
 30
0.0
 40
10.0
 41
0.0
 71
     5
 72
     1
  1
\A1;55
 11
0.0000000000000001
 21
1.0
 31
0.0
 73
     1
 44
1.0
1001
ACAD
1000
MTEXTBEGIN
1070
    73
1070
     1
1070
    44
1040
1.0
1070
    74
1070
     0
1000
MTEXTEND
  0
POINT
  5
101
330
F9
100
AcDbEntity
  8
Defpoints
 62
     0
100
AcDbPoint
 10
41.93930105218728
 20
14.59076584737468
 30
0.0
  0
POINT
  5
102
330
F9
100
AcDbEntity
  8
Defpoints
 62
     0
100
AcDbPoint
 10
40.93930105218717
 20
-40.40923415262525
 30
0.0
  0
POINT
  5
103
330
F9
100
AcDbEntity
  8
Defpoints
 62
     0
100
AcDbPoint
 10
28.63593060886561
 20
-40.40923415262525
 30
0.0
  0
ENDBLK
  5
104
330
F9
100
AcDbEntity
  8
0
100
AcDbBlockEnd
  0
BLOCK
  5
106
330
105
100
AcDbEntity
  8
0
100
AcDbBlockBegin
  2
*D8
 70
     1
 10
0.0
 20
0.0
 30
0.0
  3
*D8
  1

  0
LINE
  5
107
330
105
100
AcDbEntity
  8
0
 62
     9
370
    -2
100
AcDbLine
 10
184.8278799453836
 20
-14.63329744565041
 30
0.0
 11
184.8278799453836
 21
28.45976471671798
 31
0.0
  0
LINE
  5
108
330
105
100
AcDbEntity
  8
0
 62
     9
370
    -2
100
AcDbLine
 10
308.8278799453836
 20
-14.63329744565041
 30
0.0
 11
308.8278799453836
 21
28.45976471671798
 31
0.0
  0
LINE
  5
109
330
105
100
AcDbEntity
  8
0
 62
     9
370
    -2
100
AcDbLine
 10
184.8278799453836
 20
28.27976471671798
 30
0.0
 11
308.8278799453836
 21
28.27976471671798
 31
0.0
  0
INSERT
  5
10A
330
105
100
AcDbEntity
  8
0
 62
     9
370
    -2
100
AcDbBlockReference
  2
_Oblique
 10
184.8278799453836
 20
28.27976471671798
 30
0.0
 41
6.0
 42
6.0
 43
6.0
 50
180.0
  0
INSERT
  5
10B
330
105
100
AcDbEntity
  8
0
 62
     9
370
    -2
100
AcDbBlockReference
  2
_Oblique
 10
308.8278799453836
 20
28.27976471671798
 30
0.0
 41
6.0
 42
6.0
 43
6.0
  0
MTEXT
  5
10C
330
105
100
AcDbEntity
  8
0
370
    40
100
AcDbMText
 10
246.8278799453837
 20
36.27976471671798
 30
0.0
 40
10.0
 41
0.0
 71
     5
 72
     1
  1
\A1;124
 73
     1
 44
1.0
1001
ACAD
1000
MTEXTBEGIN
1070
    73
1070
     1
1070
    44
1040
1.0
1070
    74
1070
     0
1000
MTEXTEND
  0
POINT
  5
10D
330
105
100
AcDbEntity
  8
Defpoints
 62
     0
100
AcDbPoint
 10
184.8278799453836
 20
-14.69579744565041
 30
0.0
  0
POINT
  5
10E
330
105
100
AcDbEntity
  8
Defpoints
 62
     0
100
AcDbPoint
 10
308.8278799453836
 20
-14.69579744565041
 30
0.0
  0
POINT
  5
10F
330
105
100
AcDbEntity
  8
Defpoints
 62
     0
100
AcDbPoint
 10
308.8278799453836
 20
28.27976471671798
 30
0.0
  0
ENDBLK
  5
110
330
105
100
AcDbEntity
  8
0
100
AcDbBlockEnd
  0
BLOCK
  5
112
330
111
100
AcDbEntity
  8
0
100
AcDbBlockBegin
  2
*D9
 70
     1
 10
0.0
 20
0.0
 30
0.0
  3
*D9
  1

  0
LINE
  5
113
330
111
100
AcDbEntity
  8
0
 62
     9
370
    -2
100
AcDbLine
 10
274.8903799453836
 20
14.59076584737467
 30
0.0
 11
334.2439402990909
 21
14.59076584737466
 31
0.0
  0
LINE
  5
114
330
111
100
AcDbEntity
  8
0
 62
     9
370
    -2
100
AcDbLine
 10
296.8903799453837
 20
-40.40923415262526
 30
0.0
 11
334.2439402990909
 21
-40.40923415262527
 31
0.0
  0
LINE
  5
115
330
111
100
AcDbEntity
  8
0
 62
     9
370
    -2
100
AcDbLine
 10
334.0639402990909
 20
14.59076584737466
 30
0.0
 11
334.0639402990909
 21
-40.40923415262527
 31
0.0
  0
INSERT
  5
116
330
111
100
AcDbEntity
  8
0
 62
     9
370
    -2
100
AcDbBlockReference
  2
_Oblique
 10
334.0639402990909
 20
14.59076584737466
 30
0.0
 41
6.0
 42
6.0
 43
6.0
 50
90.0
  0
INSERT
  5
117
330
111
100
AcDbEntity
  8
0
 62
     9
370
    -2
100
AcDbBlockReference
  2
_Oblique
 10
334.0639402990909
 20
-40.40923415262527
 30
0.0
 41
6.0
 42
6.0
 43
6.0
 50
270.0
  0
MTEXT
  5
118
330
111
100
AcDbEntity
  8
0
370
    40
100
AcDbMText
 10
326.0639402990908
 20
-12.90923415262525
 30
0.0
 40
10.0
 41
0.0
 71
     5
 72
     1
  1
\A1;55
 11
0.0000000000000001
 21
1.0
 31
0.0
 73
     1
 44
1.0
1001
ACAD
1000
MTEXTBEGIN
1070
    73
1070
     1
1070
    44
1040
1.0
1070
    74
1070
     0
1000
MTEXTEND
  0
POINT
  5
119
330
111
100
AcDbEntity
  8
Defpoints
 62
     0
100
AcDbPoint
 10
274.8278799453836
 20
14.59076584737467
 30
0.0
  0
POINT
  5
11A
330
111
100
AcDbEntity
  8
Defpoints
 62
     0
100
AcDbPoint
 10
296.8278799453837
 20
-40.40923415262526
 30
0.0
  0
POINT
  5
11B
330
111
100
AcDbEntity
  8
Defpoints
 62
     0
100
AcDbPoint
 10
334.0639402990909
 20
-40.40923415262527
 30
0.0
  0
ENDBLK
  5
11C
330
111
100
AcDbEntity
  8
0
100
AcDbBlockEnd
  0
BLOCK
  5
593
330
589
100
AcDbEntity
  8
0
100
AcDbBlockBegin
  2
*D11
 70
     1
 10
0.0
 20
0.0
 30
0.0
  3
*D11
  1

  0
LINE
  5
58A
330
589
100
AcDbEntity
  8
0
 62
     9
370
    -2
100
AcDbLine
 10
194.7620345314007
 20
181.7240798338473
 30
0.0
 11
212.7892146303913
 21
181.7240798338473
 31
0.0
  0
LINE
  5
58B
330
589
100
AcDbEntity
  8
0
 62
     9
370
    -2
100
AcDbLine
 10
194.7620345314007
 20
81.16157983384727
 30
0.0
 11
212.7892146303913
 21
81.16157983384727
 31
0.0
  0
LINE
  5
58C
330
589
100
AcDbEntity
  8
0
 62
     9
370
    -2
100
AcDbLine
 10
212.6092146303913
 20
181.7240798338473
 30
0.0
 11
212.6092146303913
 21
81.16157983384727
 31
0.0
  0
INSERT
  5
58D
330
589
100
AcDbEntity
  8
0
 62
     9
370
    -2
100
AcDbBlockReference
  2
_Oblique
 10
212.6092146303913
 20
181.7240798338473
 30
0.0
 41
6.0
 42
6.0
 43
6.0
 50
90.0
  0
INSERT
  5
58E
330
589
100
AcDbEntity
  8
0
 62
     9
370
    -2
100
AcDbBlockReference
  2
_Oblique
 10
212.6092146303913
 20
81.16157983384727
 30
0.0
 41
6.0
 42
6.0
 43
6.0
 50
270.0
  0
MTEXT
  5
58F
330
589
100
AcDbEntity
  8
0
370
    40
100
AcDbMText
 10
204.6092146303912
 20
131.4428298338473
 30
0.0
 40
10.0
 41
0.0
 71
     5
 72
     1
  1
\A1;101
 11
0.0000000000000001
 21
1.0
 31
0.0
 73
     1
 44
1.0
1001
ACAD
1000
MTEXTBEGIN
1070
    73
1070
     1
1070
    44
1040
1.0
1070
    74
1070
     0
1000
MTEXTEND
  0
POINT
  5
590
330
589
100
AcDbEntity
  8
Defpoints
 62
     0
100
AcDbPoint
 10
194.6995345314007
 20
181.7240798338473
 30
0.0
  0
POINT
  5
591
330
589
100
AcDbEntity
  8
Defpoints
 62
     0
100
AcDbPoint
 10
194.6995345314007
 20
81.16157983384727
 30
0.0
  0
POINT
  5
592
330
589
100
AcDbEntity
  8
Defpoints
 62
     0
100
AcDbPoint
 10
212.6092146303913
 20
81.16157983384727
 30
0.0
  0
ENDBLK
  5
594
330
589
100
AcDbEntity
  8
0
100
AcDbBlockEnd
  0
BLOCK
  5
59F
330
595
100
AcDbEntity
  8
0
100
AcDbBlockBegin
  2
*D12
 70
     1
 10
0.0
 20
0.0
 30
0.0
  3
*D12
  1

  0
LINE
  5
596
330
595
100
AcDbEntity
  8
0
 62
     9
370
    -2
100
AcDbLine
 10
186.0120345314007
 20
193.9115798338473
 30
0.0
 11
231.4110342316967
 21
193.9115798338473
 31
0.0
  0
LINE
  5
597
330
595
100
AcDbEntity
  8
0
 62
     9
370
    -2
100
AcDbLine
 10
186.0120345314007
 20
68.91157983384727
 30
0.0
 11
231.4110342316967
 21
68.91157983384726
 31
0.0
  0
LINE
  5
598
330
595
100
AcDbEntity
  8
0
 62
     9
370
    -2
100
AcDbLine
 10
231.2310342316968
 20
193.9115798338473
 30
0.0
 11
231.2310342316967
 21
68.91157983384726
 31
0.0
  0
INSERT
  5
599
330
595
100
AcDbEntity
  8
0
 62
     9
370
    -2
100
AcDbBlockReference
  2
_Oblique
 10
231.2310342316968
 20
193.9115798338473
 30
0.0
 41
6.0
 42
6.0
 43
6.0
 50
90.0
  0
INSERT
  5
59A
330
595
100
AcDbEntity
  8
0
 62
     9
370
    -2
100
AcDbBlockReference
  2
_Oblique
 10
231.2310342316967
 20
68.91157983384726
 30
0.0
 41
6.0
 42
6.0
 43
6.0
 50
270.0
  0
MTEXT
  5
59B
330
595
100
AcDbEntity
  8
0
370
    40
100
AcDbMText
 10
223.2310342316967
 20
131.4115798338473
 30
0.0
 40
10.0
 41
0.0
 71
     5
 72
     1
  1
\A1;125
 11
0.0000000000000001
 21
1.0
 31
0.0
 73
     1
 44
1.0
1001
ACAD
1000
MTEXTBEGIN
1070
    73
1070
     1
1070
    44
1040
1.0
1070
    74
1070
     0
1000
MTEXTEND
  0
POINT
  5
59C
330
595
100
AcDbEntity
  8
Defpoints
 62
     0
100
AcDbPoint
 10
185.9495345314007
 20
193.9115798338473
 30
0.0
  0
POINT
  5
59D
330
595
100
AcDbEntity
  8
Defpoints
 62
     0
100
AcDbPoint
 10
185.9495345314007
 20
68.91157983384727
 30
0.0
  0
POINT
  5
59E
330
595
100
AcDbEntity
  8
Defpoints
 62
     0
100
AcDbPoint
 10
231.2310342316967
 20
68.91157983384726
 30
0.0
  0
ENDBLK
  5
5A0
330
595
100
AcDbEntity
  8
0
100
AcDbBlockEnd
  0
BLOCK
  5
5AB
330
5A1
100
AcDbEntity
  8
0
100
AcDbBlockBegin
  2
*D13
 70
     1
 10
0.0
 20
0.0
 30
0.0
  3
*D13
  1

  0
LINE
  5
5A2
330
5A1
100
AcDbEntity
  8
0
 62
     9
370
    -2
100
AcDbLine
 10
83.94953453140075
 20
193.9155935953152
 30
0.0
 11
83.94953453140075
 21
203.8427745049699
 31
0.0
  0
LINE
  5
5A3
330
5A1
100
AcDbEntity
  8
0
 62
     9
370
    -2
100
AcDbLine
 10
185.9495345314007
 20
193.9155935953152
 30
0.0
 11
185.9495345314007
 21
203.8427745049699
 31
0.0
  0
LINE
  5
5A4
330
5A1
100
AcDbEntity
  8
0
 62
     9
370
    -2
100
AcDbLine
 10
83.94953453140075
 20
203.6627745049699
 30
0.0
 11
185.9495345314007
 21
203.6627745049699
 31
0.0
  0
INSERT
  5
5A5
330
5A1
100
AcDbEntity
  8
0
 62
     9
370
    -2
100
AcDbBlockReference
  2
_Oblique
 10
83.94953453140075
 20
203.6627745049699
 30
0.0
 41
6.0
 42
6.0
 43
6.0
 50
180.0
  0
INSERT
  5
5A6
330
5A1
100
AcDbEntity
  8
0
 62
     9
370
    -2
100
AcDbBlockReference
  2
_Oblique
 10
185.9495345314007
 20
203.6627745049699
 30
0.0
 41
6.0
 42
6.0
 43
6.0
  0
MTEXT
  5
5A7
330
5A1
100
AcDbEntity
  8
0
370
    40
100
AcDbMText
 10
134.9495345314007
 20
211.6627745049699
 30
0.0
 40
10.0
 41
0.0
 71
     5
 72
     1
  1
\A1;102
 73
     1
 44
1.0
1001
ACAD
1000
MTEXTBEGIN
1070
    73
1070
     1
1070
    44
1040
1.0
1070
    74
1070
     0
1000
MTEXTEND
  0
POINT
  5
5A8
330
5A1
100
AcDbEntity
  8
Defpoints
 62
     0
100
AcDbPoint
 10
83.94953453140075
 20
193.8530935953152
 30
0.0
  0
POINT
  5
5A9
330
5A1
100
AcDbEntity
  8
Defpoints
 62
     0
100
AcDbPoint
 10
185.9495345314007
 20
193.8530935953152
 30
0.0
  0
POINT
  5
5AA
330
5A1
100
AcDbEntity
  8
Defpoints
 62
     0
100
AcDbPoint
 10
185.9495345314007
 20
203.6627745049699
 30
0.0
  0
ENDBLK
  5
5AC
330
5A1
100
AcDbEntity
  8
0
100
AcDbBlockEnd
  0
BLOCK
  5
5B7
330
5AD
100
AcDbEntity
  8
0
100
AcDbBlockBegin
  2
*D14
 70
     1
 10
0.0
 20
0.0
 30
0.0
  3
*D14
  1

  0
LINE
  5
5AE
330
5AD
100
AcDbEntity
  8
0
 62
     9
370
    -2
100
AcDbLine
 10
76.19953453140076
 20
181.7240798338473
 30
0.0
 11
76.19953453140076
 21
219.3110505846894
 31
0.0
  0
LINE
  5
5AF
330
5AD
100
AcDbEntity
  8
0
 62
     9
370
    -2
100
AcDbLine
 10
194.6995345314007
 20
181.7240798338473
 30
0.0
 11
194.6995345314007
 21
219.3110505846894
 31
0.0
  0
LINE
  5
5B0
330
5AD
100
AcDbEntity
  8
0
 62
     9
370
    -2
100
AcDbLine
 10
76.19953453140076
 20
219.1310505846894
 30
0.0
 11
194.6995345314007
 21
219.1310505846894
 31
0.0
  0
INSERT
  5
5B1
330
5AD
100
AcDbEntity
  8
0
 62
     9
370
    -2
100
AcDbBlockReference
  2
_Oblique
 10
76.19953453140076
 20
219.1310505846894
 30
0.0
 41
6.0
 42
6.0
 43
6.0
 50
180.0
  0
INSERT
  5
5B2
330
5AD
100
AcDbEntity
  8
0
 62
     9
370
    -2
100
AcDbBlockReference
  2
_Oblique
 10
194.6995345314007
 20
219.1310505846894
 30
0.0
 41
6.0
 42
6.0
 43
6.0
  0
MTEXT
  5
5B3
330
5AD
100
AcDbEntity
  8
0
370
    40
100
AcDbMText
 10
135.4495345314007
 20
227.1310505846894
 30
0.0
 40
10.0
 41
0.0
 71
     5
 72
     1
  1
\A1;119
 73
     1
 44
1.0
1001
ACAD
1000
MTEXTBEGIN
1070
    73
1070
     1
1070
    44
1040
1.0
1070
    74
1070
     0
1000
MTEXTEND
  0
POINT
  5
5B4
330
5AD
100
AcDbEntity
  8
Defpoints
 62
     0
100
AcDbPoint
 10
76.19953453140076
 20
181.6615798338473
 30
0.0
  0
POINT
  5
5B5
330
5AD
100
AcDbEntity
  8
Defpoints
 62
     0
100
AcDbPoint
 10
194.6995345314007
 20
181.6615798338473
 30
0.0
  0
POINT
  5
5B6
330
5AD
100
AcDbEntity
  8
Defpoints
 62
     0
100
AcDbPoint
 10
194.6995345314007
 20
219.1310505846894
 30
0.0
  0
ENDBLK
  5
5B8
330
5AD
100
AcDbEntity
  8
0
100
AcDbBlockEnd
  0
BLOCK
  5
5C3
330
5B9
100
AcDbEntity
  8
0
100
AcDbBlockBegin
  2
*D15
 70
     1
 10
0.0
 20
0.0
 30
0.0
  3
*D15
  1

  0
LINE
  5
5BA
330
5B9
100
AcDbEntity
  8
0
 62
     9
370
    -2
100
AcDbLine
 10
76.19953453140076
 20
19.44774032960459
 30
0.0
 11
76.19953453140076
 21
31.25423919894803
 31
0.0
  0
LINE
  5
5BB
330
5B9
100
AcDbEntity
  8
0
 62
     9
370
    -2
100
AcDbLine
 10
194.6995345296763
 20
19.44774032960459
 30
0.0
 11
194.6995345296763
 21
31.25423919894803
 31
0.0
  0
LINE
  5
5BC
330
5B9
100
AcDbEntity
  8
0
 62
     9
370
    -2
100
AcDbLine
 10
76.19953453140076
 20
31.07423919894803
 30
0.0
 11
194.6995345296763
 21
31.07423919894803
 31
0.0
  0
INSERT
  5
5BD
330
5B9
100
AcDbEntity
  8
0
 62
     9
370
    -2
100
AcDbBlockReference
  2
_Oblique
 10
76.19953453140076
 20
31.07423919894803
 30
0.0
 41
6.0
 42
6.0
 43
6.0
 50
180.0
  0
INSERT
  5
5BE
330
5B9
100
AcDbEntity
  8
0
 62
     9
370
    -2
100
AcDbBlockReference
  2
_Oblique
 10
194.6995345296763
 20
31.07423919894803
 30
0.0
 41
6.0
 42
6.0
 43
6.0
  0
MTEXT
  5
5BF
330
5B9
100
AcDbEntity
  8
0
370
    40
100
AcDbMText
 10
135.4495345305385
 20
39.07423919894803
 30
0.0
 40
10.0
 41
0.0
 71
     5
 72
     1
  1
\A1;119
 73
     1
 44
1.0
1001
ACAD
1000
MTEXTBEGIN
1070
    73
1070
     1
1070
    44
1040
1.0
1070
    74
1070
     0
1000
MTEXTEND
  0
POINT
  5
5C0
330
5B9
100
AcDbEntity
  8
Defpoints
 62
     0
100
AcDbPoint
 10
76.19953453140076
 20
19.38524032960459
 30
0.0
  0
POINT
  5
5C1
330
5B9
100
AcDbEntity
  8
Defpoints
 62
     0
100
AcDbPoint
 10
194.6995345296763
 20
19.38524032960459
 30
0.0
  0
POINT
  5
5C2
330
5B9
100
AcDbEntity
  8
Defpoints
 62
     0
100
AcDbPoint
 10
194.6995345296763
 20
31.07423919894803
 30
0.0
  0
ENDBLK
  5
5C4
330
5B9
100
AcDbEntity
  8
0
100
AcDbBlockEnd
  0
BLOCK
  5
5CF
330
5C5
100
AcDbEntity
  8
0
100
AcDbBlockBegin
  2
*D16
 70
     1
 10
0.0
 20
0.0
 30
0.0
  3
*D16
  1

  0
LINE
  5
5C6
330
5C5
100
AcDbEntity
  8
0
 62
     9
370
    -2
100
AcDbLine
 10
77.13703453140087
 20
20.38524032960459
 30
0.0
 11
63.7161640880792
 21
20.38524032960459
 31
0.0
  0
LINE
  5
5C7
330
5C5
100
AcDbEntity
  8
0
 62
     9
370
    -2
100
AcDbLine
 10
76.13703453140075
 20
-34.61475967039535
 30
0.0
 11
63.71616408807919
 21
-34.61475967039535
 31
0.0
  0
LINE
  5
5C8
330
5C5
100
AcDbEntity
  8
0
 62
     9
370
    -2
100
AcDbLine
 10
63.89616408807921
 20
20.38524032960459
 30
0.0
 11
63.89616408807919
 21
-34.61475967039535
 31
0.0
  0
INSERT
  5
5C9
330
5C5
100
AcDbEntity
  8
0
 62
     9
370
    -2
100
AcDbBlockReference
  2
_Oblique
 10
63.89616408807921
 20
20.38524032960459
 30
0.0
 41
6.0
 42
6.0
 43
6.0
 50
90.0
  0
INSERT
  5
5CA
330
5C5
100
AcDbEntity
  8
0
 62
     9
370
    -2
100
AcDbBlockReference
  2
_Oblique
 10
63.89616408807919
 20
-34.61475967039535
 30
0.0
 41
6.0
 42
6.0
 43
6.0
 50
270.0
  0
MTEXT
  5
5CB
330
5C5
100
AcDbEntity
  8
0
370
    40
100
AcDbMText
 10
55.8961640880792
 20
-7.114759670395366
 30
0.0
 40
10.0
 41
0.0
 71
     5
 72
     1
  1
\A1;55
 11
0.0000000000000001
 21
1.0
 31
0.0
 73
     1
 44
1.0
1001
ACAD
1000
MTEXTBEGIN
1070
    73
1070
     1
1070
    44
1040
1.0
1070
    74
1070
     0
1000
MTEXTEND
  0
POINT
  5
5CC
330
5C5
100
AcDbEntity
  8
Defpoints
 62
     0
100
AcDbPoint
 10
77.19953453140087
 20
20.38524032960459
 30
0.0
  0
POINT
  5
5CD
330
5C5
100
AcDbEntity
  8
Defpoints
 62
     0
100
AcDbPoint
 10
76.19953453140076
 20
-34.61475967039535
 30
0.0
  0
POINT
  5
5CE
330
5C5
100
AcDbEntity
  8
Defpoints
 62
     0
100
AcDbPoint
 10
63.89616408807919
 20
-34.61475967039535
 30
0.0
  0
ENDBLK
  5
5D0
330
5C5
100
AcDbEntity
  8
0
100
AcDbBlockEnd
  0
BLOCK
  5
5DB
330
5D1
100
AcDbEntity
  8
0
100
AcDbBlockBegin
  2
*D17
 70
     1
 10
0.0
 20
0.0
 30
0.0
  3
*D17
  1

  0
LINE
  5
5D2
330
5D1
100
AcDbEntity
  8
0
 62
     9
370
    -2
100
AcDbLine
 10
220.0881134245972
 20
-8.838822963420504
 30
0.0
 11
220.0881134245972
 21
34.25423919894789
 31
0.0
  0
LINE
  5
5D3
330
5D1
100
AcDbEntity
  8
0
 62
     9
370
    -2
100
AcDbLine
 10
344.0881134245972
 20
-8.838822963420504
 30
0.0
 11
344.0881134245972
 21
34.25423919894789
 31
0.0
  0
LINE
  5
5D4
330
5D1
100
AcDbEntity
  8
0
 62
     9
370
    -2
100
AcDbLine
 10
220.0881134245972
 20
34.07423919894789
 30
0.0
 11
344.0881134245972
 21
34.07423919894789
 31
0.0
  0
INSERT
  5
5D5
330
5D1
100
AcDbEntity
  8
0
 62
     9
370
    -2
100
AcDbBlockReference
  2
_Oblique
 10
220.0881134245972
 20
34.07423919894789
 30
0.0
 41
6.0
 42
6.0
 43
6.0
 50
180.0
  0
INSERT
  5
5D6
330
5D1
100
AcDbEntity
  8
0
 62
     9
370
    -2
100
AcDbBlockReference
  2
_Oblique
 10
344.0881134245972
 20
34.07423919894789
 30
0.0
 41
6.0
 42
6.0
 43
6.0
  0
MTEXT
  5
5D7
330
5D1
100
AcDbEntity
  8
0
370
    40
100
AcDbMText
 10
282.0881134245972
 20
42.07423919894789
 30
0.0
 40
10.0
 41
0.0
 71
     5
 72
     1
  1
\A1;124
 73
     1
 44
1.0
1001
ACAD
1000
MTEXTBEGIN
1070
    73
1070
     1
1070
    44
1040
1.0
1070
    74
1070
     0
1000
MTEXTEND
  0
POINT
  5
5D8
330
5D1
100
AcDbEntity
  8
Defpoints
 62
     0
100
AcDbPoint
 10
220.0881134245972
 20
-8.901322963420504
 30
0.0
  0
POINT
  5
5D9
330
5D1
100
AcDbEntity
  8
Defpoints
 62
     0
100
AcDbPoint
 10
344.0881134245972
 20
-8.901322963420504
 30
0.0
  0
POINT
  5
5DA
330
5D1
100
AcDbEntity
  8
Defpoints
 62
     0
100
AcDbPoint
 10
344.0881134245972
 20
34.07423919894789
 30
0.0
  0
ENDBLK
  5
5DC
330
5D1
100
AcDbEntity
  8
0
100
AcDbBlockEnd
  0
BLOCK
  5
5E7
330
5DD
100
AcDbEntity
  8
0
100
AcDbBlockBegin
  2
*D18
 70
     1
 10
0.0
 20
0.0
 30
0.0
  3
*D18
  1

  0
LINE
  5
5E9
330
5DD
100
AcDbEntity
  8
0
 62
     9
370
    -2
100
AcDbLine
 10
310.1506134245972
 20
20.38524032960458
 30
0.0
 11
369.5041737783045
 21
20.38524032960456
 31
0.0
  0
LINE
  5
5EA
330
5DD
100
AcDbEntity
  8
0
 62
     9
370
    -2
100
AcDbLine
 10
332.1506134245972
 20
-34.61475967039536
 30
0.0
 11
369.5041737783045
 21
-34.61475967039537
 31
0.0
  0
LINE
  5
5EB
330
5DD
100
AcDbEntity
  8
0
 62
     9
370
    -2
100
AcDbLine
 10
369.3241737783044
 20
20.38524032960456
 30
0.0
 11
369.3241737783044
 21
-34.61475967039537
 31
0.0
  0
INSERT
  5
5EC
330
5DD
100
AcDbEntity
  8
0
 62
     9
370
    -2
100
AcDbBlockReference
  2
_Oblique
 10
369.3241737783044
 20
20.38524032960456
 30
0.0
 41
6.0
 42
6.0
 43
6.0
 50
90.0
  0
INSERT
  5
5ED
330
5DD
100
AcDbEntity
  8
0
 62
     9
370
    -2
100
AcDbBlockReference
  2
_Oblique
 10
369.3241737783044
 20
-34.61475967039537
 30
0.0
 41
6.0
 42
6.0
 43
6.0
 50
270.0
  0
MTEXT
  5
5EE
330
5DD
100
AcDbEntity
  8
0
370
    40
100
AcDbMText
 10
361.3241737783044
 20
-7.114759670395342
 30
0.0
 40
10.0
 41
0.0
 71
     5
 72
     1
  1
\A1;55
 11
0.0000000000000001
 21
1.0
 31
0.0
 73
     1
 44
1.0
1001
ACAD
1000
MTEXTBEGIN
1070
    73
1070
     1
1070
    44
1040
1.0
1070
    74
1070
     0
1000
MTEXTEND
  0
POINT
  5
5EF
330
5DD
100
AcDbEntity
  8
Defpoints
 62
     0
100
AcDbPoint
 10
310.0881134245972
 20
20.38524032960458
 30
0.0
  0
POINT
  5
5F0
330
5DD
100
AcDbEntity
  8
Defpoints
 62
     0
100
AcDbPoint
 10
332.0881134245972
 20
-34.61475967039536
 30
0.0
  0
POINT
  5
5F1
330
5DD
100
AcDbEntity
  8
Defpoints
 62
     0
100
AcDbPoint
 10
369.3241737783044
 20
-34.61475967039537
 30
0.0
  0
ENDBLK
  5
5E8
330
5DD
100
AcDbEntity
  8
0
100
AcDbBlockEnd
  0
ENDSEC
  0
SECTION
  2
ENTITIES
  0
LWPOLYLINE
  5
359
330
1F
100
AcDbEntity
  8
0
100
AcDbPolyline
 90
        2
 70
     0
 43
0.0
 10
76.19953453140076
 20
81.16157983384727
 10
76.19953453140076
 20
181.6615798338473
  0
LWPOLYLINE
  5
35A
330
1F
100
AcDbEntity
  8
0
100
AcDbPolyline
 90
        2
 70
     0
 43
0.0
 10
194.6995345314007
 20
181.6615798338473
 10
194.6995345314007
 20
81.16157983384727
  0
LWPOLYLINE
  5
35B
102
{ACAD_REACTORS
330
576
102
}
330
1F
100
AcDbEntity
  8
0
 62
     4
100
AcDbPolyline
 90
        3
 70
     0
 43
0.0
 10
83.94953453140075
 20
181.4540110265079
 10
83.94953453140075
 20
193.8530935953152
 10
94.1495345314008
 20
193.8530935953152
  0
LWPOLYLINE
  5
35C
102
{ACAD_REACTORS
330
576
102
}
330
1F
100
AcDbEntity
  8
0
 62
     4
100
AcDbPolyline
 90
        3
 70
     0
 43
0.0
 10
104.3495345314007
 20
193.8530935953152
 10
185.9495345314007
 20
193.8530935953152
 10
185.9495345314007
 20
181.4540110265079
  0
LWPOLYLINE
  5
35D
330
1F
100
AcDbEntity
  8
0
 62
     4
100
AcDbPolyline
 90
        3
 70
     0
 43
0.0
 10
83.94953453140075
 20
181.4540110265079
 10
83.94953453140075
 20
182.1558458888932
 10
94.1495345314008
 20
182.1558458888932
  0
LWPOLYLINE
  5
35E
330
1F
100
AcDbEntity
  8
0
 62
     4
100
AcDbPolyline
 90
        3
 70
     0
 43
0.0
 10
104.3495345314007
 20
182.1558458888932
 10
185.9495345314007
 20
182.1558458888932
 10
185.9495345314007
 20
181.4540110265079
  0
LWPOLYLINE
  5
35F
330
1F
100
AcDbEntity
  8
0
100
AcDbPolyline
 90
        2
 70
     0
 43
0.0
 10
76.19953453140076
 20
91.41157983384728
 10
76.19953453140076
 20
171.4115798338473
  0
LWPOLYLINE
  5
360
330
1F
100
AcDbEntity
  8
0
100
AcDbPolyline
 90
        2
 70
     0
 43
0.0
 10
82.65528578527957
 20
171.4115798338473
 10
187.6552857852795
 20
171.4115798338473
  0
LWPOLYLINE
  5
361
330
1F
100
AcDbEntity
  8
0
100
AcDbPolyline
 90
        2
 70
     0
 43
0.0
 10
194.6995345314007
 20
171.4115798338473
 10
194.6995345314007
 20
91.41157983384728
  0
LWPOLYLINE
  5
362
330
1F
100
AcDbEntity
  8
0
100
AcDbPolyline
 90
        2
 70
     0
 43
0.0
 10
177.8500236042543
 20
91.41157983384728
 10
174.8500236042543
 20
91.41157983384728
  0
LWPOLYLINE
  5
363
330
1F
100
AcDbEntity
  8
0
100
AcDbPolyline
 90
        2
 70
     0
 43
0.0
 10
171.8500236042543
 20
91.41157983384728
 10
168.8500236042543
 20
91.41157983384728
  0
LWPOLYLINE
  5
364
330
1F
100
AcDbEntity
  8
0
100
AcDbPolyline
 90
        2
 70
     0
 43
0.0
 10
165.8500236042543
 20
91.41157983384728
 10
162.8500236042543
 20
91.41157983384728
  0
LWPOLYLINE
  5
365
330
1F
100
AcDbEntity
  8
0
100
AcDbPolyline
 90
        2
 70
     0
 43
0.0
 10
159.8500236042543
 20
91.41157983384728
 10
156.8500236042543
 20
91.41157983384728
  0
LWPOLYLINE
  5
366
330
1F
100
AcDbEntity
  8
0
100
AcDbPolyline
 90
        2
 70
     0
 43
0.0
 10
153.8500236042543
 20
91.41157983384728
 10
150.8500236042543
 20
91.41157983384728
  0
LWPOLYLINE
  5
367
330
1F
100
AcDbEntity
  8
0
100
AcDbPolyline
 90
        2
 70
     0
 43
0.0
 10
147.8500236042543
 20
91.41157983384728
 10
144.8500236042543
 20
91.41157983384728
  0
LWPOLYLINE
  5
368
330
1F
100
AcDbEntity
  8
0
100
AcDbPolyline
 90
        2
 70
     0
 43
0.0
 10
141.8500236042543
 20
91.41157983384728
 10
138.8500236042543
 20
91.41157983384728
  0
LWPOLYLINE
  5
369
330
1F
100
AcDbEntity
  8
0
100
AcDbPolyline
 90
        2
 70
     0
 43
0.0
 10
135.8500236042543
 20
91.41157983384728
 10
132.8500236042543
 20
91.41157983384728
  0
LWPOLYLINE
  5
36A
330
1F
100
AcDbEntity
  8
0
100
AcDbPolyline
 90
        2
 70
     0
 43
0.0
 10
129.8500236042543
 20
91.41157983384728
 10
126.8500236042543
 20
91.41157983384728
  0
LWPOLYLINE
  5
36B
330
1F
100
AcDbEntity
  8
0
100
AcDbPolyline
 90
        2
 70
     0
 43
0.0
 10
123.8500236042543
 20
91.41157983384728
 10
120.8500236042543
 20
91.41157983384728
  0
LWPOLYLINE
  5
36C
330
1F
100
AcDbEntity
  8
0
100
AcDbPolyline
 90
        2
 70
     0
 43
0.0
 10
117.8500236042543
 20
91.41157983384728
 10
114.8500236042543
 20
91.41157983384728
  0
LWPOLYLINE
  5
36D
330
1F
100
AcDbEntity
  8
0
100
AcDbPolyline
 90
        2
 70
     0
 43
0.0
 10
111.8500236042543
 20
91.41157983384728
 10
108.8500236042543
 20
91.41157983384728
  0
LWPOLYLINE
  5
36E
330
1F
100
AcDbEntity
  8
0
100
AcDbPolyline
 90
        2
 70
     0
 43
0.0
 10
105.8500236042543
 20
91.41157983384728
 10
102.8500236042543
 20
91.41157983384728
  0
LWPOLYLINE
  5
36F
330
1F
100
AcDbEntity
  8
0
100
AcDbPolyline
 90
        2
 70
     0
 43
0.0
 10
99.85002360425434
 20
91.41157983384728
 10
96.85002360425436
 20
91.41157983384728
  0
LWPOLYLINE
  5
370
330
1F
100
AcDbEntity
  8
0
100
AcDbPolyline
 90
        2
 70
     0
 43
0.0
 10
93.85002360425435
 20
91.41157983384728
 10
90.85002360425434
 20
91.41157983384728
  0
LWPOLYLINE
  5
371
330
1F
100
AcDbEntity
  8
0
100
AcDbPolyline
 90
        2
 70
     0
 43
0.0
 10
87.85002360425435
 20
91.41157983384728
 10
84.85002360425434
 20
91.41157983384728
  0
LWPOLYLINE
  5
372
330
1F
100
AcDbEntity
  8
0
100
AcDbPolyline
 90
        2
 70
     0
 43
0.0
 10
91.65528578527958
 20
91.41157983384728
 10
88.65528578527957
 20
91.41157983384728
  0
LWPOLYLINE
  5
373
330
1F
100
AcDbEntity
  8
0
100
AcDbPolyline
 90
        2
 70
     0
 43
0.0
 10
85.65528578527958
 20
91.41157983384728
 10
82.65528578527957
 20
91.41157983384728
  0
LWPOLYLINE
  5
374
102
{ACAD_REACTORS
330
56F
330
579
102
}
330
1F
100
AcDbEntity
  8
0
100
AcDbPolyline
 90
        4
 70
     1
 43
0.0
 10
76.19953453140076
 20
81.16157983384727
 10
76.19953453140076
 20
181.6615798338473
 10
194.6995345314007
 20
181.6615798338473
 10
194.6995345314007
 20
81.16157983384727
  0
LWPOLYLINE
  5
375
330
1F
100
AcDbEntity
  8
0
100
AcDbPolyline
 90
        4
 70
     1
 43
0.0
 10
76.19953453140076
 20
101.9115798338472
 10
76.19953453140076
 20
160.9115798338473
 10
194.6995345314007
 20
160.9115798338473
 10
194.6995345314007
 20
101.9115798338472
  0
LWPOLYLINE
  5
376
330
1F
100
AcDbEntity
  8
0
 62
     4
100
AcDbPolyline
 90
        4
 70
     0
 43
0.0
 10
104.3495345314007
 20
193.9115798338473
 10
185.9495345314007
 20
193.9115798338473
 10
185.9495345314007
 20
186.4253413017372
 10
104.3495345314007
 20
186.4253413017372
  0
LWPOLYLINE
  5
377
330
1F
100
AcDbEntity
  8
0
 62
     4
100
AcDbPolyline
 90
        4
 70
     0
 43
0.0
 10
94.14953453140082
 20
186.4253413017372
 10
83.94953453140075
 20
186.4253413017372
 10
83.94953453140075
 20
193.9115798338473
 10
94.1495345314008
 20
193.9115798338473
  0
LWPOLYLINE
  5
378
330
1F
100
AcDbEntity
  8
0
 62
     4
100
AcDbPolyline
 90
        4
 70
     1
 43
0.0
 10
83.94953453140075
 20
186.4253413017372
 10
83.94953453140075
 20
193.9115798338473
 10
89.04953453140079
 20
193.9115798338473
 10
89.04953453140079
 20
186.4253413017372
  0
CIRCLE
  5
379
330
1F
100
AcDbEntity
  8
0
 62
     4
100
AcDbCircle
 10
86.49953453140083
 20
190.1392174485262
 30
0.0
 40
1.871559633027521
  0
LWPOLYLINE
  5
37A
330
1F
100
AcDbEntity
  8
0
 62
     4
100
AcDbPolyline
 90
        4
 70
     1
 43
0.0
 10
87.5340672027473
 20
191.5684913108002
 10
88.01931826475934
 20
191.0355092677913
 10
85.46500186005435
 20
188.7099435862523
 10
84.9797507980422
 20
189.2429256292612
  0
LWPOLYLINE
  5
37B
330
1F
100
AcDbEntity
  8
0
 62
     4
100
AcDbPolyline
 90
        4
 70
     1
 43
0.0
 10
89.04953453140079
 20
186.4253413017372
 10
89.04953453140079
 20
193.9115798338473
 10
94.1495345314008
 20
193.9115798338473
 10
94.1495345314008
 20
186.4253413017372
  0
CIRCLE
  5
37C
330
1F
100
AcDbEntity
  8
0
 62
     4
100
AcDbCircle
 10
91.59953453140074
 20
190.1392174485262
 30
0.0
 40
1.871559633027521
  0
LWPOLYLINE
  5
37D
330
1F
100
AcDbEntity
  8
0
 62
     4
100
AcDbPolyline
 90
        4
 70
     1
 43
0.0
 10
92.63406720274721
 20
191.5684913108002
 10
93.11931826475936
 20
191.0355092677913
 10
90.56500186005425
 20
188.7099435862523
 10
90.07975079804223
 20
189.2429256292612
  0
LWPOLYLINE
  5
37E
330
1F
100
AcDbEntity
  8
0
 62
     4
100
AcDbPolyline
 90
        2
 70
     0
 43
0.0
 10
94.1495345314008
 20
186.4253413017372
 10
94.1495345314008
 20
193.9115798338473
  0
LWPOLYLINE
  5
37F
330
1F
100
AcDbEntity
  8
0
 62
     4
100
AcDbPolyline
 90
        2
 70
     0
 43
0.0
 10
104.3495345314007
 20
193.9115798338473
 10
104.3495345314007
 20
186.4253413017372
  0
LWPOLYLINE
  5
380
330
1F
100
AcDbEntity
  8
0
 62
     4
100
AcDbPolyline
 90
        4
 70
     1
 43
0.0
 10
104.3495345314007
 20
186.4253413017372
 10
104.3495345314007
 20
193.9115798338473
 10
109.4495345314007
 20
193.9115798338473
 10
109.4495345314007
 20
186.4253413017372
  0
CIRCLE
  5
381
330
1F
100
AcDbEntity
  8
0
 62
     4
100
AcDbCircle
 10
106.8995345314007
 20
190.1392174485262
 30
0.0
 40
1.871559633027521
  0
LWPOLYLINE
  5
382
330
1F
100
AcDbEntity
  8
0
 62
     4
100
AcDbPolyline
 90
        4
 70
     1
 43
0.0
 10
107.9340672027473
 20
191.5684913108002
 10
108.4193182647593
 20
191.0355092677913
 10
105.8650018600543
 20
188.7099435862523
 10
105.3797507980423
 20
189.2429256292612
  0
LWPOLYLINE
  5
383
330
1F
100
AcDbEntity
  8
0
 62
     4
100
AcDbPolyline
 90
        4
 70
     1
 43
0.0
 10
109.4495345314007
 20
186.4253413017372
 10
109.4495345314007
 20
193.9115798338473
 10
114.5495345314006
 20
193.9115798338473
 10
114.5495345314006
 20
186.4253413017372
  0
CIRCLE
  5
384
330
1F
100
AcDbEntity
  8
0
 62
     4
100
AcDbCircle
 10
111.9995345314007
 20
190.1392174485262
 30
0.0
 40
1.871559633027521
  0
LWPOLYLINE
  5
385
330
1F
100
AcDbEntity
  8
0
 62
     4
100
AcDbPolyline
 90
        4
 70
     1
 43
0.0
 10
113.0340672027473
 20
191.5684913108002
 10
113.5193182647593
 20
191.0355092677913
 10
110.9650018600543
 20
188.7099435862523
 10
110.4797507980422
 20
189.2429256292612
  0
LWPOLYLINE
  5
386
330
1F
100
AcDbEntity
  8
0
 62
     4
100
AcDbPolyline
 90
        4
 70
     1
 43
0.0
 10
114.5495345314006
 20
186.4253413017372
 10
114.5495345314006
 20
193.9115798338473
 10
119.6495345314007
 20
193.9115798338473
 10
119.6495345314007
 20
186.4253413017372
  0
CIRCLE
  5
387
330
1F
100
AcDbEntity
  8
0
 62
     4
100
AcDbCircle
 10
117.0995345314007
 20
190.1392174485262
 30
0.0
 40
1.871559633027521
  0
LWPOLYLINE
  5
388
330
1F
100
AcDbEntity
  8
0
 62
     4
100
AcDbPolyline
 90
        4
 70
     1
 43
0.0
 10
118.1340672027472
 20
191.5684913108002
 10
118.6193182647593
 20
191.0355092677913
 10
116.0650018600542
 20
188.7099435862523
 10
115.5797507980422
 20
189.2429256292612
  0
LWPOLYLINE
  5
389
330
1F
100
AcDbEntity
  8
0
 62
     4
100
AcDbPolyline
 90
        4
 70
     1
 43
0.0
 10
119.6495345314007
 20
186.4253413017372
 10
119.6495345314007
 20
193.9115798338473
 10
124.7495345314007
 20
193.9115798338473
 10
124.7495345314007
 20
186.4253413017372
  0
CIRCLE
  5
38A
330
1F
100
AcDbEntity
  8
0
 62
     4
100
AcDbCircle
 10
122.1995345314007
 20
190.1392174485262
 30
0.0
 40
1.871559633027521
  0
LWPOLYLINE
  5
38B
330
1F
100
AcDbEntity
  8
0
 62
     4
100
AcDbPolyline
 90
        4
 70
     1
 43
0.0
 10
123.2340672027472
 20
191.5684913108002
 10
123.7193182647594
 20
191.0355092677913
 10
121.1650018600542
 20
188.7099435862523
 10
120.6797507980422
 20
189.2429256292612
  0
LWPOLYLINE
  5
38C
330
1F
100
AcDbEntity
  8
0
 62
     4
100
AcDbPolyline
 90
        4
 70
     1
 43
0.0
 10
124.7495345314007
 20
186.4253413017372
 10
124.7495345314007
 20
193.9115798338473
 10
129.8495345314007
 20
193.9115798338473
 10
129.8495345314007
 20
186.4253413017372
  0
CIRCLE
  5
38D
330
1F
100
AcDbEntity
  8
0
 62
     4
100
AcDbCircle
 10
127.2995345314006
 20
190.1392174485262
 30
0.0
 40
1.871559633027521
  0
LWPOLYLINE
  5
38E
330
1F
100
AcDbEntity
  8
0
 62
     4
100
AcDbPolyline
 90
        4
 70
     1
 43
0.0
 10
128.3340672027472
 20
191.5684913108002
 10
128.8193182647593
 20
191.0355092677913
 10
126.2650018600543
 20
188.7099435862523
 10
125.7797507980421
 20
189.2429256292612
  0
LWPOLYLINE
  5
38F
330
1F
100
AcDbEntity
  8
0
 62
     4
100
AcDbPolyline
 90
        4
 70
     1
 43
0.0
 10
129.8495345314007
 20
186.4253413017372
 10
129.8495345314007
 20
193.9115798338473
 10
134.9495345314007
 20
193.9115798338473
 10
134.9495345314007
 20
186.4253413017372
  0
CIRCLE
  5
390
330
1F
100
AcDbEntity
  8
0
 62
     4
100
AcDbCircle
 10
132.3995345314007
 20
190.1392174485262
 30
0.0
 40
1.871559633027521
  0
LWPOLYLINE
  5
391
330
1F
100
AcDbEntity
  8
0
 62
     4
100
AcDbPolyline
 90
        4
 70
     1
 43
0.0
 10
133.4340672027473
 20
191.5684913108002
 10
133.9193182647593
 20
191.0355092677913
 10
131.3650018600543
 20
188.7099435862523
 10
130.8797507980423
 20
189.2429256292612
  0
LWPOLYLINE
  5
392
330
1F
100
AcDbEntity
  8
0
 62
     4
100
AcDbPolyline
 90
        4
 70
     1
 43
0.0
 10
134.9495345314007
 20
186.4253413017372
 10
134.9495345314007
 20
193.9115798338473
 10
140.0495345314006
 20
193.9115798338473
 10
140.0495345314006
 20
186.4253413017372
  0
CIRCLE
  5
393
330
1F
100
AcDbEntity
  8
0
 62
     4
100
AcDbCircle
 10
137.4995345314007
 20
190.1392174485262
 30
0.0
 40
1.871559633027521
  0
LWPOLYLINE
  5
394
330
1F
100
AcDbEntity
  8
0
 62
     4
100
AcDbPolyline
 90
        4
 70
     1
 43
0.0
 10
138.5340672027473
 20
191.5684913108002
 10
139.0193182647593
 20
191.0355092677913
 10
136.4650018600543
 20
188.7099435862523
 10
135.9797507980422
 20
189.2429256292612
  0
LWPOLYLINE
  5
395
330
1F
100
AcDbEntity
  8
0
 62
     4
100
AcDbPolyline
 90
        4
 70
     1
 43
0.0
 10
140.0495345314008
 20
186.4253413017372
 10
140.0495345314008
 20
193.9115798338473
 10
145.1495345314008
 20
193.9115798338473
 10
145.1495345314008
 20
186.4253413017372
  0
CIRCLE
  5
396
330
1F
100
AcDbEntity
  8
0
 62
     4
100
AcDbCircle
 10
142.5995345314007
 20
190.1392174485262
 30
0.0
 40
1.871559633027521
  0
LWPOLYLINE
  5
397
330
1F
100
AcDbEntity
  8
0
 62
     4
100
AcDbPolyline
 90
        4
 70
     1
 43
0.0
 10
143.6340672027472
 20
191.5684913108002
 10
144.1193182647593
 20
191.0355092677913
 10
141.5650018600542
 20
188.7099435862523
 10
141.0797507980422
 20
189.2429256292612
  0
LWPOLYLINE
  5
398
330
1F
100
AcDbEntity
  8
0
 62
     4
100
AcDbPolyline
 90
        4
 70
     1
 43
0.0
 10
145.1495345314008
 20
186.4253413017372
 10
145.1495345314008
 20
193.9115798338473
 10
150.2495345314007
 20
193.9115798338473
 10
150.2495345314007
 20
186.4253413017372
  0
CIRCLE
  5
399
330
1F
100
AcDbEntity
  8
0
 62
     4
100
AcDbCircle
 10
147.6995345314007
 20
190.1392174485262
 30
0.0
 40
1.871559633027521
  0
LWPOLYLINE
  5
39A
330
1F
100
AcDbEntity
  8
0
 62
     4
100
AcDbPolyline
 90
        4
 70
     1
 43
0.0
 10
148.7340672027472
 20
191.5684913108002
 10
149.2193182647592
 20
191.0355092677913
 10
146.6650018600542
 20
188.7099435862523
 10
146.1797507980422
 20
189.2429256292612
  0
LWPOLYLINE
  5
39B
330
1F
100
AcDbEntity
  8
0
 62
     4
100
AcDbPolyline
 90
        4
 70
     1
 43
0.0
 10
150.2495345314007
 20
186.4253413017372
 10
150.2495345314007
 20
193.9115798338473
 10
155.3495345314007
 20
193.9115798338473
 10
155.3495345314007
 20
186.4253413017372
  0
CIRCLE
  5
39C
330
1F
100
AcDbEntity
  8
0
 62
     4
100
AcDbCircle
 10
152.7995345314006
 20
190.1392174485262
 30
0.0
 40
1.871559633027521
  0
LWPOLYLINE
  5
39D
330
1F
100
AcDbEntity
  8
0
 62
     4
100
AcDbPolyline
 90
        4
 70
     1
 43
0.0
 10
153.8340672027472
 20
191.5684913108002
 10
154.3193182647593
 20
191.0355092677913
 10
151.7650018600543
 20
188.7099435862523
 10
151.2797507980421
 20
189.2429256292612
  0
LWPOLYLINE
  5
39E
330
1F
100
AcDbEntity
  8
0
 62
     4
100
AcDbPolyline
 90
        4
 70
     1
 43
0.0
 10
155.3495345314007
 20
186.4253413017372
 10
155.3495345314007
 20
193.9115798338473
 10
160.4495345314007
 20
193.9115798338473
 10
160.4495345314007
 20
186.4253413017372
  0
CIRCLE
  5
39F
330
1F
100
AcDbEntity
  8
0
 62
     4
100
AcDbCircle
 10
157.8995345314008
 20
190.1392174485262
 30
0.0
 40
1.871559633027521
  0
LWPOLYLINE
  5
3A0
330
1F
100
AcDbEntity
  8
0
 62
     4
100
AcDbPolyline
 90
        4
 70
     1
 43
0.0
 10
158.9340672027472
 20
191.5684913108002
 10
159.4193182647593
 20
191.0355092677913
 10
156.8650018600542
 20
188.7099435862523
 10
156.3797507980422
 20
189.2429256292612
  0
LWPOLYLINE
  5
3A1
330
1F
100
AcDbEntity
  8
0
 62
     4
100
AcDbPolyline
 90
        4
 70
     1
 43
0.0
 10
160.4495345314007
 20
186.4253413017372
 10
160.4495345314007
 20
193.9115798338473
 10
165.5495345314006
 20
193.9115798338473
 10
165.5495345314006
 20
186.4253413017372
  0
CIRCLE
  5
3A2
330
1F
100
AcDbEntity
  8
0
 62
     4
100
AcDbCircle
 10
162.9995345314007
 20
190.1392174485262
 30
0.0
 40
1.871559633027521
  0
LWPOLYLINE
  5
3A3
330
1F
100
AcDbEntity
  8
0
 62
     4
100
AcDbPolyline
 90
        4
 70
     1
 43
0.0
 10
164.0340672027472
 20
191.5684913108002
 10
164.5193182647592
 20
191.0355092677913
 10
161.9650018600542
 20
188.7099435862523
 10
161.4797507980422
 20
189.2429256292612
  0
LWPOLYLINE
  5
3A4
330
1F
100
AcDbEntity
  8
0
 62
     4
100
AcDbPolyline
 90
        4
 70
     1
 43
0.0
 10
165.5495345314006
 20
186.4253413017372
 10
165.5495345314006
 20
193.9115798338473
 10
170.6495345314008
 20
193.9115798338473
 10
170.6495345314008
 20
186.4253413017372
  0
CIRCLE
  5
3A5
330
1F
100
AcDbEntity
  8
0
 62
     4
100
AcDbCircle
 10
168.0995345314007
 20
190.1392174485262
 30
0.0
 40
1.871559633027521
  0
LWPOLYLINE
  5
3A6
330
1F
100
AcDbEntity
  8
0
 62
     4
100
AcDbPolyline
 90
        4
 70
     1
 43
0.0
 10
169.1340672027472
 20
191.5684913108002
 10
169.6193182647593
 20
191.0355092677913
 10
167.0650018600542
 20
188.7099435862523
 10
166.5797507980421
 20
189.2429256292612
  0
LWPOLYLINE
  5
3A7
330
1F
100
AcDbEntity
  8
0
 62
     4
100
AcDbPolyline
 90
        4
 70
     1
 43
0.0
 10
170.6495345314008
 20
186.4253413017372
 10
170.6495345314008
 20
193.9115798338473
 10
175.7495345314007
 20
193.9115798338473
 10
175.7495345314007
 20
186.4253413017372
  0
CIRCLE
  5
3A8
330
1F
100
AcDbEntity
  8
0
 62
     4
100
AcDbCircle
 10
173.1995345314007
 20
190.1392174485262
 30
0.0
 40
1.871559633027521
  0
LWPOLYLINE
  5
3A9
330
1F
100
AcDbEntity
  8
0
 62
     4
100
AcDbPolyline
 90
        4
 70
     1
 43
0.0
 10
174.2340672027472
 20
191.5684913108002
 10
174.7193182647592
 20
191.0355092677913
 10
172.1650018600542
 20
188.7099435862523
 10
171.6797507980421
 20
189.2429256292612
  0
LWPOLYLINE
  5
3AA
330
1F
100
AcDbEntity
  8
0
 62
     4
100
AcDbPolyline
 90
        4
 70
     1
 43
0.0
 10
175.7495345314007
 20
186.4253413017372
 10
175.7495345314007
 20
193.9115798338473
 10
180.8495345314007
 20
193.9115798338473
 10
180.8495345314007
 20
186.4253413017372
  0
CIRCLE
  5
3AB
330
1F
100
AcDbEntity
  8
0
 62
     4
100
AcDbCircle
 10
178.2995345314008
 20
190.1392174485262
 30
0.0
 40
1.871559633027521
  0
LWPOLYLINE
  5
3AC
330
1F
100
AcDbEntity
  8
0
 62
     4
100
AcDbPolyline
 90
        4
 70
     1
 43
0.0
 10
179.3340672027472
 20
191.5684913108002
 10
179.8193182647593
 20
191.0355092677913
 10
177.2650018600543
 20
188.7099435862523
 10
176.7797507980421
 20
189.2429256292612
  0
LWPOLYLINE
  5
3AD
330
1F
100
AcDbEntity
  8
0
 62
     4
100
AcDbPolyline
 90
        4
 70
     1
 43
0.0
 10
180.8495345314007
 20
186.4253413017372
 10
180.8495345314007
 20
193.9115798338473
 10
185.9495345314007
 20
193.9115798338473
 10
185.9495345314007
 20
186.4253413017372
  0
CIRCLE
  5
3AE
330
1F
100
AcDbEntity
  8
0
 62
     4
100
AcDbCircle
 10
183.3995345314008
 20
190.1392174485262
 30
0.0
 40
1.871559633027521
  0
LWPOLYLINE
  5
3AF
330
1F
100
AcDbEntity
  8
0
 62
     4
100
AcDbPolyline
 90
        4
 70
     1
 43
0.0
 10
184.4340672027471
 20
191.5684913108002
 10
184.9193182647593
 20
191.0355092677913
 10
182.3650018600542
 20
188.7099435862523
 10
181.8797507980422
 20
189.2429256292612
  0
LWPOLYLINE
  5
3B0
330
1F
100
AcDbEntity
  8
0
100
AcDbPolyline
 90
        4
 70
     1
 43
0.0
 10
82.65528578527957
 20
91.41157983384728
 10
82.65528578527957
 20
94.41157983384727
 10
85.65528578527958
 20
94.41157983384727
 10
85.65528578527958
 20
91.41157983384728
  0
LWPOLYLINE
  5
3B1
330
1F
100
AcDbEntity
  8
0
100
AcDbPolyline
 90
        4
 70
     0
 43
0.0
 10
85.65528578527958
 20
91.41157983384728
 10
85.65528578527958
 20
94.41157983384727
 10
88.65528578527957
 20
94.41157983384727
 10
88.65528578527957
 20
91.41157983384728
  0
LWPOLYLINE
  5
3B2
330
1F
100
AcDbEntity
  8
0
100
AcDbPolyline
 90
        4
 70
     1
 43
0.0
 10
88.65528578527957
 20
91.41157983384728
 10
88.65528578527957
 20
94.41157983384727
 10
91.65528578527958
 20
94.41157983384727
 10
91.65528578527958
 20
91.41157983384728
  0
LWPOLYLINE
  5
3B3
330
1F
100
AcDbEntity
  8
0
100
AcDbPolyline
 90
        4
 70
     0
 43
0.0
 10
91.65528578527958
 20
91.41157983384728
 10
91.65528578527958
 20
94.41157983384727
 10
94.65528578527957
 20
94.41157983384727
 10
94.65528578527957
 20
91.41157983384728
  0
LWPOLYLINE
  5
3B4
330
1F
100
AcDbEntity
  8
0
100
AcDbPolyline
 90
        4
 70
     1
 43
0.0
 10
94.65528578527957
 20
91.41157983384728
 10
94.65528578527957
 20
94.41157983384727
 10
97.65528578527957
 20
94.41157983384727
 10
97.65528578527957
 20
91.41157983384728
  0
LWPOLYLINE
  5
3B5
330
1F
100
AcDbEntity
  8
0
100
AcDbPolyline
 90
        4
 70
     0
 43
0.0
 10
97.65528578527957
 20
91.41157983384728
 10
97.65528578527957
 20
94.41157983384727
 10
100.6552857852796
 20
94.41157983384727
 10
100.6552857852796
 20
91.41157983384728
  0
LWPOLYLINE
  5
3B6
330
1F
100
AcDbEntity
  8
0
100
AcDbPolyline
 90
        4
 70
     1
 43
0.0
 10
100.6552857852796
 20
91.41157983384728
 10
100.6552857852796
 20
94.41157983384727
 10
103.6552857852796
 20
94.41157983384727
 10
103.6552857852796
 20
91.41157983384728
  0
LWPOLYLINE
  5
3B7
330
1F
100
AcDbEntity
  8
0
100
AcDbPolyline
 90
        4
 70
     0
 43
0.0
 10
103.6552857852796
 20
91.41157983384728
 10
103.6552857852796
 20
94.41157983384727
 10
106.6552857852796
 20
94.41157983384727
 10
106.6552857852796
 20
91.41157983384728
  0
LWPOLYLINE
  5
3B8
330
1F
100
AcDbEntity
  8
0
100
AcDbPolyline
 90
        4
 70
     1
 43
0.0
 10
106.6552857852796
 20
91.41157983384728
 10
106.6552857852796
 20
94.41157983384727
 10
109.6552857852795
 20
94.41157983384727
 10
109.6552857852795
 20
91.41157983384728
  0
LWPOLYLINE
  5
3B9
330
1F
100
AcDbEntity
  8
0
100
AcDbPolyline
 90
        4
 70
     0
 43
0.0
 10
109.6552857852795
 20
91.41157983384728
 10
109.6552857852795
 20
94.41157983384727
 10
112.6552857852795
 20
94.41157983384727
 10
112.6552857852795
 20
91.41157983384728
  0
LWPOLYLINE
  5
3BA
330
1F
100
AcDbEntity
  8
0
100
AcDbPolyline
 90
        4
 70
     1
 43
0.0
 10
112.6552857852795
 20
91.41157983384728
 10
112.6552857852795
 20
94.41157983384727
 10
115.6552857852795
 20
94.41157983384727
 10
115.6552857852795
 20
91.41157983384728
  0
LWPOLYLINE
  5
3BB
330
1F
100
AcDbEntity
  8
0
100
AcDbPolyline
 90
        4
 70
     0
 43
0.0
 10
115.6552857852795
 20
91.41157983384728
 10
115.6552857852795
 20
94.41157983384727
 10
118.6552857852795
 20
94.41157983384727
 10
118.6552857852795
 20
91.41157983384728
  0
LWPOLYLINE
  5
3BC
330
1F
100
AcDbEntity
  8
0
100
AcDbPolyline
 90
        4
 70
     1
 43
0.0
 10
118.6552857852795
 20
91.41157983384728
 10
118.6552857852795
 20
94.41157983384727
 10
121.6552857852795
 20
94.41157983384727
 10
121.6552857852795
 20
91.41157983384728
  0
LWPOLYLINE
  5
3BD
330
1F
100
AcDbEntity
  8
0
100
AcDbPolyline
 90
        4
 70
     0
 43
0.0
 10
121.6552857852795
 20
91.41157983384728
 10
121.6552857852795
 20
94.41157983384727
 10
124.6552857852796
 20
94.41157983384727
 10
124.6552857852796
 20
91.41157983384728
  0
LWPOLYLINE
  5
3BE
330
1F
100
AcDbEntity
  8
0
100
AcDbPolyline
 90
        4
 70
     1
 43
0.0
 10
124.6552857852796
 20
91.41157983384728
 10
124.6552857852796
 20
94.41157983384727
 10
127.6552857852796
 20
94.41157983384727
 10
127.6552857852796
 20
91.41157983384728
  0
LWPOLYLINE
  5
3BF
330
1F
100
AcDbEntity
  8
0
100
AcDbPolyline
 90
        4
 70
     0
 43
0.0
 10
127.6552857852796
 20
91.41157983384728
 10
127.6552857852796
 20
94.41157983384727
 10
130.6552857852796
 20
94.41157983384727
 10
130.6552857852796
 20
91.41157983384728
  0
LWPOLYLINE
  5
3C0
330
1F
100
AcDbEntity
  8
0
100
AcDbPolyline
 90
        4
 70
     1
 43
0.0
 10
130.6552857852796
 20
91.41157983384728
 10
130.6552857852796
 20
94.41157983384727
 10
133.6552857852796
 20
94.41157983384727
 10
133.6552857852796
 20
91.41157983384728
  0
LWPOLYLINE
  5
3C1
330
1F
100
AcDbEntity
  8
0
100
AcDbPolyline
 90
        4
 70
     0
 43
0.0
 10
133.6552857852796
 20
91.41157983384728
 10
133.6552857852796
 20
94.41157983384727
 10
136.6552857852795
 20
94.41157983384727
 10
136.6552857852795
 20
91.41157983384728
  0
LWPOLYLINE
  5
3C2
330
1F
100
AcDbEntity
  8
0
100
AcDbPolyline
 90
        4
 70
     1
 43
0.0
 10
136.6552857852795
 20
91.41157983384728
 10
136.6552857852795
 20
94.41157983384727
 10
139.6552857852795
 20
94.41157983384727
 10
139.6552857852795
 20
91.41157983384728
  0
LWPOLYLINE
  5
3C3
330
1F
100
AcDbEntity
  8
0
100
AcDbPolyline
 90
        4
 70
     0
 43
0.0
 10
139.6552857852795
 20
91.41157983384728
 10
139.6552857852795
 20
94.41157983384727
 10
142.6552857852795
 20
94.41157983384727
 10
142.6552857852795
 20
91.41157983384728
  0
LWPOLYLINE
  5
3C4
330
1F
100
AcDbEntity
  8
0
100
AcDbPolyline
 90
        4
 70
     1
 43
0.0
 10
142.6552857852795
 20
91.41157983384728
 10
142.6552857852795
 20
94.41157983384727
 10
145.6552857852796
 20
94.41157983384727
 10
145.6552857852796
 20
91.41157983384728
  0
LWPOLYLINE
  5
3C5
330
1F
100
AcDbEntity
  8
0
100
AcDbPolyline
 90
        4
 70
     0
 43
0.0
 10
145.6552857852796
 20
91.41157983384728
 10
145.6552857852796
 20
94.41157983384727
 10
148.6552857852796
 20
94.41157983384727
 10
148.6552857852796
 20
91.41157983384728
  0
LWPOLYLINE
  5
3C6
330
1F
100
AcDbEntity
  8
0
100
AcDbPolyline
 90
        4
 70
     1
 43
0.0
 10
148.6552857852796
 20
91.41157983384728
 10
148.6552857852796
 20
94.41157983384727
 10
151.6552857852795
 20
94.41157983384727
 10
151.6552857852795
 20
91.41157983384728
  0
LWPOLYLINE
  5
3C7
330
1F
100
AcDbEntity
  8
0
100
AcDbPolyline
 90
        4
 70
     0
 43
0.0
 10
151.6552857852795
 20
91.41157983384728
 10
151.6552857852795
 20
94.41157983384727
 10
154.6552857852796
 20
94.41157983384727
 10
154.6552857852796
 20
91.41157983384728
  0
LWPOLYLINE
  5
3C8
330
1F
100
AcDbEntity
  8
0
100
AcDbPolyline
 90
        4
 70
     1
 43
0.0
 10
154.6552857852796
 20
91.41157983384728
 10
154.6552857852796
 20
94.41157983384727
 10
157.6552857852796
 20
94.41157983384727
 10
157.6552857852796
 20
91.41157983384728
  0
LWPOLYLINE
  5
3C9
330
1F
100
AcDbEntity
  8
0
100
AcDbPolyline
 90
        4
 70
     0
 43
0.0
 10
157.6552857852796
 20
91.41157983384728
 10
157.6552857852796
 20
94.41157983384727
 10
160.6552857852795
 20
94.41157983384727
 10
160.6552857852795
 20
91.41157983384728
  0
LWPOLYLINE
  5
3CA
330
1F
100
AcDbEntity
  8
0
100
AcDbPolyline
 90
        4
 70
     1
 43
0.0
 10
160.6552857852795
 20
91.41157983384728
 10
160.6552857852795
 20
94.41157983384727
 10
163.6552857852795
 20
94.41157983384727
 10
163.6552857852795
 20
91.41157983384728
  0
LWPOLYLINE
  5
3CB
330
1F
100
AcDbEntity
  8
0
100
AcDbPolyline
 90
        4
 70
     0
 43
0.0
 10
163.6552857852795
 20
91.41157983384728
 10
163.6552857852795
 20
94.41157983384727
 10
166.6552857852795
 20
94.41157983384727
 10
166.6552857852795
 20
91.41157983384728
  0
LWPOLYLINE
  5
3CC
330
1F
100
AcDbEntity
  8
0
100
AcDbPolyline
 90
        4
 70
     1
 43
0.0
 10
166.6552857852795
 20
91.41157983384728
 10
166.6552857852795
 20
94.41157983384727
 10
169.6552857852795
 20
94.41157983384727
 10
169.6552857852795
 20
91.41157983384728
  0
LWPOLYLINE
  5
3CD
330
1F
100
AcDbEntity
  8
0
100
AcDbPolyline
 90
        4
 70
     0
 43
0.0
 10
169.6552857852795
 20
91.41157983384728
 10
169.6552857852795
 20
94.41157983384727
 10
172.6552857852795
 20
94.41157983384727
 10
172.6552857852795
 20
91.41157983384728
  0
LWPOLYLINE
  5
3CE
330
1F
100
AcDbEntity
  8
0
100
AcDbPolyline
 90
        4
 70
     1
 43
0.0
 10
172.6552857852795
 20
91.41157983384728
 10
172.6552857852795
 20
94.41157983384727
 10
175.6552857852796
 20
94.41157983384727
 10
175.6552857852796
 20
91.41157983384728
  0
LWPOLYLINE
  5
3CF
330
1F
100
AcDbEntity
  8
0
100
AcDbPolyline
 90
        4
 70
     0
 43
0.0
 10
175.6552857852796
 20
91.41157983384728
 10
175.6552857852796
 20
94.41157983384727
 10
178.6552857852796
 20
94.41157983384727
 10
178.6552857852796
 20
91.41157983384728
  0
LWPOLYLINE
  5
3D0
330
1F
100
AcDbEntity
  8
0
100
AcDbPolyline
 90
        4
 70
     1
 43
0.0
 10
178.6552857852796
 20
91.41157983384728
 10
178.6552857852796
 20
94.41157983384727
 10
181.6552857852796
 20
94.41157983384727
 10
181.6552857852796
 20
91.41157983384728
  0
LWPOLYLINE
  5
3D1
330
1F
100
AcDbEntity
  8
0
100
AcDbPolyline
 90
        4
 70
     0
 43
0.0
 10
181.6552857852796
 20
91.41157983384728
 10
181.6552857852796
 20
94.41157983384727
 10
184.6552857852796
 20
94.41157983384727
 10
184.6552857852796
 20
91.41157983384728
  0
LWPOLYLINE
  5
3D2
330
1F
100
AcDbEntity
  8
0
100
AcDbPolyline
 90
        4
 70
     1
 43
0.0
 10
184.6552857852796
 20
91.41157983384728
 10
184.6552857852796
 20
94.41157983384727
 10
187.6552857852795
 20
94.41157983384727
 10
187.6552857852795
 20
91.41157983384728
  0
LINE
  5
3D3
330
1F
100
AcDbEntity
  8
0
100
AcDbLine
 10
84.49328799385487
 20
94.41157983384727
 30
0.0
 11
76.19953453140076
 21
94.41157983384727
 31
0.0
  0
LINE
  5
3D4
330
1F
100
AcDbEntity
  8
0
100
AcDbLine
 10
187.6552857852795
 20
94.41157983384727
 30
0.0
 11
194.6995345314007
 21
94.41157983384727
 31
0.0
  0
LWPOLYLINE
  5
3D5
330
1F
100
AcDbEntity
  8
0
100
AcDbPolyline
 90
        2
 70
     0
 43
0.0
 10
187.6552857852795
 20
171.4115798338473
 10
184.6552857852796
 20
171.4115798338473
  0
LWPOLYLINE
  5
3D6
330
1F
100
AcDbEntity
  8
0
100
AcDbPolyline
 90
        2
 70
     0
 43
0.0
 10
181.6552857852796
 20
171.4115798338473
 10
178.6552857852796
 20
171.4115798338473
  0
LWPOLYLINE
  5
3D7
330
1F
100
AcDbEntity
  8
0
100
AcDbPolyline
 90
        2
 70
     0
 43
0.0
 10
175.6552857852796
 20
171.4115798338473
 10
172.6552857852795
 20
171.4115798338473
  0
LWPOLYLINE
  5
3D8
330
1F
100
AcDbEntity
  8
0
100
AcDbPolyline
 90
        2
 70
     0
 43
0.0
 10
169.6552857852795
 20
171.4115798338473
 10
166.6552857852795
 20
171.4115798338473
  0
LWPOLYLINE
  5
3D9
330
1F
100
AcDbEntity
  8
0
100
AcDbPolyline
 90
        2
 70
     0
 43
0.0
 10
163.6552857852795
 20
171.4115798338473
 10
160.6552857852795
 20
171.4115798338473
  0
LWPOLYLINE
  5
3DA
330
1F
100
AcDbEntity
  8
0
100
AcDbPolyline
 90
        2
 70
     0
 43
0.0
 10
157.6552857852796
 20
171.4115798338473
 10
154.6552857852796
 20
171.4115798338473
  0
LWPOLYLINE
  5
3DB
330
1F
100
AcDbEntity
  8
0
100
AcDbPolyline
 90
        2
 70
     0
 43
0.0
 10
151.6552857852795
 20
171.4115798338473
 10
148.6552857852796
 20
171.4115798338473
  0
LWPOLYLINE
  5
3DC
330
1F
100
AcDbEntity
  8
0
100
AcDbPolyline
 90
        2
 70
     0
 43
0.0
 10
145.6552857852796
 20
171.4115798338473
 10
142.6552857852795
 20
171.4115798338473
  0
LWPOLYLINE
  5
3DD
330
1F
100
AcDbEntity
  8
0
100
AcDbPolyline
 90
        2
 70
     0
 43
0.0
 10
139.6552857852795
 20
171.4115798338473
 10
136.6552857852795
 20
171.4115798338473
  0
LWPOLYLINE
  5
3DE
330
1F
100
AcDbEntity
  8
0
100
AcDbPolyline
 90
        2
 70
     0
 43
0.0
 10
133.6552857852796
 20
171.4115798338473
 10
130.6552857852796
 20
171.4115798338473
  0
LWPOLYLINE
  5
3DF
330
1F
100
AcDbEntity
  8
0
100
AcDbPolyline
 90
        2
 70
     0
 43
0.0
 10
127.6552857852796
 20
171.4115798338473
 10
124.6552857852796
 20
171.4115798338473
  0
LWPOLYLINE
  5
3E0
330
1F
100
AcDbEntity
  8
0
100
AcDbPolyline
 90
        2
 70
     0
 43
0.0
 10
121.6552857852795
 20
171.4115798338473
 10
118.6552857852795
 20
171.4115798338473
  0
LWPOLYLINE
  5
3E1
330
1F
100
AcDbEntity
  8
0
100
AcDbPolyline
 90
        2
 70
     0
 43
0.0
 10
115.6552857852795
 20
171.4115798338473
 10
112.6552857852795
 20
171.4115798338473
  0
LWPOLYLINE
  5
3E2
330
1F
100
AcDbEntity
  8
0
100
AcDbPolyline
 90
        2
 70
     0
 43
0.0
 10
109.6552857852795
 20
171.4115798338473
 10
106.6552857852796
 20
171.4115798338473
  0
LWPOLYLINE
  5
3E3
330
1F
100
AcDbEntity
  8
0
100
AcDbPolyline
 90
        2
 70
     0
 43
0.0
 10
103.6552857852796
 20
171.4115798338473
 10
100.6552857852796
 20
171.4115798338473
  0
LWPOLYLINE
  5
3E4
330
1F
100
AcDbEntity
  8
0
100
AcDbPolyline
 90
        2
 70
     0
 43
0.0
 10
97.65528578527957
 20
171.4115798338473
 10
94.65528578527957
 20
171.4115798338473
  0
LWPOLYLINE
  5
3E5
330
1F
100
AcDbEntity
  8
0
100
AcDbPolyline
 90
        2
 70
     0
 43
0.0
 10
91.65528578527958
 20
171.4115798338473
 10
88.65528578527957
 20
171.4115798338473
  0
LWPOLYLINE
  5
3E6
330
1F
100
AcDbEntity
  8
0
100
AcDbPolyline
 90
        2
 70
     0
 43
0.0
 10
85.65528578527958
 20
171.4115798338473
 10
82.65528578527957
 20
171.4115798338473
  0
LWPOLYLINE
  5
3E7
330
1F
100
AcDbEntity
  8
0
100
AcDbPolyline
 90
        4
 70
     1
 43
0.0
 10
82.65528578527957
 20
171.4115798338473
 10
82.65528578527957
 20
168.4115798338473
 10
85.65528578527958
 20
168.4115798338473
 10
85.65528578527958
 20
171.4115798338473
  0
LWPOLYLINE
  5
3E8
330
1F
100
AcDbEntity
  8
0
100
AcDbPolyline
 90
        4
 70
     0
 43
0.0
 10
85.65528578527958
 20
171.4115798338473
 10
85.65528578527958
 20
168.4115798338473
 10
88.65528578527957
 20
168.4115798338473
 10
88.65528578527957
 20
171.4115798338473
  0
LWPOLYLINE
  5
3E9
330
1F
100
AcDbEntity
  8
0
100
AcDbPolyline
 90
        4
 70
     1
 43
0.0
 10
88.65528578527957
 20
171.4115798338473
 10
88.65528578527957
 20
168.4115798338473
 10
91.65528578527958
 20
168.4115798338473
 10
91.65528578527958
 20
171.4115798338473
  0
LWPOLYLINE
  5
3EA
330
1F
100
AcDbEntity
  8
0
100
AcDbPolyline
 90
        4
 70
     0
 43
0.0
 10
91.65528578527958
 20
171.4115798338473
 10
91.65528578527958
 20
168.4115798338473
 10
94.65528578527957
 20
168.4115798338473
 10
94.65528578527957
 20
171.4115798338473
  0
LWPOLYLINE
  5
3EB
330
1F
100
AcDbEntity
  8
0
100
AcDbPolyline
 90
        4
 70
     1
 43
0.0
 10
94.65528578527957
 20
171.4115798338473
 10
94.65528578527957
 20
168.4115798338473
 10
97.65528578527957
 20
168.4115798338473
 10
97.65528578527957
 20
171.4115798338473
  0
LWPOLYLINE
  5
3EC
330
1F
100
AcDbEntity
  8
0
100
AcDbPolyline
 90
        4
 70
     0
 43
0.0
 10
97.65528578527957
 20
171.4115798338473
 10
97.65528578527957
 20
168.4115798338473
 10
100.6552857852796
 20
168.4115798338473
 10
100.6552857852796
 20
171.4115798338473
  0
LWPOLYLINE
  5
3ED
330
1F
100
AcDbEntity
  8
0
100
AcDbPolyline
 90
        4
 70
     1
 43
0.0
 10
100.6552857852796
 20
171.4115798338473
 10
100.6552857852796
 20
168.4115798338473
 10
103.6552857852796
 20
168.4115798338473
 10
103.6552857852796
 20
171.4115798338473
  0
LWPOLYLINE
  5
3EE
330
1F
100
AcDbEntity
  8
0
100
AcDbPolyline
 90
        4
 70
     0
 43
0.0
 10
103.6552857852796
 20
171.4115798338473
 10
103.6552857852796
 20
168.4115798338473
 10
106.6552857852796
 20
168.4115798338473
 10
106.6552857852796
 20
171.4115798338473
  0
LWPOLYLINE
  5
3EF
330
1F
100
AcDbEntity
  8
0
100
AcDbPolyline
 90
        4
 70
     1
 43
0.0
 10
106.6552857852796
 20
171.4115798338473
 10
106.6552857852796
 20
168.4115798338473
 10
109.6552857852795
 20
168.4115798338473
 10
109.6552857852795
 20
171.4115798338473
  0
LWPOLYLINE
  5
3F0
330
1F
100
AcDbEntity
  8
0
100
AcDbPolyline
 90
        4
 70
     0
 43
0.0
 10
109.6552857852795
 20
171.4115798338473
 10
109.6552857852795
 20
168.4115798338473
 10
112.6552857852795
 20
168.4115798338473
 10
112.6552857852795
 20
171.4115798338473
  0
LWPOLYLINE
  5
3F1
330
1F
100
AcDbEntity
  8
0
100
AcDbPolyline
 90
        4
 70
     1
 43
0.0
 10
112.6552857852795
 20
171.4115798338473
 10
112.6552857852795
 20
168.4115798338473
 10
115.6552857852795
 20
168.4115798338473
 10
115.6552857852795
 20
171.4115798338473
  0
LWPOLYLINE
  5
3F2
330
1F
100
AcDbEntity
  8
0
100
AcDbPolyline
 90
        4
 70
     0
 43
0.0
 10
115.6552857852795
 20
171.4115798338473
 10
115.6552857852795
 20
168.4115798338473
 10
118.6552857852795
 20
168.4115798338473
 10
118.6552857852795
 20
171.4115798338473
  0
LWPOLYLINE
  5
3F3
330
1F
100
AcDbEntity
  8
0
100
AcDbPolyline
 90
        4
 70
     1
 43
0.0
 10
118.6552857852795
 20
171.4115798338473
 10
118.6552857852795
 20
168.4115798338473
 10
121.6552857852795
 20
168.4115798338473
 10
121.6552857852795
 20
171.4115798338473
  0
LWPOLYLINE
  5
3F4
330
1F
100
AcDbEntity
  8
0
100
AcDbPolyline
 90
        4
 70
     0
 43
0.0
 10
121.6552857852795
 20
171.4115798338473
 10
121.6552857852795
 20
168.4115798338473
 10
124.6552857852796
 20
168.4115798338473
 10
124.6552857852796
 20
171.4115798338473
  0
LWPOLYLINE
  5
3F5
330
1F
100
AcDbEntity
  8
0
100
AcDbPolyline
 90
        4
 70
     1
 43
0.0
 10
124.6552857852796
 20
171.4115798338473
 10
124.6552857852796
 20
168.4115798338473
 10
127.6552857852796
 20
168.4115798338473
 10
127.6552857852796
 20
171.4115798338473
  0
LWPOLYLINE
  5
3F6
330
1F
100
AcDbEntity
  8
0
100
AcDbPolyline
 90
        4
 70
     0
 43
0.0
 10
127.6552857852796
 20
171.4115798338473
 10
127.6552857852796
 20
168.4115798338473
 10
130.6552857852796
 20
168.4115798338473
 10
130.6552857852796
 20
171.4115798338473
  0
LWPOLYLINE
  5
3F7
330
1F
100
AcDbEntity
  8
0
100
AcDbPolyline
 90
        4
 70
     1
 43
0.0
 10
130.6552857852796
 20
171.4115798338473
 10
130.6552857852796
 20
168.4115798338473
 10
133.6552857852796
 20
168.4115798338473
 10
133.6552857852796
 20
171.4115798338473
  0
LWPOLYLINE
  5
3F8
330
1F
100
AcDbEntity
  8
0
100
AcDbPolyline
 90
        4
 70
     0
 43
0.0
 10
133.6552857852796
 20
171.4115798338473
 10
133.6552857852796
 20
168.4115798338473
 10
136.6552857852795
 20
168.4115798338473
 10
136.6552857852795
 20
171.4115798338473
  0
LWPOLYLINE
  5
3F9
330
1F
100
AcDbEntity
  8
0
100
AcDbPolyline
 90
        4
 70
     1
 43
0.0
 10
136.6552857852795
 20
171.4115798338473
 10
136.6552857852795
 20
168.4115798338473
 10
139.6552857852795
 20
168.4115798338473
 10
139.6552857852795
 20
171.4115798338473
  0
LWPOLYLINE
  5
3FA
330
1F
100
AcDbEntity
  8
0
100
AcDbPolyline
 90
        4
 70
     0
 43
0.0
 10
139.6552857852795
 20
171.4115798338473
 10
139.6552857852795
 20
168.4115798338473
 10
142.6552857852795
 20
168.4115798338473
 10
142.6552857852795
 20
171.4115798338473
  0
LWPOLYLINE
  5
3FB
330
1F
100
AcDbEntity
  8
0
100
AcDbPolyline
 90
        4
 70
     1
 43
0.0
 10
142.6552857852795
 20
171.4115798338473
 10
142.6552857852795
 20
168.4115798338473
 10
145.6552857852796
 20
168.4115798338473
 10
145.6552857852796
 20
171.4115798338473
  0
LWPOLYLINE
  5
3FC
330
1F
100
AcDbEntity
  8
0
100
AcDbPolyline
 90
        4
 70
     0
 43
0.0
 10
145.6552857852796
 20
171.4115798338473
 10
145.6552857852796
 20
168.4115798338473
 10
148.6552857852796
 20
168.4115798338473
 10
148.6552857852796
 20
171.4115798338473
  0
LWPOLYLINE
  5
3FD
330
1F
100
AcDbEntity
  8
0
100
AcDbPolyline
 90
        4
 70
     1
 43
0.0
 10
148.6552857852796
 20
171.4115798338473
 10
148.6552857852796
 20
168.4115798338473
 10
151.6552857852795
 20
168.4115798338473
 10
151.6552857852795
 20
171.4115798338473
  0
LWPOLYLINE
  5
3FE
330
1F
100
AcDbEntity
  8
0
100
AcDbPolyline
 90
        4
 70
     0
 43
0.0
 10
151.6552857852795
 20
171.4115798338473
 10
151.6552857852795
 20
168.4115798338473
 10
154.6552857852796
 20
168.4115798338473
 10
154.6552857852796
 20
171.4115798338473
  0
LWPOLYLINE
  5
3FF
330
1F
100
AcDbEntity
  8
0
100
AcDbPolyline
 90
        4
 70
     1
 43
0.0
 10
154.6552857852796
 20
171.4115798338473
 10
154.6552857852796
 20
168.4115798338473
 10
157.6552857852796
 20
168.4115798338473
 10
157.6552857852796
 20
171.4115798338473
  0
LWPOLYLINE
  5
400
330
1F
100
AcDbEntity
  8
0
100
AcDbPolyline
 90
        4
 70
     0
 43
0.0
 10
157.6552857852796
 20
171.4115798338473
 10
157.6552857852796
 20
168.4115798338473
 10
160.6552857852795
 20
168.4115798338473
 10
160.6552857852795
 20
171.4115798338473
  0
LWPOLYLINE
  5
401
330
1F
100
AcDbEntity
  8
0
100
AcDbPolyline
 90
        4
 70
     1
 43
0.0
 10
160.6552857852795
 20
171.4115798338473
 10
160.6552857852795
 20
168.4115798338473
 10
163.6552857852795
 20
168.4115798338473
 10
163.6552857852795
 20
171.4115798338473
  0
LWPOLYLINE
  5
402
330
1F
100
AcDbEntity
  8
0
100
AcDbPolyline
 90
        4
 70
     0
 43
0.0
 10
163.6552857852795
 20
171.4115798338473
 10
163.6552857852795
 20
168.4115798338473
 10
166.6552857852795
 20
168.4115798338473
 10
166.6552857852795
 20
171.4115798338473
  0
LWPOLYLINE
  5
403
330
1F
100
AcDbEntity
  8
0
100
AcDbPolyline
 90
        4
 70
     1
 43
0.0
 10
166.6552857852795
 20
171.4115798338473
 10
166.6552857852795
 20
168.4115798338473
 10
169.6552857852795
 20
168.4115798338473
 10
169.6552857852795
 20
171.4115798338473
  0
LWPOLYLINE
  5
404
330
1F
100
AcDbEntity
  8
0
100
AcDbPolyline
 90
        4
 70
     0
 43
0.0
 10
169.6552857852795
 20
171.4115798338473
 10
169.6552857852795
 20
168.4115798338473
 10
172.6552857852795
 20
168.4115798338473
 10
172.6552857852795
 20
171.4115798338473
  0
LWPOLYLINE
  5
405
330
1F
100
AcDbEntity
  8
0
100
AcDbPolyline
 90
        4
 70
     1
 43
0.0
 10
172.6552857852795
 20
171.4115798338473
 10
172.6552857852795
 20
168.4115798338473
 10
175.6552857852796
 20
168.4115798338473
 10
175.6552857852796
 20
171.4115798338473
  0
LWPOLYLINE
  5
406
330
1F
100
AcDbEntity
  8
0
100
AcDbPolyline
 90
        4
 70
     0
 43
0.0
 10
175.6552857852796
 20
171.4115798338473
 10
175.6552857852796
 20
168.4115798338473
 10
178.6552857852796
 20
168.4115798338473
 10
178.6552857852796
 20
171.4115798338473
  0
LWPOLYLINE
  5
407
330
1F
100
AcDbEntity
  8
0
100
AcDbPolyline
 90
        4
 70
     1
 43
0.0
 10
178.6552857852796
 20
171.4115798338473
 10
178.6552857852796
 20
168.4115798338473
 10
181.6552857852796
 20
168.4115798338473
 10
181.6552857852796
 20
171.4115798338473
  0
LWPOLYLINE
  5
408
330
1F
100
AcDbEntity
  8
0
100
AcDbPolyline
 90
        4
 70
     0
 43
0.0
 10
181.6552857852796
 20
171.4115798338473
 10
181.6552857852796
 20
168.4115798338473
 10
184.6552857852796
 20
168.4115798338473
 10
184.6552857852796
 20
171.4115798338473
  0
LWPOLYLINE
  5
409
330
1F
100
AcDbEntity
  8
0
100
AcDbPolyline
 90
        4
 70
     1
 43
0.0
 10
184.6552857852796
 20
171.4115798338473
 10
184.6552857852796
 20
168.4115798338473
 10
187.6552857852795
 20
168.4115798338473
 10
187.6552857852795
 20
171.4115798338473
  0
LINE
  5
40A
330
1F
100
AcDbEntity
  8
0
100
AcDbLine
 10
82.65528578527957
 20
168.4115798338473
 30
0.0
 11
76.19953453140076
 21
168.4115798338473
 31
0.0
  0
LINE
  5
40B
330
1F
100
AcDbEntity
  8
0
100
AcDbLine
 10
187.6552857852795
 20
168.4115798338473
 30
0.0
 11
194.6995345314007
 21
168.4115798338473
 31
0.0
  0
MTEXT
  5
40C
330
1F
100
AcDbEntity
  8
0
100
AcDbMText
 10
88.23536434787078
 20
144.06010857221
 30
0.0
 40
7.0
 41
117.0266261906474
 71
     1
 72
     5
  1
{\fTimes New Roman|b0|i0|c0|p18;PNTECH CONTROLS}
 73
     1
 44
1.0
1001
ACAD
1000
MTEXTBEGIN
1070
    73
1070
     1
1070
    44
1040
1.0
1070
    74
1070
     0
1000
MTEXTEND
  0
MTEXT
  5
40D
330
1F
100
AcDbEntity
  8
0
100
AcDbMText
 10
147.9600859269468
 20
114.5379396479568
 30
0.0
 40
4.5
 41
44.79584331544697
 71
     1
 72
     5
  1
{\fTimes New Roman|b0|i0|c0|p18;DDC-C8R}
 73
     1
 44
1.0
1001
ACAD
1000
MTEXTBEGIN
1070
    73
1070
     1
1070
    44
1040
1.0
1070
    74
1070
     0
1000
MTEXTEND
  0
MTEXT
  5
40E
330
1F
100
AcDbEntity
  8
0
100
AcDbMText
 10
85.60086480948527
 20
81.16157983384727
 30
0.0
 40
2.339449156700929
 41
16.38732070717815
 71
     1
 72
     5
  1
{\fTimes New Roman|b0|i0|c0|p18;A1 +}
 11
0.0000000000000001
 21
1.0
 31
0.0
 73
     1
 44
1.0
1001
ACAD
1000
MTEXTBEGIN
1070
    73
1070
     1
1070
    44
1040
1.0
1070
    74
1070
     0
1000
MTEXTEND
  0
MTEXT
  5
40F
330
1F
100
AcDbEntity
  8
0
100
AcDbMText
 10
90.7008639710933
 20
81.16157983384727
 30
0.0
 40
2.339449156700929
 41
16.38732070717815
 71
     1
 72
     5
  1
{\fTimes New Roman|b0|i0|c0|p18;B1 -}
 11
0.0000000000000001
 21
1.0
 31
0.0
 73
     1
 44
1.0
1001
ACAD
1000
MTEXTBEGIN
1070
    73
1070
     1
1070
    44
1040
1.0
1070
    74
1070
     0
1000
MTEXTEND
  0
MTEXT
  5
410
330
1F
100
AcDbEntity
  8
0
100
AcDbMText
 10
95.80086313270133
 20
81.16157983384727
 30
0.0
 40
2.339449156700929
 41
16.38732070717815
 71
     1
 72
     5
  1
{\fTimes New Roman|b0|i0|c0|p18;A2 +}
 11
0.0000000000000001
 21
1.0
 31
0.0
 73
     1
 44
1.0
1001
ACAD
1000
MTEXTBEGIN
1070
    73
1070
     1
1070
    44
1040
1.0
1070
    74
1070
     0
1000
MTEXTEND
  0
MTEXT
  5
411
330
1F
100
AcDbEntity
  8
0
100
AcDbMText
 10
100.9008622943093
 20
81.16157983384727
 30
0.0
 40
2.339449156700929
 41
16.38732070717815
 71
     1
 72
     5
  1
{\fTimes New Roman|b0|i0|c0|p18;B2 -}
 11
0.0000000000000001
 21
1.0
 31
0.0
 73
     1
 44
1.0
1001
ACAD
1000
MTEXTBEGIN
1070
    73
1070
     1
1070
    44
1040
1.0
1070
    74
1070
     0
1000
MTEXTEND
  0
MTEXT
  5
412
330
1F
100
AcDbEntity
  8
0
100
AcDbMText
 10
106.0008614559174
 20
81.16157983384727
 30
0.0
 40
2.339449156700929
 41
16.38732070717815
 71
     1
 72
     5
  1
{\fTimes New Roman|b0|i0|c0|p18;GND}
 11
0.0000000000000001
 21
1.0
 31
0.0
 73
     1
 44
1.0
1001
ACAD
1000
MTEXTBEGIN
1070
    73
1070
     1
1070
    44
1040
1.0
1070
    74
1070
     0
1000
MTEXTEND
  0
MTEXT
  5
413
330
1F
100
AcDbEntity
  8
0
100
AcDbMText
 10
116.2008597791334
 20
81.16157983384727
 30
0.0
 40
2.339449156700929
 41
16.38732070717815
 71
     1
 72
     5
  1
{\fTimes New Roman|b0|i0|c0|p18;UI 01}
 11
0.0000000000000001
 21
1.0
 31
0.0
 73
     1
 44
1.0
1001
ACAD
1000
MTEXTBEGIN
1070
    73
1070
     1
1070
    44
1040
1.0
1070
    74
1070
     0
1000
MTEXTEND
  0
MTEXT
  5
414
330
1F
100
AcDbEntity
  8
0
100
AcDbMText
 10
121.3008589407414
 20
81.16157983384727
 30
0.0
 40
2.339449156700929
 41
16.38732070717815
 71
     1
 72
     5
  1
{\fTimes New Roman|b0|i0|c0|p18;UI 02}
 11
0.0000000000000001
 21
1.0
 31
0.0
 73
     1
 44
1.0
1001
ACAD
1000
MTEXTBEGIN
1070
    73
1070
     1
1070
    44
1040
1.0
1070
    74
1070
     0
1000
MTEXTEND
  0
MTEXT
  5
415
330
1F
100
AcDbEntity
  8
0
100
AcDbMText
 10
126.4008581023494
 20
81.16157983384727
 30
0.0
 40
2.339449156700929
 41
16.38732070717815
 71
     1
 72
     5
  1
{\fTimes New Roman|b0|i0|c0|p18;UI 03}
 11
0.0000000000000001
 21
1.0
 31
0.0
 73
     1
 44
1.0
1001
ACAD
1000
MTEXTBEGIN
1070
    73
1070
     1
1070
    44
1040
1.0
1070
    74
1070
     0
1000
MTEXTEND
  0
MTEXT
  5
416
330
1F
100
AcDbEntity
  8
0
100
AcDbMText
 10
131.5008572639575
 20
81.16157983384727
 30
0.0
 40
2.339449156700929
 41
16.38732070717815
 71
     1
 72
     5
  1
{\fTimes New Roman|b0|i0|c0|p18;UI 04}
 11
0.0000000000000001
 21
1.0
 31
0.0
 73
     1
 44
1.0
1001
ACAD
1000
MTEXTBEGIN
1070
    73
1070
     1
1070
    44
1040
1.0
1070
    74
1070
     0
1000
MTEXTEND
  0
MTEXT
  5
417
330
1F
100
AcDbEntity
  8
0
100
AcDbMText
 10
141.7008555871735
 20
81.16157983384727
 30
0.0
 40
2.339449156700929
 41
16.38732070717815
 71
     1
 72
     5
  1
{\fTimes New Roman|b0|i0|c0|p18;UI 05}
 11
0.0000000000000001
 21
1.0
 31
0.0
 73
     1
 44
1.0
1001
ACAD
1000
MTEXTBEGIN
1070
    73
1070
     1
1070
    44
1040
1.0
1070
    74
1070
     0
1000
MTEXTEND
  0
MTEXT
  5
418
330
1F
100
AcDbEntity
  8
0
100
AcDbMText
 10
151.9008539103896
 20
81.16157983384727
 30
0.0
 40
2.339449156700929
 41
16.38732070717815
 71
     1
 72
     5
  1
{\fTimes New Roman|b0|i0|c0|p18;UI 07}
 11
0.0000000000000001
 21
1.0
 31
0.0
 73
     1
 44
1.0
1001
ACAD
1000
MTEXTBEGIN
1070
    73
1070
     1
1070
    44
1040
1.0
1070
    74
1070
     0
1000
MTEXTEND
  0
MTEXT
  5
419
330
1F
100
AcDbEntity
  8
0
100
AcDbMText
 10
157.0008530719976
 20
81.16157983384727
 30
0.0
 40
2.339449156700929
 41
16.38732070717815
 71
     1
 72
     5
  1
{\fTimes New Roman|b0|i0|c0|p18;UI 08}
 11
0.0000000000000001
 21
1.0
 31
0.0
 73
     1
 44
1.0
1001
ACAD
1000
MTEXTBEGIN
1070
    73
1070
     1
1070
    44
1040
1.0
1070
    74
1070
     0
1000
MTEXTEND
  0
MTEXT
  5
41A
330
1F
100
AcDbEntity
  8
0
100
AcDbMText
 10
162.1008522336056
 20
81.16157983384727
 30
0.0
 40
2.339449156700929
 41
16.38732070717815
 71
     1
 72
     5
  1
{\fTimes New Roman|b0|i0|c0|p18;GND}
 11
0.0000000000000001
 21
1.0
 31
0.0
 73
     1
 44
1.0
1001
ACAD
1000
MTEXTBEGIN
1070
    73
1070
     1
1070
    44
1040
1.0
1070
    74
1070
     0
1000
MTEXTEND
  0
MTEXT
  5
41B
330
1F
100
AcDbEntity
  8
0
100
AcDbMText
 10
167.2008513952136
 20
81.16157983384727
 30
0.0
 40
2.339449156700929
 41
16.38732070717815
 71
     1
 72
     5
  1
{\fTimes New Roman|b0|i0|c0|p18;UI 09}
 11
0.0000000000000001
 21
1.0
 31
0.0
 73
     1
 44
1.0
1001
ACAD
1000
MTEXTBEGIN
1070
    73
1070
     1
1070
    44
1040
1.0
1070
    74
1070
     0
1000
MTEXTEND
  0
MTEXT
  5
41C
330
1F
100
AcDbEntity
  8
0
100
AcDbMText
 10
172.3008505568217
 20
81.16157983384727
 30
0.0
 40
2.339449156700929
 41
16.38732070717815
 71
     1
 72
     5
  1
{\fTimes New Roman|b0|i0|c0|p18;UI 10}
 11
0.0000000000000001
 21
1.0
 31
0.0
 73
     1
 44
1.0
1001
ACAD
1000
MTEXTBEGIN
1070
    73
1070
     1
1070
    44
1040
1.0
1070
    74
1070
     0
1000
MTEXTEND
  0
MTEXT
  5
41D
330
1F
100
AcDbEntity
  8
0
100
AcDbMText
 10
177.4008497184297
 20
81.16157983384727
 30
0.0
 40
2.339449156700929
 41
16.38732070717815
 71
     1
 72
     5
  1
{\fTimes New Roman|b0|i0|c0|p18;UI 11}
 11
0.0000000000000001
 21
1.0
 31
0.0
 73
     1
 44
1.0
1001
ACAD
1000
MTEXTBEGIN
1070
    73
1070
     1
1070
    44
1040
1.0
1070
    74
1070
     0
1000
MTEXTEND
  0
MTEXT
  5
41E
330
1F
100
AcDbEntity
  8
0
100
AcDbMText
 10
182.5008488800376
 20
81.16157983384727
 30
0.0
 40
2.339449156700929
 41
16.38732070717815
 71
     1
 72
     5
  1
{\fTimes New Roman|b0|i0|c0|p18;UI 12}
 11
0.0000000000000001
 21
1.0
 31
0.0
 73
     1
 44
1.0
1001
ACAD
1000
MTEXTBEGIN
1070
    73
1070
     1
1070
    44
1040
1.0
1070
    74
1070
     0
1000
MTEXTEND
  0
MTEXT
  5
41F
330
1F
100
AcDbEntity
  8
0
100
AcDbMText
 10
85.56496339587656
 20
171.8053920026115
 30
0.0
 40
2.339449541284402
 41
20.96115204163199
 71
     1
 72
     5
  1
{\fTimes New Roman|b0|i0|c0|p18;24VAC IN}
 11
0.0000000000000001
 21
1.0
 31
0.0
 73
     1
 44
1.0
1001
ACAD
1000
MTEXTBEGIN
1070
    73
1070
     1
1070
    44
1040
1.0
1070
    74
1070
     0
1000
MTEXTEND
  0
MTEXT
  5
420
330
1F
100
AcDbEntity
  8
0
100
AcDbMText
 10
90.66496339587647
 20
171.8053920026115
 30
0.0
 40
2.339449541284402
 41
16.38732340109979
 71
     1
 72
     5
  1
{\fTimes New Roman|b0|i0|c0|p18;GND }
 11
0.0000000000000001
 21
1.0
 31
0.0
 73
     1
 44
1.0
1001
ACAD
1000
MTEXTBEGIN
1070
    73
1070
     1
1070
    44
1040
1.0
1070
    74
1070
     0
1000
MTEXTEND
  0
MTEXT
  5
421
330
1F
100
AcDbEntity
  8
0
100
AcDbMText
 10
105.9649633958765
 20
171.8053920026115
 30
0.0
 40
2.339449541284402
 41
16.38732340109979
 71
     1
 72
     5
  1
{\fTimes New Roman|b0|i0|c0|p18;COM1}
 11
0.0000000000000001
 21
1.0
 31
0.0
 73
     1
 44
1.0
1001
ACAD
1000
MTEXTBEGIN
1070
    73
1070
     1
1070
    44
1040
1.0
1070
    74
1070
     0
1000
MTEXTEND
  0
MTEXT
  5
422
330
1F
100
AcDbEntity
  8
0
100
AcDbMText
 10
111.0649633958765
 20
171.8053920026115
 30
0.0
 40
2.339449541284402
 41
16.38732340109979
 71
     1
 72
     5
  1
{\fTimes New Roman|b0|i0|c0|p18;NO 1}
 11
0.0000000000000001
 21
1.0
 31
0.0
 73
     1
 44
1.0
1001
ACAD
1000
MTEXTBEGIN
1070
    73
1070
     1
1070
    44
1040
1.0
1070
    74
1070
     0
1000
MTEXTEND
  0
MTEXT
  5
423
330
1F
100
AcDbEntity
  8
0
100
AcDbMText
 10
116.1649633958764
 20
171.8053920026115
 30
0.0
 40
2.339449541284402
 41
16.38732340109979
 71
     1
 72
     5
  1
{\fTimes New Roman|b0|i0|c0|p18;COM2}
 11
0.0000000000000001
 21
1.0
 31
0.0
 73
     1
 44
1.0
1001
ACAD
1000
MTEXTBEGIN
1070
    73
1070
     1
1070
    44
1040
1.0
1070
    74
1070
     0
1000
MTEXTEND
  0
MTEXT
  5
424
330
1F
100
AcDbEntity
  8
0
100
AcDbMText
 10
126.3649633958765
 20
171.8053920026115
 30
0.0
 40
2.339449541284402
 41
16.38732340109979
 71
     1
 72
     5
  1
{\fTimes New Roman|b0|i0|c0|p18;COM3}
 11
0.0000000000000001
 21
1.0
 31
0.0
 73
     1
 44
1.0
1001
ACAD
1000
MTEXTBEGIN
1070
    73
1070
     1
1070
    44
1040
1.0
1070
    74
1070
     0
1000
MTEXTEND
  0
MTEXT
  5
425
330
1F
100
AcDbEntity
  8
0
100
AcDbMText
 10
131.4649633958764
 20
171.8053920026115
 30
0.0
 40
2.339449541284402
 41
16.38732340109979
 71
     1
 72
     5
  1
{\fTimes New Roman|b0|i0|c0|p18;NO 3}
 11
0.0000000000000001
 21
1.0
 31
0.0
 73
     1
 44
1.0
1001
ACAD
1000
MTEXTBEGIN
1070
    73
1070
     1
1070
    44
1040
1.0
1070
    74
1070
     0
1000
MTEXTEND
  0
MTEXT
  5
426
330
1F
100
AcDbEntity
  8
0
100
AcDbMText
 10
136.5649633958764
 20
171.8053920026115
 30
0.0
 40
2.339449541284402
 41
16.38732340109979
 71
     1
 72
     5
  1
{\fTimes New Roman|b0|i0|c0|p18;COM4}
 11
0.0000000000000001
 21
1.0
 31
0.0
 73
     1
 44
1.0
1001
ACAD
1000
MTEXTBEGIN
1070
    73
1070
     1
1070
    44
1040
1.0
1070
    74
1070
     0
1000
MTEXTEND
  0
MTEXT
  5
427
330
1F
100
AcDbEntity
  8
0
100
AcDbMText
 10
141.6649633958764
 20
171.8053920026115
 30
0.0
 40
2.339449541284402
 41
16.38732340109979
 71
     1
 72
     5
  1
{\fTimes New Roman|b0|i0|c0|p18;NO 4}
 11
0.0000000000000001
 21
1.0
 31
0.0
 73
     1
 44
1.0
1001
ACAD
1000
MTEXTBEGIN
1070
    73
1070
     1
1070
    44
1040
1.0
1070
    74
1070
     0
1000
MTEXTEND
  0
MTEXT
  5
428
330
1F
100
AcDbEntity
  8
0
100
AcDbMText
 10
146.7649633958765
 20
171.8053920026115
 30
0.0
 40
2.339449541284402
 41
16.38732340109979
 71
     1
 72
     5
  1
{\fTimes New Roman|b0|i0|c0|p18;COM5}
 11
0.0000000000000001
 21
1.0
 31
0.0
 73
     1
 44
1.0
1001
ACAD
1000
MTEXTBEGIN
1070
    73
1070
     1
1070
    44
1040
1.0
1070
    74
1070
     0
1000
MTEXTEND
  0
MTEXT
  5
429
330
1F
100
AcDbEntity
  8
0
100
AcDbMText
 10
151.8649633958765
 20
171.8053920026115
 30
0.0
 40
2.339449541284402
 41
16.38732340109979
 71
     1
 72
     5
  1
{\fTimes New Roman|b0|i0|c0|p18;NO 5}
 11
0.0000000000000001
 21
1.0
 31
0.0
 73
     1
 44
1.0
1001
ACAD
1000
MTEXTBEGIN
1070
    73
1070
     1
1070
    44
1040
1.0
1070
    74
1070
     0
1000
MTEXTEND
  0
MTEXT
  5
42A
330
1F
100
AcDbEntity
  8
0
100
AcDbMText
 10
156.9649633958764
 20
171.8053920026115
 30
0.0
 40
2.339449541284402
 41
16.38732340109979
 71
     1
 72
     5
  1
{\fTimes New Roman|b0|i0|c0|p18;COM6}
 11
0.0000000000000001
 21
1.0
 31
0.0
 73
     1
 44
1.0
1001
ACAD
1000
MTEXTBEGIN
1070
    73
1070
     1
1070
    44
1040
1.0
1070
    74
1070
     0
1000
MTEXTEND
  0
MTEXT
  5
42B
330
1F
100
AcDbEntity
  8
0
100
AcDbMText
 10
162.0649633958764
 20
171.8053920026115
 30
0.0
 40
2.339449541284402
 41
16.38732340109979
 71
     1
 72
     5
  1
{\fTimes New Roman|b0|i0|c0|p18;NO 6}
 11
0.0000000000000001
 21
1.0
 31
0.0
 73
     1
 44
1.0
1001
ACAD
1000
MTEXTBEGIN
1070
    73
1070
     1
1070
    44
1040
1.0
1070
    74
1070
     0
1000
MTEXTEND
  0
MTEXT
  5
42C
330
1F
100
AcDbEntity
  8
0
100
AcDbMText
 10
167.1649633958763
 20
171.8053920026115
 30
0.0
 40
2.339449541284402
 41
16.38732340109979
 71
     1
 72
     5
  1
{\fTimes New Roman|b0|i0|c0|p18;COM7}
 11
0.0000000000000001
 21
1.0
 31
0.0
 73
     1
 44
1.0
1001
ACAD
1000
MTEXTBEGIN
1070
    73
1070
     1
1070
    44
1040
1.0
1070
    74
1070
     0
1000
MTEXTEND
  0
MTEXT
  5
42D
330
1F
100
AcDbEntity
  8
0
100
AcDbMText
 10
172.2649633958764
 20
171.8053920026115
 30
0.0
 40
2.339449541284402
 41
16.38732340109979
 71
     1
 72
     5
  1
{\fTimes New Roman|b0|i0|c0|p18;NO7}
 11
0.0000000000000001
 21
1.0
 31
0.0
 73
     1
 44
1.0
1001
ACAD
1000
MTEXTBEGIN
1070
    73
1070
     1
1070
    44
1040
1.0
1070
    74
1070
     0
1000
MTEXTEND
  0
MTEXT
  5
42E
330
1F
100
AcDbEntity
  8
0
100
AcDbMText
 10
121.2649633958765
 20
171.8053920026115
 30
0.0
 40
2.339449541284402
 41
16.38732340109979
 71
     1
 72
     5
  1
{\fTimes New Roman|b0|i0|c0|p18;NO 2}
 11
0.0000000000000001
 21
1.0
 31
0.0
 73
     1
 44
1.0
1001
ACAD
1000
MTEXTBEGIN
1070
    73
1070
     1
1070
    44
1040
1.0
1070
    74
1070
     0
1000
MTEXTEND
  0
MTEXT
  5
42F
330
1F
100
AcDbEntity
  8
0
100
AcDbMText
 10
177.3649633958764
 20
171.8053920026115
 30
0.0
 40
2.339449541284402
 41
16.38732340109979
 71
     1
 72
     5
  1
{\fTimes New Roman|b0|i0|c0|p18;COM8}
 11
0.0000000000000001
 21
1.0
 31
0.0
 73
     1
 44
1.0
1001
ACAD
1000
MTEXTBEGIN
1070
    73
1070
     1
1070
    44
1040
1.0
1070
    74
1070
     0
1000
MTEXTEND
  0
MTEXT
  5
430
330
1F
100
AcDbEntity
  8
0
100
AcDbMText
 10
182.4649633958764
 20
171.8053920026115
 30
0.0
 40
2.339449541284402
 41
16.38732340109979
 71
     1
 72
     5
  1
{\fTimes New Roman|b0|i0|c0|p18;NO 8}
 11
0.0000000000000001
 21
1.0
 31
0.0
 73
     1
 44
1.0
1001
ACAD
1000
MTEXTBEGIN
1070
    73
1070
     1
1070
    44
1040
1.0
1070
    74
1070
     0
1000
MTEXTEND
  0
LWPOLYLINE
  5
431
330
1F
100
AcDbEntity
  8
0
 62
     4
100
AcDbPolyline
 90
        3
 70
     0
 43
0.0
 10
83.94953453140075
 20
180.6615798338473
 10
83.94953453140075
 20
193.9115798338473
 10
94.1495345314008
 20
193.9115798338473
  0
LWPOLYLINE
  5
432
102
{ACAD_REACTORS
330
573
102
}
330
1F
100
AcDbEntity
  8
0
 62
     4
100
AcDbPolyline
 90
        3
 70
     0
 43
0.0
 10
104.3495345314007
 20
193.9115798338473
 10
185.9495345314007
 20
193.9115798338473
 10
185.9495345314007
 20
180.6615798338473
  0
LWPOLYLINE
  5
433
330
1F
100
AcDbEntity
  8
0
 62
     4
100
AcDbPolyline
 90
        4
 70
     0
 43
0.0
 10
83.94953453140075
 20
81.16157983384727
 10
83.94953453140075
 20
68.97006607237944
 10
185.9495345314007
 20
68.97006607237944
 10
185.9495345314007
 20
81.16157983384727
  0
LWPOLYLINE
  5
434
330
1F
100
AcDbEntity
  8
0
 62
     4
100
AcDbPolyline
 90
        4
 70
     0
 43
0.0
 10
83.94953453140075
 20
81.16157983384727
 10
83.94953453140075
 20
80.66731377880131
 10
185.9495345314007
 20
80.66731377880131
 10
185.9495345314007
 20
81.16157983384727
  0
LWPOLYLINE
  5
435
330
1F
100
AcDbEntity
  8
0
 62
     4
100
AcDbPolyline
 90
        4
 70
     1
 43
0.0
 10
83.94953453140075
 20
76.39781836595734
 10
83.94953453140075
 20
68.91157983384727
 10
185.9495345314007
 20
68.91157983384727
 10
185.9495345314007
 20
76.39781836595734
  0
LWPOLYLINE
  5
436
330
1F
100
AcDbEntity
  8
0
 62
     4
100
AcDbPolyline
 90
        4
 70
     1
 43
0.0
 10
83.94953453140075
 20
76.39781836595734
 10
83.94953453140075
 20
68.91157983384727
 10
89.04953453140079
 20
68.91157983384727
 10
89.04953453140079
 20
76.39781836595734
  0
CIRCLE
  5
437
330
1F
100
AcDbEntity
  8
0
 62
     4
100
AcDbCircle
 10
86.49953453140083
 20
72.68394221916827
 30
0.0
 40
1.871559633027521
  0
LWPOLYLINE
  5
438
330
1F
100
AcDbEntity
  8
0
 62
     4
100
AcDbPolyline
 90
        4
 70
     1
 43
0.0
 10
87.5340672027473
 20
71.25466835689434
 10
88.01931826475934
 20
71.78765039990338
 10
85.46500186005435
 20
74.1132160814422
 10
84.9797507980422
 20
73.58023403843339
  0
LWPOLYLINE
  5
439
330
1F
100
AcDbEntity
  8
0
 62
     4
100
AcDbPolyline
 90
        4
 70
     1
 43
0.0
 10
89.04953453140079
 20
76.39781836595734
 10
89.04953453140079
 20
68.91157983384727
 10
94.1495345314008
 20
68.91157983384727
 10
94.1495345314008
 20
76.39781836595734
  0
CIRCLE
  5
43A
330
1F
100
AcDbEntity
  8
0
 62
     4
100
AcDbCircle
 10
91.59953453140074
 20
72.68394221916827
 30
0.0
 40
1.871559633027521
  0
LWPOLYLINE
  5
43B
330
1F
100
AcDbEntity
  8
0
 62
     4
100
AcDbPolyline
 90
        4
 70
     1
 43
0.0
 10
92.63406720274721
 20
71.25466835689434
 10
93.11931826475936
 20
71.78765039990338
 10
90.56500186005425
 20
74.1132160814422
 10
90.07975079804223
 20
73.58023403843339
  0
LWPOLYLINE
  5
43C
330
1F
100
AcDbEntity
  8
0
 62
     4
100
AcDbPolyline
 90
        4
 70
     1
 43
0.0
 10
94.1495345314008
 20
76.39781836595734
 10
94.1495345314008
 20
68.91157983384727
 10
99.24953453140071
 20
68.91157983384727
 10
99.24953453140071
 20
76.39781836595734
  0
CIRCLE
  5
43D
330
1F
100
AcDbEntity
  8
0
 62
     4
100
AcDbCircle
 10
96.69953453140076
 20
72.68394221916827
 30
0.0
 40
1.871559633027521
  0
LWPOLYLINE
  5
43E
330
1F
100
AcDbEntity
  8
0
 62
     4
100
AcDbPolyline
 90
        4
 70
     1
 43
0.0
 10
97.73406720274724
 20
71.25466835689434
 10
98.21931826475939
 20
71.78765039990338
 10
95.66500186005427
 20
74.1132160814422
 10
95.17975079804225
 20
73.58023403843339
  0
LWPOLYLINE
  5
43F
330
1F
100
AcDbEntity
  8
0
 62
     4
100
AcDbPolyline
 90
        4
 70
     1
 43
0.0
 10
99.24953453140071
 20
76.39781836595734
 10
99.24953453140071
 20
68.91157983384727
 10
104.3495345314007
 20
68.91157983384727
 10
104.3495345314007
 20
76.39781836595734
  0
CIRCLE
  5
440
330
1F
100
AcDbEntity
  8
0
 62
     4
100
AcDbCircle
 10
101.7995345314008
 20
72.68394221916827
 30
0.0
 40
1.871559633027521
  0
LWPOLYLINE
  5
441
330
1F
100
AcDbEntity
  8
0
 62
     4
100
AcDbPolyline
 90
        4
 70
     1
 43
0.0
 10
102.8340672027472
 20
71.25466835689434
 10
103.3193182647594
 20
71.78765039990338
 10
100.7650018600543
 20
74.1132160814422
 10
100.2797507980421
 20
73.58023403843339
  0
LWPOLYLINE
  5
442
330
1F
100
AcDbEntity
  8
0
 62
     4
100
AcDbPolyline
 90
        4
 70
     1
 43
0.0
 10
104.3495345314007
 20
76.39781836595734
 10
104.3495345314007
 20
68.91157983384727
 10
109.4495345314007
 20
68.91157983384727
 10
109.4495345314007
 20
76.39781836595734
  0
CIRCLE
  5
443
330
1F
100
AcDbEntity
  8
0
 62
     4
100
AcDbCircle
 10
106.8995345314007
 20
72.68394221916827
 30
0.0
 40
1.871559633027521
  0
LWPOLYLINE
  5
444
330
1F
100
AcDbEntity
  8
0
 62
     4
100
AcDbPolyline
 90
        4
 70
     1
 43
0.0
 10
107.9340672027473
 20
71.25466835689434
 10
108.4193182647593
 20
71.78765039990338
 10
105.8650018600543
 20
74.1132160814422
 10
105.3797507980423
 20
73.58023403843339
  0
LWPOLYLINE
  5
445
330
1F
100
AcDbEntity
  8
0
 62
     4
100
AcDbPolyline
 90
        4
 70
     1
 43
0.0
 10
109.4495345314007
 20
76.39781836595734
 10
109.4495345314007
 20
68.91157983384727
 10
114.5495345314006
 20
68.91157983384727
 10
114.5495345314006
 20
76.39781836595734
  0
CIRCLE
  5
446
330
1F
100
AcDbEntity
  8
0
 62
     4
100
AcDbCircle
 10
111.9995345314007
 20
72.68394221916827
 30
0.0
 40
1.871559633027521
  0
LWPOLYLINE
  5
447
330
1F
100
AcDbEntity
  8
0
 62
     4
100
AcDbPolyline
 90
        4
 70
     1
 43
0.0
 10
113.0340672027473
 20
71.25466835689434
 10
113.5193182647593
 20
71.78765039990338
 10
110.9650018600543
 20
74.1132160814422
 10
110.4797507980422
 20
73.58023403843339
  0
LWPOLYLINE
  5
448
330
1F
100
AcDbEntity
  8
0
 62
     4
100
AcDbPolyline
 90
        4
 70
     1
 43
0.0
 10
114.5495345314006
 20
76.39781836595734
 10
114.5495345314006
 20
68.91157983384727
 10
119.6495345314007
 20
68.91157983384727
 10
119.6495345314007
 20
76.39781836595734
  0
CIRCLE
  5
449
330
1F
100
AcDbEntity
  8
0
 62
     4
100
AcDbCircle
 10
117.0995345314007
 20
72.68394221916827
 30
0.0
 40
1.871559633027521
  0
LWPOLYLINE
  5
44A
330
1F
100
AcDbEntity
  8
0
 62
     4
100
AcDbPolyline
 90
        4
 70
     1
 43
0.0
 10
118.1340672027472
 20
71.25466835689434
 10
118.6193182647593
 20
71.78765039990338
 10
116.0650018600542
 20
74.1132160814422
 10
115.5797507980422
 20
73.58023403843339
  0
LWPOLYLINE
  5
44B
330
1F
100
AcDbEntity
  8
0
 62
     4
100
AcDbPolyline
 90
        4
 70
     1
 43
0.0
 10
119.6495345314007
 20
76.39781836595734
 10
119.6495345314007
 20
68.91157983384727
 10
124.7495345314007
 20
68.91157983384727
 10
124.7495345314007
 20
76.39781836595734
  0
CIRCLE
  5
44C
330
1F
100
AcDbEntity
  8
0
 62
     4
100
AcDbCircle
 10
122.1995345314007
 20
72.68394221916827
 30
0.0
 40
1.871559633027521
  0
LWPOLYLINE
  5
44D
330
1F
100
AcDbEntity
  8
0
 62
     4
100
AcDbPolyline
 90
        4
 70
     1
 43
0.0
 10
123.2340672027472
 20
71.25466835689434
 10
123.7193182647594
 20
71.78765039990338
 10
121.1650018600542
 20
74.1132160814422
 10
120.6797507980422
 20
73.58023403843339
  0
LWPOLYLINE
  5
44E
330
1F
100
AcDbEntity
  8
0
 62
     4
100
AcDbPolyline
 90
        4
 70
     1
 43
0.0
 10
124.7495345314007
 20
76.39781836595734
 10
124.7495345314007
 20
68.91157983384727
 10
129.8495345314007
 20
68.91157983384727
 10
129.8495345314007
 20
76.39781836595734
  0
CIRCLE
  5
44F
330
1F
100
AcDbEntity
  8
0
 62
     4
100
AcDbCircle
 10
127.2995345314006
 20
72.68394221916827
 30
0.0
 40
1.871559633027521
  0
LWPOLYLINE
  5
450
330
1F
100
AcDbEntity
  8
0
 62
     4
100
AcDbPolyline
 90
        4
 70
     1
 43
0.0
 10
128.3340672027472
 20
71.25466835689434
 10
128.8193182647593
 20
71.78765039990338
 10
126.2650018600543
 20
74.1132160814422
 10
125.7797507980421
 20
73.58023403843339
  0
LWPOLYLINE
  5
451
330
1F
100
AcDbEntity
  8
0
 62
     4
100
AcDbPolyline
 90
        4
 70
     1
 43
0.0
 10
129.8495345314007
 20
76.39781836595734
 10
129.8495345314007
 20
68.91157983384727
 10
134.9495345314007
 20
68.91157983384727
 10
134.9495345314007
 20
76.39781836595734
  0
CIRCLE
  5
452
330
1F
100
AcDbEntity
  8
0
 62
     4
100
AcDbCircle
 10
132.3995345314007
 20
72.68394221916827
 30
0.0
 40
1.871559633027521
  0
LWPOLYLINE
  5
453
330
1F
100
AcDbEntity
  8
0
 62
     4
100
AcDbPolyline
 90
        4
 70
     1
 43
0.0
 10
133.4340672027473
 20
71.25466835689434
 10
133.9193182647593
 20
71.78765039990338
 10
131.3650018600543
 20
74.1132160814422
 10
130.8797507980423
 20
73.58023403843339
  0
LWPOLYLINE
  5
454
330
1F
100
AcDbEntity
  8
0
 62
     4
100
AcDbPolyline
 90
        4
 70
     1
 43
0.0
 10
134.9495345314007
 20
76.39781836595734
 10
134.9495345314007
 20
68.91157983384727
 10
140.0495345314006
 20
68.91157983384727
 10
140.0495345314006
 20
76.39781836595734
  0
CIRCLE
  5
455
330
1F
100
AcDbEntity
  8
0
 62
     4
100
AcDbCircle
 10
137.4995345314007
 20
72.68394221916827
 30
0.0
 40
1.871559633027521
  0
LWPOLYLINE
  5
456
330
1F
100
AcDbEntity
  8
0
 62
     4
100
AcDbPolyline
 90
        4
 70
     1
 43
0.0
 10
138.5340672027473
 20
71.25466835689434
 10
139.0193182647593
 20
71.78765039990338
 10
136.4650018600543
 20
74.1132160814422
 10
135.9797507980422
 20
73.58023403843339
  0
LWPOLYLINE
  5
457
330
1F
100
AcDbEntity
  8
0
 62
     4
100
AcDbPolyline
 90
        4
 70
     1
 43
0.0
 10
140.0495345314008
 20
76.39781836595734
 10
140.0495345314008
 20
68.91157983384727
 10
145.1495345314008
 20
68.91157983384727
 10
145.1495345314008
 20
76.39781836595734
  0
CIRCLE
  5
458
330
1F
100
AcDbEntity
  8
0
 62
     4
100
AcDbCircle
 10
142.5995345314007
 20
72.68394221916827
 30
0.0
 40
1.871559633027521
  0
LWPOLYLINE
  5
459
330
1F
100
AcDbEntity
  8
0
 62
     4
100
AcDbPolyline
 90
        4
 70
     1
 43
0.0
 10
143.6340672027472
 20
71.25466835689434
 10
144.1193182647593
 20
71.78765039990338
 10
141.5650018600542
 20
74.1132160814422
 10
141.0797507980422
 20
73.58023403843339
  0
LWPOLYLINE
  5
45A
330
1F
100
AcDbEntity
  8
0
 62
     4
100
AcDbPolyline
 90
        4
 70
     1
 43
0.0
 10
145.1495345314008
 20
76.39781836595734
 10
145.1495345314008
 20
68.91157983384727
 10
150.2495345314007
 20
68.91157983384727
 10
150.2495345314007
 20
76.39781836595734
  0
CIRCLE
  5
45B
330
1F
100
AcDbEntity
  8
0
 62
     4
100
AcDbCircle
 10
147.6995345314007
 20
72.68394221916827
 30
0.0
 40
1.871559633027521
  0
LWPOLYLINE
  5
45C
330
1F
100
AcDbEntity
  8
0
 62
     4
100
AcDbPolyline
 90
        4
 70
     1
 43
0.0
 10
148.7340672027472
 20
71.25466835689434
 10
149.2193182647592
 20
71.78765039990338
 10
146.6650018600542
 20
74.1132160814422
 10
146.1797507980422
 20
73.58023403843339
  0
LWPOLYLINE
  5
45D
330
1F
100
AcDbEntity
  8
0
 62
     4
100
AcDbPolyline
 90
        4
 70
     1
 43
0.0
 10
150.2495345314007
 20
76.39781836595734
 10
150.2495345314007
 20
68.91157983384727
 10
155.3495345314007
 20
68.91157983384727
 10
155.3495345314007
 20
76.39781836595734
  0
CIRCLE
  5
45E
330
1F
100
AcDbEntity
  8
0
 62
     4
100
AcDbCircle
 10
152.7995345314006
 20
72.68394221916827
 30
0.0
 40
1.871559633027521
  0
LWPOLYLINE
  5
45F
330
1F
100
AcDbEntity
  8
0
 62
     4
100
AcDbPolyline
 90
        4
 70
     1
 43
0.0
 10
153.8340672027472
 20
71.25466835689434
 10
154.3193182647593
 20
71.78765039990338
 10
151.7650018600543
 20
74.1132160814422
 10
151.2797507980421
 20
73.58023403843339
  0
LWPOLYLINE
  5
460
330
1F
100
AcDbEntity
  8
0
 62
     4
100
AcDbPolyline
 90
        4
 70
     1
 43
0.0
 10
155.3495345314007
 20
76.39781836595734
 10
155.3495345314007
 20
68.91157983384727
 10
160.4495345314007
 20
68.91157983384727
 10
160.4495345314007
 20
76.39781836595734
  0
CIRCLE
  5
461
330
1F
100
AcDbEntity
  8
0
 62
     4
100
AcDbCircle
 10
157.8995345314008
 20
72.68394221916827
 30
0.0
 40
1.871559633027521
  0
LWPOLYLINE
  5
462
330
1F
100
AcDbEntity
  8
0
 62
     4
100
AcDbPolyline
 90
        4
 70
     1
 43
0.0
 10
158.9340672027472
 20
71.25466835689434
 10
159.4193182647593
 20
71.78765039990338
 10
156.8650018600542
 20
74.1132160814422
 10
156.3797507980422
 20
73.58023403843339
  0
LWPOLYLINE
  5
463
330
1F
100
AcDbEntity
  8
0
 62
     4
100
AcDbPolyline
 90
        4
 70
     1
 43
0.0
 10
160.4495345314007
 20
76.39781836595734
 10
160.4495345314007
 20
68.91157983384727
 10
165.5495345314006
 20
68.91157983384727
 10
165.5495345314006
 20
76.39781836595734
  0
CIRCLE
  5
464
330
1F
100
AcDbEntity
  8
0
 62
     4
100
AcDbCircle
 10
162.9995345314007
 20
72.68394221916827
 30
0.0
 40
1.871559633027521
  0
LWPOLYLINE
  5
465
330
1F
100
AcDbEntity
  8
0
 62
     4
100
AcDbPolyline
 90
        4
 70
     1
 43
0.0
 10
164.0340672027472
 20
71.25466835689434
 10
164.5193182647592
 20
71.78765039990338
 10
161.9650018600542
 20
74.1132160814422
 10
161.4797507980422
 20
73.58023403843339
  0
LWPOLYLINE
  5
466
330
1F
100
AcDbEntity
  8
0
 62
     4
100
AcDbPolyline
 90
        4
 70
     1
 43
0.0
 10
165.5495345314006
 20
76.39781836595734
 10
165.5495345314006
 20
68.91157983384727
 10
170.6495345314008
 20
68.91157983384727
 10
170.6495345314008
 20
76.39781836595734
  0
CIRCLE
  5
467
330
1F
100
AcDbEntity
  8
0
 62
     4
100
AcDbCircle
 10
168.0995345314007
 20
72.68394221916827
 30
0.0
 40
1.871559633027521
  0
LWPOLYLINE
  5
468
330
1F
100
AcDbEntity
  8
0
 62
     4
100
AcDbPolyline
 90
        4
 70
     1
 43
0.0
 10
169.1340672027472
 20
71.25466835689434
 10
169.6193182647593
 20
71.78765039990338
 10
167.0650018600542
 20
74.1132160814422
 10
166.5797507980421
 20
73.58023403843339
  0
LWPOLYLINE
  5
469
330
1F
100
AcDbEntity
  8
0
 62
     4
100
AcDbPolyline
 90
        4
 70
     1
 43
0.0
 10
170.6495345314008
 20
76.39781836595734
 10
170.6495345314008
 20
68.91157983384727
 10
175.7495345314007
 20
68.91157983384727
 10
175.7495345314007
 20
76.39781836595734
  0
CIRCLE
  5
46A
330
1F
100
AcDbEntity
  8
0
 62
     4
100
AcDbCircle
 10
173.1995345314007
 20
72.68394221916827
 30
0.0
 40
1.871559633027521
  0
LWPOLYLINE
  5
46B
330
1F
100
AcDbEntity
  8
0
 62
     4
100
AcDbPolyline
 90
        4
 70
     1
 43
0.0
 10
174.2340672027472
 20
71.25466835689434
 10
174.7193182647592
 20
71.78765039990338
 10
172.1650018600542
 20
74.1132160814422
 10
171.6797507980421
 20
73.58023403843339
  0
LWPOLYLINE
  5
46C
330
1F
100
AcDbEntity
  8
0
 62
     4
100
AcDbPolyline
 90
        4
 70
     1
 43
0.0
 10
175.7495345314007
 20
76.39781836595734
 10
175.7495345314007
 20
68.91157983384727
 10
180.8495345314007
 20
68.91157983384727
 10
180.8495345314007
 20
76.39781836595734
  0
CIRCLE
  5
46D
330
1F
100
AcDbEntity
  8
0
 62
     4
100
AcDbCircle
 10
178.2995345314008
 20
72.68394221916827
 30
0.0
 40
1.871559633027521
  0
LWPOLYLINE
  5
46E
330
1F
100
AcDbEntity
  8
0
 62
     4
100
AcDbPolyline
 90
        4
 70
     1
 43
0.0
 10
179.3340672027472
 20
71.25466835689434
 10
179.8193182647593
 20
71.78765039990338
 10
177.2650018600543
 20
74.1132160814422
 10
176.7797507980421
 20
73.58023403843339
  0
LWPOLYLINE
  5
46F
330
1F
100
AcDbEntity
  8
0
 62
     4
100
AcDbPolyline
 90
        4
 70
     1
 43
0.0
 10
180.8495345314007
 20
76.39781836595734
 10
180.8495345314007
 20
68.91157983384727
 10
185.9495345314007
 20
68.91157983384727
 10
185.9495345314007
 20
76.39781836595734
  0
CIRCLE
  5
470
330
1F
100
AcDbEntity
  8
0
 62
     4
100
AcDbCircle
 10
183.3995345314008
 20
72.68394221916827
 30
0.0
 40
1.871559633027521
  0
LWPOLYLINE
  5
471
330
1F
100
AcDbEntity
  8
0
 62
     4
100
AcDbPolyline
 90
        4
 70
     1
 43
0.0
 10
184.4340672027471
 20
71.25466835689434
 10
184.9193182647593
 20
71.78765039990338
 10
182.3650018600542
 20
74.1132160814422
 10
181.8797507980422
 20
73.58023403843339
  0
LWPOLYLINE
  5
472
102
{ACAD_REACTORS
330
573
102
}
330
1F
100
AcDbEntity
  8
0
 62
     4
100
AcDbPolyline
 90
        4
 70
     0
 43
0.0
 10
83.94953453140075
 20
81.16157983384727
 10
83.94953453140075
 20
68.91157983384727
 10
185.9495345314007
 20
68.91157983384727
 10
185.9495345314007
 20
81.16157983384727
  0
HATCH
  5
473
330
1F
100
AcDbEntity
  8
0
 62
     5
370
    40
100
AcDbHatch
 10
0.0
 20
0.0
 30
0.0
210
0.0
220
0.0
230
1.0
  2
SOLID
 70
     1
 71
     1
 91
        1
 92
        1
 93
        4
 72
     1
 10
87.72203511326992
 20
135.4586964141861
 11
185.2846002036992
 21
135.4586964141861
 72
     1
 10
185.2846002036992
 20
135.4586964141861
 11
185.2846002036992
 21
134.7483616100048
 72
     1
 10
185.2846002036992
 20
134.7483616100048
 11
87.72203511326992
 21
134.7483616100048
 72
     1
 10
87.72203511326992
 20
134.7483616100048
 11
87.72203511326992
 21
135.4586964141861
 97
        1
330
474
 75
     0
 76
     1
 98
        1
 10
832.7882680378891
 20
169.6903523285307
1001
ACAD
1010
0.0
1020
0.0
1030
0.0
  0
LWPOLYLINE
  5
474
102
{ACAD_REACTORS
330
473
102
}
330
1F
100
AcDbEntity
  8
0
370
    40
100
AcDbPolyline
 90
        4
 70
     1
 43
0.0
 10
87.72203511326992
 20
135.4586964141861
 10
185.2846002036992
 20
135.4586964141861
 10
185.2846002036992
 20
134.7483616100048
 10
87.72203511326992
 20
134.7483616100048
  0
MTEXT
  5
475
330
1F
100
AcDbEntity
  8
0
100
AcDbMText
 10
111.0324985010006
 20
81.16157983384727
 30
0.0
 40
2.339449156700929
 41
18.96420977881478
 71
     1
 72
     5
  1
{\fTimes New Roman|b0|i0|c0|p18;24VDC OUT}
 11
0.0000000000000001
 21
1.0
 31
0.0
 73
     1
 44
1.0
1001
ACAD
1000
MTEXTBEGIN
1070
    73
1070
     1
1070
    44
1040
1.0
1070
    74
1070
     0
1000
MTEXTEND
  0
MTEXT
  5
476
330
1F
100
AcDbEntity
  8
0
100
AcDbMText
 10
136.465570173972
 20
81.16157983384727
 30
0.0
 40
2.339449156700929
 41
18.96420977881478
 71
     1
 72
     5
  1
{\fTimes New Roman|b0|i0|c0|p18;24VDC OUT}
 11
0.0000000000000001
 21
1.0
 31
0.0
 73
     1
 44
1.0
1001
ACAD
1000
MTEXTBEGIN
1070
    73
1070
     1
1070
    44
1040
1.0
1070
    74
1070
     0
1000
MTEXTEND
  0
MTEXT
  5
477
330
1F
100
AcDbEntity
  8
0
100
AcDbMText
 10
146.8857193566539
 20
81.16157983384727
 30
0.0
 40
2.339449156700929
 41
16.38732070717815
 71
     1
 72
     5
  1
{\fTimes New Roman|b0|i0|c0|p18;UI 06}
 11
0.0000000000000001
 21
1.0
 31
0.0
 73
     1
 44
1.0
1001
ACAD
1000
MTEXTBEGIN
1070
    73
1070
     1
1070
    44
1040
1.0
1070
    74
1070
     0
1000
MTEXTEND
  0
LINE
  5
478
102
{ACAD_REACTORS
330
57C
102
}
330
1F
100
AcDbEntity
  8
0
100
AcDbLine
 10
76.19953453140076
 20
19.3852403296047
 30
0.0
 11
76.19953453140076
 21
14.38524032960459
 31
0.0
  0
LINE
  5
479
330
1F
100
AcDbEntity
  8
0
100
AcDbLine
 10
76.19953453140076
 20
13.38524032960459
 30
0.0
 11
76.19953453140076
 21
-29.61475967039535
 31
0.0
  0
LINE
  5
47A
330
1F
100
AcDbEntity
  8
0
100
AcDbLine
 10
76.19953453140076
 20
-29.61475967039535
 30
0.0
 11
124.8433233086299
 21
-29.61475967039535
 31
0.0
  0
LINE
  5
47B
330
1F
100
AcDbEntity
  8
0
100
AcDbLine
 10
146.0557457524472
 20
-29.61475967039535
 30
0.0
 11
194.6995345296763
 21
-29.61475967039535
 31
0.0
  0
LINE
  5
47C
102
{ACAD_REACTORS
330
57C
102
}
330
1F
100
AcDbEntity
  8
0
100
AcDbLine
 10
194.6995345296763
 20
-29.61475967039535
 30
0.0
 11
194.6995345296763
 21
19.3852403296047
 31
0.0
  0
LINE
  5
47D
102
{ACAD_REACTORS
330
57F
102
}
330
1F
100
AcDbEntity
  8
0
100
AcDbLine
 10
193.6995345296764
 20
20.38524032960459
 30
0.0
 11
77.19953453140087
 21
20.38524032960459
 31
0.0
  0
LINE
  5
47E
330
1F
100
AcDbEntity
  8
0
100
AcDbLine
 10
76.19953453140076
 20
14.38524032960459
 30
0.0
 11
194.6995345296763
 21
14.38524032960459
 31
0.0
  0
LINE
  5
47F
330
1F
100
AcDbEntity
  8
0
100
AcDbLine
 10
76.19953453140076
 20
-5.614759670395407
 30
0.0
 11
194.6995345296763
 21
-5.614759670395407
 31
0.0
  0
LINE
  5
480
330
1F
100
AcDbEntity
  8
0
100
AcDbLine
 10
76.19953453140076
 20
-5.614759670395407
 30
0.0
 11
76.19953453140076
 21
-25.61475967039535
 31
0.0
  0
LINE
  5
481
330
1F
100
AcDbEntity
  8
0
100
AcDbLine
 10
76.19953453140076
 20
-25.61475967039535
 30
0.0
 11
194.6995345296763
 21
-25.61475967039535
 31
0.0
  0
LINE
  5
482
330
1F
100
AcDbEntity
  8
0
100
AcDbLine
 10
76.19953453140076
 20
-29.61475967039535
 30
0.0
 11
76.19953453140076
 21
-34.61475967039535
 31
0.0
  0
LINE
  5
483
102
{ACAD_REACTORS
330
57F
102
}
330
1F
100
AcDbEntity
  8
0
100
AcDbLine
 10
76.19953453140076
 20
-34.61475967039535
 30
0.0
 11
194.6995345296763
 21
-34.61475967039535
 31
0.0
  0
LINE
  5
484
330
1F
100
AcDbEntity
  8
0
100
AcDbLine
 10
194.6995345296763
 20
-34.61475967039535
 30
0.0
 11
194.6995345296763
 21
-29.61475967039535
 31
0.0
  0
LINE
  5
485
330
1F
100
AcDbEntity
  8
0
100
AcDbLine
 10
76.19953453140076
 20
14.38524032960459
 30
0.0
 11
86.19953453140075
 21
14.38524032960459
 31
0.0
  0
LINE
  5
486
330
1F
100
AcDbEntity
  8
0
100
AcDbLine
 10
76.19953453140076
 20
14.38524032960459
 30
0.0
 11
81.19953453140075
 21
14.38524032960459
 31
0.0
  0
LINE
  5
487
330
1F
100
AcDbEntity
  8
0
100
AcDbLine
 10
84.44953453053855
 20
14.38524032960459
 30
0.0
 11
84.44953453053855
 21
-5.614759670395407
 31
0.0
  0
LWPOLYLINE
  5
488
330
1F
100
AcDbEntity
  8
0
100
AcDbPolyline
 90
        4
 70
     1
 43
0.0
 10
84.44953453053855
 20
-5.614759670395407
 10
86.44953453053856
 20
-5.614759670395407
 10
86.44953453053856
 20
14.38524032960459
 10
84.44953453053855
 20
14.38524032960459
  0
LWPOLYLINE
  5
489
330
1F
100
AcDbEntity
  8
0
100
AcDbPolyline
 90
        4
 70
     1
 43
0.0
 10
86.44953453053856
 20
-5.614759670395407
 10
88.44953453053856
 20
-5.614759670395407
 10
88.44953453053856
 20
14.38524032960459
 10
86.44953453053856
 20
14.38524032960459
  0
LWPOLYLINE
  5
48A
330
1F
100
AcDbEntity
  8
0
100
AcDbPolyline
 90
        4
 70
     1
 43
0.0
 10
88.44953453053856
 20
-5.614759670395407
 10
90.44953453053855
 20
-5.614759670395407
 10
90.44953453053855
 20
14.38524032960459
 10
88.44953453053856
 20
14.38524032960459
  0
LWPOLYLINE
  5
48B
330
1F
100
AcDbEntity
  8
0
100
AcDbPolyline
 90
        4
 70
     1
 43
0.0
 10
90.44953453053855
 20
-5.614759670395407
 10
92.44953453053856
 20
-5.614759670395407
 10
92.44953453053856
 20
14.38524032960459
 10
90.44953453053855
 20
14.38524032960459
  0
LWPOLYLINE
  5
48C
330
1F
100
AcDbEntity
  8
0
100
AcDbPolyline
 90
        4
 70
     1
 43
0.0
 10
92.44953453053856
 20
-5.614759670395407
 10
94.44953453053855
 20
-5.614759670395407
 10
94.44953453053855
 20
14.38524032960459
 10
92.44953453053856
 20
14.38524032960459
  0
LWPOLYLINE
  5
48D
330
1F
100
AcDbEntity
  8
0
100
AcDbPolyline
 90
        4
 70
     1
 43
0.0
 10
94.44953453053855
 20
-5.614759670395407
 10
96.44953453053856
 20
-5.614759670395407
 10
96.44953453053856
 20
14.38524032960459
 10
94.44953453053855
 20
14.38524032960459
  0
LWPOLYLINE
  5
48E
330
1F
100
AcDbEntity
  8
0
100
AcDbPolyline
 90
        4
 70
     1
 43
0.0
 10
96.44953453053856
 20
-5.614759670395407
 10
98.44953453053856
 20
-5.614759670395407
 10
98.44953453053856
 20
14.38524032960459
 10
96.44953453053856
 20
14.38524032960459
  0
LWPOLYLINE
  5
48F
330
1F
100
AcDbEntity
  8
0
100
AcDbPolyline
 90
        4
 70
     1
 43
0.0
 10
98.44953453053856
 20
-5.614759670395407
 10
100.4495345305385
 20
-5.614759670395407
 10
100.4495345305385
 20
14.38524032960459
 10
98.44953453053856
 20
14.38524032960459
  0
LWPOLYLINE
  5
490
330
1F
100
AcDbEntity
  8
0
100
AcDbPolyline
 90
        4
 70
     1
 43
0.0
 10
100.4495345305385
 20
-5.614759670395407
 10
102.4495345305385
 20
-5.614759670395407
 10
102.4495345305385
 20
14.38524032960459
 10
100.4495345305385
 20
14.38524032960459
  0
LWPOLYLINE
  5
491
330
1F
100
AcDbEntity
  8
0
100
AcDbPolyline
 90
        4
 70
     1
 43
0.0
 10
102.4495345305385
 20
-5.614759670395407
 10
104.4495345305385
 20
-5.614759670395407
 10
104.4495345305385
 20
14.38524032960459
 10
102.4495345305385
 20
14.38524032960459
  0
LWPOLYLINE
  5
492
330
1F
100
AcDbEntity
  8
0
100
AcDbPolyline
 90
        4
 70
     1
 43
0.0
 10
104.4495345305385
 20
-5.614759670395407
 10
106.4495345305385
 20
-5.614759670395407
 10
106.4495345305385
 20
14.38524032960459
 10
104.4495345305385
 20
14.38524032960459
  0
LWPOLYLINE
  5
493
330
1F
100
AcDbEntity
  8
0
100
AcDbPolyline
 90
        4
 70
     1
 43
0.0
 10
106.4495345305385
 20
-5.614759670395407
 10
108.4495345305385
 20
-5.614759670395407
 10
108.4495345305385
 20
14.38524032960459
 10
106.4495345305385
 20
14.38524032960459
  0
LWPOLYLINE
  5
494
330
1F
100
AcDbEntity
  8
0
100
AcDbPolyline
 90
        4
 70
     1
 43
0.0
 10
108.4495345305385
 20
-5.614759670395407
 10
110.4495345305385
 20
-5.614759670395407
 10
110.4495345305385
 20
14.38524032960459
 10
108.4495345305385
 20
14.38524032960459
  0
LWPOLYLINE
  5
495
330
1F
100
AcDbEntity
  8
0
100
AcDbPolyline
 90
        4
 70
     1
 43
0.0
 10
110.4495345305385
 20
-5.614759670395407
 10
112.4495345305385
 20
-5.614759670395407
 10
112.4495345305385
 20
14.38524032960459
 10
110.4495345305385
 20
14.38524032960459
  0
LWPOLYLINE
  5
496
330
1F
100
AcDbEntity
  8
0
100
AcDbPolyline
 90
        4
 70
     1
 43
0.0
 10
112.4495345305385
 20
-5.614759670395407
 10
114.4495345305385
 20
-5.614759670395407
 10
114.4495345305385
 20
14.38524032960459
 10
112.4495345305385
 20
14.38524032960459
  0
LWPOLYLINE
  5
497
330
1F
100
AcDbEntity
  8
0
100
AcDbPolyline
 90
        4
 70
     1
 43
0.0
 10
114.4495345305385
 20
-5.614759670395407
 10
116.4495345305385
 20
-5.614759670395407
 10
116.4495345305385
 20
14.38524032960459
 10
114.4495345305385
 20
14.38524032960459
  0
LWPOLYLINE
  5
498
330
1F
100
AcDbEntity
  8
0
100
AcDbPolyline
 90
        4
 70
     1
 43
0.0
 10
116.4495345305385
 20
-5.614759670395407
 10
118.4495345305385
 20
-5.614759670395407
 10
118.4495345305385
 20
14.38524032960459
 10
116.4495345305385
 20
14.38524032960459
  0
LWPOLYLINE
  5
499
330
1F
100
AcDbEntity
  8
0
100
AcDbPolyline
 90
        4
 70
     1
 43
0.0
 10
118.4495345305385
 20
-5.614759670395407
 10
120.4495345305385
 20
-5.614759670395407
 10
120.4495345305385
 20
14.38524032960459
 10
118.4495345305385
 20
14.38524032960459
  0
LWPOLYLINE
  5
49A
330
1F
100
AcDbEntity
  8
0
100
AcDbPolyline
 90
        4
 70
     1
 43
0.0
 10
120.4495345305385
 20
-5.614759670395407
 10
122.4495345305385
 20
-5.614759670395407
 10
122.4495345305385
 20
14.38524032960459
 10
120.4495345305385
 20
14.38524032960459
  0
LWPOLYLINE
  5
49B
330
1F
100
AcDbEntity
  8
0
100
AcDbPolyline
 90
        4
 70
     1
 43
0.0
 10
122.4495345305385
 20
-5.614759670395407
 10
124.4495345305385
 20
-5.614759670395407
 10
124.4495345305385
 20
14.38524032960459
 10
122.4495345305385
 20
14.38524032960459
  0
LWPOLYLINE
  5
49C
330
1F
100
AcDbEntity
  8
0
100
AcDbPolyline
 90
        4
 70
     1
 43
0.0
 10
124.4495345305385
 20
-5.614759670395407
 10
126.4495345305385
 20
-5.614759670395407
 10
126.4495345305385
 20
14.38524032960459
 10
124.4495345305385
 20
14.38524032960459
  0
LWPOLYLINE
  5
49D
330
1F
100
AcDbEntity
  8
0
100
AcDbPolyline
 90
        4
 70
     1
 43
0.0
 10
126.4495345305385
 20
-5.614759670395407
 10
128.4495345305385
 20
-5.614759670395407
 10
128.4495345305385
 20
14.38524032960459
 10
126.4495345305385
 20
14.38524032960459
  0
LWPOLYLINE
  5
49E
330
1F
100
AcDbEntity
  8
0
100
AcDbPolyline
 90
        4
 70
     1
 43
0.0
 10
128.4495345305385
 20
-5.614759670395407
 10
130.4495345305385
 20
-5.614759670395407
 10
130.4495345305385
 20
14.38524032960459
 10
128.4495345305385
 20
14.38524032960459
  0
LWPOLYLINE
  5
49F
330
1F
100
AcDbEntity
  8
0
100
AcDbPolyline
 90
        4
 70
     1
 43
0.0
 10
130.4495345305385
 20
-5.614759670395407
 10
132.4495345305385
 20
-5.614759670395407
 10
132.4495345305385
 20
14.38524032960459
 10
130.4495345305385
 20
14.38524032960459
  0
LWPOLYLINE
  5
4A0
330
1F
100
AcDbEntity
  8
0
100
AcDbPolyline
 90
        4
 70
     1
 43
0.0
 10
132.4495345305385
 20
-5.614759670395407
 10
134.4495345305385
 20
-5.614759670395407
 10
134.4495345305385
 20
14.38524032960459
 10
132.4495345305385
 20
14.38524032960459
  0
LWPOLYLINE
  5
4A1
330
1F
100
AcDbEntity
  8
0
100
AcDbPolyline
 90
        4
 70
     1
 43
0.0
 10
134.4495345305385
 20
-5.614759670395407
 10
136.4495345305385
 20
-5.614759670395407
 10
136.4495345305385
 20
14.38524032960459
 10
134.4495345305385
 20
14.38524032960459
  0
LWPOLYLINE
  5
4A2
330
1F
100
AcDbEntity
  8
0
100
AcDbPolyline
 90
        4
 70
     1
 43
0.0
 10
136.4495345305385
 20
-5.614759670395407
 10
138.4495345305385
 20
-5.614759670395407
 10
138.4495345305385
 20
14.38524032960459
 10
136.4495345305385
 20
14.38524032960459
  0
LWPOLYLINE
  5
4A3
330
1F
100
AcDbEntity
  8
0
100
AcDbPolyline
 90
        4
 70
     1
 43
0.0
 10
138.4495345305385
 20
-5.614759670395407
 10
140.4495345305385
 20
-5.614759670395407
 10
140.4495345305385
 20
14.38524032960459
 10
138.4495345305385
 20
14.38524032960459
  0
LWPOLYLINE
  5
4A4
330
1F
100
AcDbEntity
  8
0
100
AcDbPolyline
 90
        4
 70
     1
 43
0.0
 10
140.4495345305385
 20
-5.614759670395407
 10
142.4495345305385
 20
-5.614759670395407
 10
142.4495345305385
 20
14.38524032960459
 10
140.4495345305385
 20
14.38524032960459
  0
LWPOLYLINE
  5
4A5
330
1F
100
AcDbEntity
  8
0
100
AcDbPolyline
 90
        4
 70
     1
 43
0.0
 10
142.4495345305385
 20
-5.614759670395407
 10
144.4495345305385
 20
-5.614759670395407
 10
144.4495345305385
 20
14.38524032960459
 10
142.4495345305385
 20
14.38524032960459
  0
LWPOLYLINE
  5
4A6
330
1F
100
AcDbEntity
  8
0
100
AcDbPolyline
 90
        4
 70
     1
 43
0.0
 10
144.4495345305385
 20
-5.614759670395407
 10
146.4495345305385
 20
-5.614759670395407
 10
146.4495345305385
 20
14.38524032960459
 10
144.4495345305385
 20
14.38524032960459
  0
LWPOLYLINE
  5
4A7
330
1F
100
AcDbEntity
  8
0
100
AcDbPolyline
 90
        4
 70
     1
 43
0.0
 10
146.4495345305385
 20
-5.614759670395407
 10
148.4495345305385
 20
-5.614759670395407
 10
148.4495345305385
 20
14.38524032960459
 10
146.4495345305385
 20
14.38524032960459
  0
LWPOLYLINE
  5
4A8
330
1F
100
AcDbEntity
  8
0
100
AcDbPolyline
 90
        4
 70
     1
 43
0.0
 10
148.4495345305385
 20
-5.614759670395407
 10
150.4495345305385
 20
-5.614759670395407
 10
150.4495345305385
 20
14.38524032960459
 10
148.4495345305385
 20
14.38524032960459
  0
LWPOLYLINE
  5
4A9
330
1F
100
AcDbEntity
  8
0
100
AcDbPolyline
 90
        4
 70
     1
 43
0.0
 10
150.4495345305385
 20
-5.614759670395407
 10
152.4495345305385
 20
-5.614759670395407
 10
152.4495345305385
 20
14.38524032960459
 10
150.4495345305385
 20
14.38524032960459
  0
LWPOLYLINE
  5
4AA
330
1F
100
AcDbEntity
  8
0
100
AcDbPolyline
 90
        4
 70
     1
 43
0.0
 10
152.4495345305385
 20
-5.614759670395407
 10
154.4495345305385
 20
-5.614759670395407
 10
154.4495345305385
 20
14.38524032960459
 10
152.4495345305385
 20
14.38524032960459
  0
LWPOLYLINE
  5
4AB
330
1F
100
AcDbEntity
  8
0
100
AcDbPolyline
 90
        4
 70
     1
 43
0.0
 10
154.4495345305385
 20
-5.614759670395407
 10
156.4495345305385
 20
-5.614759670395407
 10
156.4495345305385
 20
14.38524032960459
 10
154.4495345305385
 20
14.38524032960459
  0
LWPOLYLINE
  5
4AC
330
1F
100
AcDbEntity
  8
0
100
AcDbPolyline
 90
        4
 70
     1
 43
0.0
 10
156.4495345305385
 20
-5.614759670395407
 10
158.4495345305385
 20
-5.614759670395407
 10
158.4495345305385
 20
14.38524032960459
 10
156.4495345305385
 20
14.38524032960459
  0
LWPOLYLINE
  5
4AD
330
1F
100
AcDbEntity
  8
0
100
AcDbPolyline
 90
        4
 70
     1
 43
0.0
 10
158.4495345305385
 20
-5.614759670395407
 10
160.4495345305385
 20
-5.614759670395407
 10
160.4495345305385
 20
14.38524032960459
 10
158.4495345305385
 20
14.38524032960459
  0
LWPOLYLINE
  5
4AE
330
1F
100
AcDbEntity
  8
0
100
AcDbPolyline
 90
        4
 70
     1
 43
0.0
 10
160.4495345305385
 20
-5.614759670395407
 10
162.4495345305385
 20
-5.614759670395407
 10
162.4495345305385
 20
14.38524032960459
 10
160.4495345305385
 20
14.38524032960459
  0
LWPOLYLINE
  5
4AF
330
1F
100
AcDbEntity
  8
0
100
AcDbPolyline
 90
        4
 70
     1
 43
0.0
 10
162.4495345305385
 20
-5.614759670395407
 10
164.4495345305385
 20
-5.614759670395407
 10
164.4495345305385
 20
14.38524032960459
 10
162.4495345305385
 20
14.38524032960459
  0
LWPOLYLINE
  5
4B0
330
1F
100
AcDbEntity
  8
0
100
AcDbPolyline
 90
        4
 70
     1
 43
0.0
 10
164.4495345305385
 20
-5.614759670395407
 10
166.4495345305385
 20
-5.614759670395407
 10
166.4495345305385
 20
14.38524032960459
 10
164.4495345305385
 20
14.38524032960459
  0
LWPOLYLINE
  5
4B1
330
1F
100
AcDbEntity
  8
0
100
AcDbPolyline
 90
        4
 70
     1
 43
0.0
 10
166.4495345305385
 20
-5.614759670395407
 10
168.4495345305385
 20
-5.614759670395407
 10
168.4495345305385
 20
14.38524032960459
 10
166.4495345305385
 20
14.38524032960459
  0
LWPOLYLINE
  5
4B2
330
1F
100
AcDbEntity
  8
0
100
AcDbPolyline
 90
        4
 70
     1
 43
0.0
 10
168.4495345305385
 20
-5.614759670395407
 10
170.4495345305385
 20
-5.614759670395407
 10
170.4495345305385
 20
14.38524032960459
 10
168.4495345305385
 20
14.38524032960459
  0
LWPOLYLINE
  5
4B3
330
1F
100
AcDbEntity
  8
0
100
AcDbPolyline
 90
        4
 70
     1
 43
0.0
 10
170.4495345305385
 20
-5.614759670395407
 10
172.4495345305385
 20
-5.614759670395407
 10
172.4495345305385
 20
14.38524032960459
 10
170.4495345305385
 20
14.38524032960459
  0
LWPOLYLINE
  5
4B4
330
1F
100
AcDbEntity
  8
0
100
AcDbPolyline
 90
        4
 70
     1
 43
0.0
 10
172.4495345305385
 20
-5.614759670395407
 10
174.4495345305385
 20
-5.614759670395407
 10
174.4495345305385
 20
14.38524032960459
 10
172.4495345305385
 20
14.38524032960459
  0
LWPOLYLINE
  5
4B5
330
1F
100
AcDbEntity
  8
0
100
AcDbPolyline
 90
        4
 70
     1
 43
0.0
 10
174.4495345305385
 20
-5.614759670395407
 10
176.4495345305385
 20
-5.614759670395407
 10
176.4495345305385
 20
14.38524032960459
 10
174.4495345305385
 20
14.38524032960459
  0
LWPOLYLINE
  5
4B6
330
1F
100
AcDbEntity
  8
0
100
AcDbPolyline
 90
        4
 70
     1
 43
0.0
 10
176.4495345305385
 20
-5.614759670395407
 10
178.4495345305385
 20
-5.614759670395407
 10
178.4495345305385
 20
14.38524032960459
 10
176.4495345305385
 20
14.38524032960459
  0
LWPOLYLINE
  5
4B7
330
1F
100
AcDbEntity
  8
0
100
AcDbPolyline
 90
        4
 70
     1
 43
0.0
 10
178.4495345305385
 20
-5.614759670395407
 10
180.4495345305385
 20
-5.614759670395407
 10
180.4495345305385
 20
14.38524032960459
 10
178.4495345305385
 20
14.38524032960459
  0
LWPOLYLINE
  5
4B8
330
1F
100
AcDbEntity
  8
0
100
AcDbPolyline
 90
        4
 70
     1
 43
0.0
 10
180.4495345305385
 20
-5.614759670395407
 10
182.4495345305385
 20
-5.614759670395407
 10
182.4495345305385
 20
14.38524032960459
 10
180.4495345305385
 20
14.38524032960459
  0
LWPOLYLINE
  5
4B9
330
1F
100
AcDbEntity
  8
0
100
AcDbPolyline
 90
        4
 70
     1
 43
0.0
 10
182.4495345305385
 20
-5.614759670395407
 10
184.4495345305385
 20
-5.614759670395407
 10
184.4495345305385
 20
14.38524032960459
 10
182.4495345305385
 20
14.38524032960459
  0
LWPOLYLINE
  5
4BA
330
1F
100
AcDbEntity
  8
0
100
AcDbPolyline
 90
        4
 70
     1
 43
0.0
 10
184.4495345305385
 20
-5.614759670395407
 10
186.4495345305385
 20
-5.614759670395407
 10
186.4495345305385
 20
14.38524032960459
 10
184.4495345305385
 20
14.38524032960459
  0
LWPOLYLINE
  5
4BB
330
1F
100
AcDbEntity
  8
0
100
AcDbPolyline
 90
        4
 70
     1
 43
0.0
 10
124.8433233086299
 20
-28.67545408305903
 10
146.0557457524472
 20
-28.67545408305903
 10
146.0557457524472
 20
-31.92101448321722
 10
124.8433233086299
 20
-31.92101448321722
  0
LWPOLYLINE
  5
4BC
330
1F
100
AcDbEntity
  8
0
100
AcDbPolyline
 90
        4
 70
     1
 43
0.0
 10
132.3182670326915
 20
-31.92101448321722
 10
138.5261144543781
 20
-31.92101448321722
 10
138.5261144543781
 20
-34.61475967039535
 10
132.3182670326915
 20
-34.61475967039535
  0
LINE
  5
4BD
330
1F
100
AcDbEntity
  8
0
100
AcDbLine
 10
131.8182670326915
 20
-31.92101448321722
 30
0.0
 11
131.8182670326915
 21
-34.61475967039535
 31
0.0
  0
LINE
  5
4BE
330
1F
100
AcDbEntity
  8
0
100
AcDbLine
 10
138.5261144543781
 20
-31.92101448321722
 30
0.0
 11
139.026114454378
 21
-31.92101448321722
 31
0.0
  0
LINE
  5
4BF
330
1F
100
AcDbEntity
  8
0
100
AcDbLine
 10
139.026114454378
 20
-31.92101448321722
 30
0.0
 11
139.026114454378
 21
-34.61475967039535
 31
0.0
  0
LINE
  5
4C0
330
1F
100
AcDbEntity
  8
0
100
AcDbLine
 10
84.44953453053855
 20
-7.614759670395407
 30
0.0
 11
84.44953453053855
 21
-25.61475967039535
 31
0.0
  0
LINE
  5
4C1
330
1F
100
AcDbEntity
  8
0
100
AcDbLine
 10
186.4495345305385
 20
-7.614759670395407
 30
0.0
 11
186.4495345305385
 21
-25.61475967039535
 31
0.0
  0
LINE
  5
4C2
330
1F
100
AcDbEntity
  8
0
100
AcDbLine
 10
186.4495345305385
 20
-7.614759670395407
 30
0.0
 11
84.44953453053855
 21
-7.614759670395407
 31
0.0
  0
LWPOLYLINE
  5
4C3
330
1F
100
AcDbEntity
  8
0
 62
     4
100
AcDbPolyline
 90
        4
 70
     0
 43
0.0
 10
105.4495345305384
 20
-8.901322963420504
 10
85.44953453053844
 20
-8.901322963420504
 10
85.44953453053844
 20
-24.90132296342056
 10
105.4495345305384
 20
-24.90132296342056
  0
LWPOLYLINE
  5
4C4
330
1F
100
AcDbEntity
  8
0
 62
     4
100
AcDbPolyline
 90
        2
 70
     0
 43
0.0
 10
105.4495345305384
 20
-23.40132296342056
 10
105.4495345305384
 20
-16.90132296342056
  0
LINE
  5
4C5
330
1F
100
AcDbEntity
  8
0
 62
     4
100
AcDbLine
 10
95.44953453053844
 20
-23.40132296342056
 30
0.0
 11
95.44953453053844
 21
-16.90132296342056
 31
0.0
  0
LINE
  5
4C6
330
1F
100
AcDbEntity
  8
0
 62
     4
100
AcDbLine
 10
105.4495345305384
 20
-16.90132296342056
 30
0.0
 11
85.44953453053844
 21
-16.90132296342056
 31
0.0
  0
LINE
  5
4C7
330
1F
100
AcDbEntity
  8
0
 62
     4
100
AcDbLine
 10
100.4495345305384
 20
-23.40132296342056
 30
0.0
 11
100.4495345305384
 21
-16.90132296342056
 31
0.0
  0
LINE
  5
4C8
330
1F
100
AcDbEntity
  8
0
 62
     4
100
AcDbLine
 10
90.44953453053844
 20
-23.40132296342056
 30
0.0
 11
90.44953453053844
 21
-16.90132296342056
 31
0.0
  0
LINE
  5
4C9
330
1F
100
AcDbEntity
  8
0
 62
     4
100
AcDbLine
 10
105.4495345305384
 20
-23.40132296342056
 30
0.0
 11
85.44953453053844
 21
-23.40132296342056
 31
0.0
  0
LWPOLYLINE
  5
4CA
330
1F
100
AcDbEntity
  8
0
 62
     4
100
AcDbPolyline
 90
        4
 70
     1
 43
0.0
 10
105.0736350307593
 20
-22.42317475174712
 10
100.8249089196864
 20
-22.42317475174712
 10
100.8249089196864
 20
-17.12863049490254
 10
105.0736350307593
 20
-17.12863049490254
  0
LWPOLYLINE
  5
4CB
330
1F
100
AcDbEntity
  8
0
 62
     4
100
AcDbPolyline
 90
        4
 70
     1
 43
0.0
 10
100.0731099201282
 20
-22.42317475174712
 10
95.82438380905532
 20
-22.42317475174712
 10
95.82438380905532
 20
-17.12863049490254
 10
100.0731099201282
 20
-17.12863049490254
  0
LWPOLYLINE
  5
4CC
330
1F
100
AcDbEntity
  8
0
 62
     4
100
AcDbPolyline
 90
        4
 70
     1
 43
0.0
 10
95.08521158342441
 20
-22.42317475174712
 10
90.83648547235155
 20
-22.42317475174712
 10
90.83648547235155
 20
-17.12863049490254
 10
95.08521158342441
 20
-17.12863049490254
  0
LWPOLYLINE
  5
4CD
330
1F
100
AcDbEntity
  8
0
 62
     4
100
AcDbPolyline
 90
        4
 70
     1
 43
0.0
 10
90.06704418587716
 20
-22.42317475174712
 10
85.8183180748043
 20
-22.42317475174712
 10
85.8183180748043
 20
-17.12863049490254
 10
90.06704418587716
 20
-17.12863049490254
  0
LINE
  5
4CE
330
1F
100
AcDbEntity
  8
0
 62
     0
100
AcDbLine
 10
105.0736350307593
 20
-18.92480498060961
 30
0.0
 11
100.8249089196864
 21
-18.92480498060961
 31
0.0
  0
LINE
  5
4CF
330
1F
100
AcDbEntity
  8
0
 62
     0
100
AcDbLine
 10
100.0731099201282
 20
-18.92480498060961
 30
0.0
 11
95.82438380905532
 21
-18.92480498060961
 31
0.0
  0
LINE
  5
4D0
330
1F
100
AcDbEntity
  8
0
 62
     0
100
AcDbLine
 10
95.08521158342441
 20
-18.92480498060961
 30
0.0
 11
90.83648547235155
 21
-18.92480498060961
 31
0.0
  0
LINE
  5
4D1
330
1F
100
AcDbEntity
  8
0
 62
     0
100
AcDbLine
 10
90.06704418587716
 20
-18.92480498060961
 30
0.0
 11
85.8183180748043
 21
-18.92480498060961
 31
0.0
  0
LINE
  5
4D2
330
1F
100
AcDbEntity
  8
0
 62
     4
100
AcDbLine
 10
105.4495345305384
 20
-9.401322963420504
 30
0.0
 11
85.44953453053844
 21
-9.401322963420504
 31
0.0
  0
LWPOLYLINE
  5
4D3
330
1F
100
AcDbEntity
  8
0
 62
     4
100
AcDbPolyline
 90
        2
 70
     0
 43
0.0
 10
105.4495345305384
 20
-16.90132296342056
 10
105.4495345305384
 20
-23.40132296342056
  0
LWPOLYLINE
  5
4D4
330
1F
100
AcDbEntity
  8
0
 62
     4
100
AcDbPolyline
 90
        2
 70
     0
 43
0.0
 10
105.4495345305384
 20
-24.90132296342056
 10
125.4495345305384
 20
-24.90132296342056
  0
LWPOLYLINE
  5
4D5
330
1F
100
AcDbEntity
  8
0
 62
     4
100
AcDbPolyline
 90
        2
 70
     0
 43
0.0
 10
125.4495345305384
 20
-23.40132296342056
 10
125.4495345305384
 20
-16.90132296342056
  0
LWPOLYLINE
  5
4D6
330
1F
100
AcDbEntity
  8
0
 62
     4
100
AcDbPolyline
 90
        2
 70
     0
 43
0.0
 10
125.4495345305384
 20
-8.901322963420504
 10
105.4495345305384
 20
-8.901322963420504
  0
LINE
  5
4D7
330
1F
100
AcDbEntity
  8
0
 62
     4
100
AcDbLine
 10
115.4495345305385
 20
-23.40132296342056
 30
0.0
 11
115.4495345305384
 21
-16.90132296342056
 31
0.0
  0
LINE
  5
4D8
330
1F
100
AcDbEntity
  8
0
 62
     4
100
AcDbLine
 10
125.4495345305384
 20
-16.90132296342056
 30
0.0
 11
105.4495345305384
 21
-16.90132296342056
 31
0.0
  0
LINE
  5
4D9
330
1F
100
AcDbEntity
  8
0
 62
     4
100
AcDbLine
 10
120.4495345305384
 20
-23.40132296342056
 30
0.0
 11
120.4495345305384
 21
-16.90132296342056
 31
0.0
  0
LINE
  5
4DA
330
1F
100
AcDbEntity
  8
0
 62
     4
100
AcDbLine
 10
110.4495345305384
 20
-23.40132296342056
 30
0.0
 11
110.4495345305384
 21
-16.90132296342056
 31
0.0
  0
LINE
  5
4DB
330
1F
100
AcDbEntity
  8
0
 62
     4
100
AcDbLine
 10
125.4495345305384
 20
-23.40132296342056
 30
0.0
 11
105.4495345305384
 21
-23.40132296342056
 31
0.0
  0
LWPOLYLINE
  5
4DC
330
1F
100
AcDbEntity
  8
0
 62
     4
100
AcDbPolyline
 90
        4
 70
     1
 43
0.0
 10
125.0736350307594
 20
-22.42317475174712
 10
120.8249089196864
 20
-22.42317475174712
 10
120.8249089196864
 20
-17.12863049490254
 10
125.0736350307594
 20
-17.12863049490254
  0
LWPOLYLINE
  5
4DD
330
1F
100
AcDbEntity
  8
0
 62
     4
100
AcDbPolyline
 90
        4
 70
     1
 43
0.0
 10
120.0731099201283
 20
-22.42317475174712
 10
115.8243838090553
 20
-22.42317475174712
 10
115.8243838090553
 20
-17.12863049490254
 10
120.0731099201283
 20
-17.12863049490254
  0
LWPOLYLINE
  5
4DE
330
1F
100
AcDbEntity
  8
0
 62
     4
100
AcDbPolyline
 90
        4
 70
     1
 43
0.0
 10
115.0852115834244
 20
-22.42317475174712
 10
110.8364854723516
 20
-22.42317475174712
 10
110.8364854723516
 20
-17.12863049490254
 10
115.0852115834244
 20
-17.12863049490254
  0
LWPOLYLINE
  5
4DF
330
1F
100
AcDbEntity
  8
0
 62
     4
100
AcDbPolyline
 90
        4
 70
     1
 43
0.0
 10
110.0670441858772
 20
-22.42317475174712
 10
105.8183180748043
 20
-22.42317475174712
 10
105.8183180748043
 20
-17.12863049490254
 10
110.0670441858772
 20
-17.12863049490254
  0
LINE
  5
4E0
330
1F
100
AcDbEntity
  8
0
 62
     0
100
AcDbLine
 10
125.0736350307594
 20
-18.92480498060961
 30
0.0
 11
120.8249089196864
 21
-18.92480498060961
 31
0.0
  0
LINE
  5
4E1
330
1F
100
AcDbEntity
  8
0
 62
     0
100
AcDbLine
 10
120.0731099201283
 20
-18.92480498060961
 30
0.0
 11
115.8243838090553
 21
-18.92480498060961
 31
0.0
  0
LINE
  5
4E2
330
1F
100
AcDbEntity
  8
0
 62
     0
100
AcDbLine
 10
115.0852115834244
 20
-18.92480498060961
 30
0.0
 11
110.8364854723516
 21
-18.92480498060961
 31
0.0
  0
LINE
  5
4E3
330
1F
100
AcDbEntity
  8
0
 62
     0
100
AcDbLine
 10
110.0670441858772
 20
-18.92480498060961
 30
0.0
 11
105.8183180748043
 21
-18.92480498060961
 31
0.0
  0
LINE
  5
4E4
330
1F
100
AcDbEntity
  8
0
 62
     4
100
AcDbLine
 10
125.4495345305384
 20
-9.401322963420504
 30
0.0
 11
105.4495345305384
 21
-9.401322963420504
 31
0.0
  0
LWPOLYLINE
  5
4E5
330
1F
100
AcDbEntity
  8
0
 62
     4
100
AcDbPolyline
 90
        2
 70
     0
 43
0.0
 10
125.4495345305384
 20
-16.90132296342056
 10
125.4495345305384
 20
-23.40132296342056
  0
LWPOLYLINE
  5
4E6
330
1F
100
AcDbEntity
  8
0
 62
     4
100
AcDbPolyline
 90
        2
 70
     0
 43
0.0
 10
125.4495345305384
 20
-24.90132296342056
 10
145.4495345305385
 20
-24.90132296342056
  0
LWPOLYLINE
  5
4E7
330
1F
100
AcDbEntity
  8
0
 62
     4
100
AcDbPolyline
 90
        2
 70
     0
 43
0.0
 10
145.4495345305385
 20
-23.40132296342056
 10
145.4495345305385
 20
-16.90132296342056
  0
LWPOLYLINE
  5
4E8
330
1F
100
AcDbEntity
  8
0
 62
     4
100
AcDbPolyline
 90
        2
 70
     0
 43
0.0
 10
145.4495345305385
 20
-8.901322963420504
 10
125.4495345305384
 20
-8.901322963420504
  0
LINE
  5
4E9
330
1F
100
AcDbEntity
  8
0
 62
     4
100
AcDbLine
 10
135.4495345305385
 20
-24.90132296342056
 30
0.0
 11
135.4495345305385
 21
-8.901322963420504
 31
0.0
  0
LINE
  5
4EA
330
1F
100
AcDbEntity
  8
0
 62
     4
100
AcDbLine
 10
145.4495345305385
 20
-16.90132296342056
 30
0.0
 11
125.4495345305384
 21
-16.90132296342056
 31
0.0
  0
LINE
  5
4EB
330
1F
100
AcDbEntity
  8
0
 62
     4
100
AcDbLine
 10
140.4495345305385
 20
-23.40132296342056
 30
0.0
 11
140.4495345305385
 21
-16.90132296342056
 31
0.0
  0
LINE
  5
4EC
330
1F
100
AcDbEntity
  8
0
 62
     4
100
AcDbLine
 10
130.4495345305385
 20
-23.40132296342056
 30
0.0
 11
130.4495345305385
 21
-16.90132296342056
 31
0.0
  0
LINE
  5
4ED
330
1F
100
AcDbEntity
  8
0
 62
     4
100
AcDbLine
 10
145.4495345305385
 20
-23.40132296342056
 30
0.0
 11
125.4495345305384
 21
-23.40132296342056
 31
0.0
  0
LWPOLYLINE
  5
4EE
330
1F
100
AcDbEntity
  8
0
 62
     4
100
AcDbPolyline
 90
        4
 70
     1
 43
0.0
 10
145.0736350307594
 20
-22.42317475174712
 10
140.8249089196865
 20
-22.42317475174712
 10
140.8249089196865
 20
-17.12863049490254
 10
145.0736350307594
 20
-17.12863049490254
  0
LWPOLYLINE
  5
4EF
330
1F
100
AcDbEntity
  8
0
 62
     4
100
AcDbPolyline
 90
        4
 70
     1
 43
0.0
 10
140.0731099201283
 20
-22.42317475174712
 10
135.8243838090554
 20
-22.42317475174712
 10
135.8243838090554
 20
-17.12863049490254
 10
140.0731099201283
 20
-17.12863049490254
  0
LWPOLYLINE
  5
4F0
330
1F
100
AcDbEntity
  8
0
 62
     4
100
AcDbPolyline
 90
        4
 70
     1
 43
0.0
 10
135.0852115834245
 20
-22.42317475174712
 10
130.8364854723516
 20
-22.42317475174712
 10
130.8364854723516
 20
-17.12863049490254
 10
135.0852115834245
 20
-17.12863049490254
  0
LWPOLYLINE
  5
4F1
330
1F
100
AcDbEntity
  8
0
 62
     4
100
AcDbPolyline
 90
        4
 70
     1
 43
0.0
 10
130.0670441858773
 20
-22.42317475174712
 10
125.8183180748043
 20
-22.42317475174712
 10
125.8183180748043
 20
-17.12863049490254
 10
130.0670441858773
 20
-17.12863049490254
  0
LINE
  5
4F2
330
1F
100
AcDbEntity
  8
0
 62
     0
100
AcDbLine
 10
145.0736350307594
 20
-18.92480498060961
 30
0.0
 11
140.8249089196865
 21
-18.92480498060961
 31
0.0
  0
LINE
  5
4F3
330
1F
100
AcDbEntity
  8
0
 62
     0
100
AcDbLine
 10
140.0731099201283
 20
-18.92480498060961
 30
0.0
 11
135.8243838090554
 21
-18.92480498060961
 31
0.0
  0
LINE
  5
4F4
330
1F
100
AcDbEntity
  8
0
 62
     0
100
AcDbLine
 10
135.0852115834245
 20
-18.92480498060961
 30
0.0
 11
130.8364854723516
 21
-18.92480498060961
 31
0.0
  0
LINE
  5
4F5
330
1F
100
AcDbEntity
  8
0
 62
     0
100
AcDbLine
 10
130.0670441858773
 20
-18.92480498060961
 30
0.0
 11
125.8183180748043
 21
-18.92480498060961
 31
0.0
  0
LINE
  5
4F6
330
1F
100
AcDbEntity
  8
0
 62
     4
100
AcDbLine
 10
145.4495345305385
 20
-9.401322963420504
 30
0.0
 11
125.4495345305384
 21
-9.401322963420504
 31
0.0
  0
LWPOLYLINE
  5
4F7
330
1F
100
AcDbEntity
  8
0
 62
     4
100
AcDbPolyline
 90
        2
 70
     0
 43
0.0
 10
145.4495345305385
 20
-16.90132296342056
 10
145.4495345305385
 20
-23.40132296342056
  0
LWPOLYLINE
  5
4F8
330
1F
100
AcDbEntity
  8
0
 62
     4
100
AcDbPolyline
 90
        2
 70
     0
 43
0.0
 10
145.4495345305385
 20
-24.90132296342056
 10
165.4495345305386
 20
-24.90132296342056
  0
LWPOLYLINE
  5
4F9
330
1F
100
AcDbEntity
  8
0
 62
     4
100
AcDbPolyline
 90
        2
 70
     0
 43
0.0
 10
165.4495345305386
 20
-23.40132296342056
 10
165.4495345305386
 20
-16.90132296342056
  0
LWPOLYLINE
  5
4FA
330
1F
100
AcDbEntity
  8
0
 62
     4
100
AcDbPolyline
 90
        2
 70
     0
 43
0.0
 10
165.4495345305386
 20
-8.901322963420504
 10
145.4495345305385
 20
-8.901322963420504
  0
LINE
  5
4FB
330
1F
100
AcDbEntity
  8
0
 62
     4
100
AcDbLine
 10
155.4495345305386
 20
-23.40132296342056
 30
0.0
 11
155.4495345305386
 21
-16.90132296342056
 31
0.0
  0
LINE
  5
4FC
330
1F
100
AcDbEntity
  8
0
 62
     4
100
AcDbLine
 10
165.4495345305386
 20
-16.90132296342056
 30
0.0
 11
145.4495345305385
 21
-16.90132296342056
 31
0.0
  0
LINE
  5
4FD
330
1F
100
AcDbEntity
  8
0
 62
     4
100
AcDbLine
 10
160.4495345305386
 20
-23.40132296342056
 30
0.0
 11
160.4495345305386
 21
-16.90132296342056
 31
0.0
  0
LINE
  5
4FE
330
1F
100
AcDbEntity
  8
0
 62
     4
100
AcDbLine
 10
150.4495345305386
 20
-23.40132296342056
 30
0.0
 11
150.4495345305386
 21
-16.90132296342056
 31
0.0
  0
LINE
  5
4FF
330
1F
100
AcDbEntity
  8
0
 62
     4
100
AcDbLine
 10
165.4495345305386
 20
-23.40132296342056
 30
0.0
 11
145.4495345305385
 21
-23.40132296342056
 31
0.0
  0
LWPOLYLINE
  5
500
330
1F
100
AcDbEntity
  8
0
 62
     4
100
AcDbPolyline
 90
        4
 70
     1
 43
0.0
 10
165.0736350307594
 20
-22.42317475174712
 10
160.8249089196866
 20
-22.42317475174712
 10
160.8249089196866
 20
-17.12863049490254
 10
165.0736350307594
 20
-17.12863049490254
  0
LWPOLYLINE
  5
501
330
1F
100
AcDbEntity
  8
0
 62
     4
100
AcDbPolyline
 90
        4
 70
     1
 43
0.0
 10
160.0731099201283
 20
-22.42317475174712
 10
155.8243838090555
 20
-22.42317475174712
 10
155.8243838090555
 20
-17.12863049490254
 10
160.0731099201283
 20
-17.12863049490254
  0
LWPOLYLINE
  5
502
330
1F
100
AcDbEntity
  8
0
 62
     4
100
AcDbPolyline
 90
        4
 70
     1
 43
0.0
 10
155.0852115834246
 20
-22.42317475174712
 10
150.8364854723516
 20
-22.42317475174712
 10
150.8364854723516
 20
-17.12863049490254
 10
155.0852115834246
 20
-17.12863049490254
  0
LWPOLYLINE
  5
503
330
1F
100
AcDbEntity
  8
0
 62
     4
100
AcDbPolyline
 90
        4
 70
     1
 43
0.0
 10
150.0670441858773
 20
-22.42317475174712
 10
145.8183180748044
 20
-22.42317475174712
 10
145.8183180748044
 20
-17.12863049490254
 10
150.0670441858773
 20
-17.12863049490254
  0
LINE
  5
504
330
1F
100
AcDbEntity
  8
0
 62
     0
100
AcDbLine
 10
165.0736350307594
 20
-18.92480498060961
 30
0.0
 11
160.8249089196866
 21
-18.92480498060961
 31
0.0
  0
LINE
  5
505
330
1F
100
AcDbEntity
  8
0
 62
     0
100
AcDbLine
 10
160.0731099201283
 20
-18.92480498060961
 30
0.0
 11
155.8243838090555
 21
-18.92480498060961
 31
0.0
  0
LINE
  5
506
330
1F
100
AcDbEntity
  8
0
 62
     0
100
AcDbLine
 10
155.0852115834246
 20
-18.92480498060961
 30
0.0
 11
150.8364854723516
 21
-18.92480498060961
 31
0.0
  0
LINE
  5
507
330
1F
100
AcDbEntity
  8
0
 62
     0
100
AcDbLine
 10
150.0670441858773
 20
-18.92480498060961
 30
0.0
 11
145.8183180748044
 21
-18.92480498060961
 31
0.0
  0
LINE
  5
508
330
1F
100
AcDbEntity
  8
0
 62
     4
100
AcDbLine
 10
165.4495345305386
 20
-9.401322963420504
 30
0.0
 11
145.4495345305385
 21
-9.401322963420504
 31
0.0
  0
LWPOLYLINE
  5
509
330
1F
100
AcDbEntity
  8
0
 62
     4
100
AcDbPolyline
 90
        2
 70
     0
 43
0.0
 10
165.4495345305386
 20
-16.90132296342056
 10
165.4495345305386
 20
-23.40132296342056
  0
LWPOLYLINE
  5
50A
330
1F
100
AcDbEntity
  8
0
 62
     4
100
AcDbPolyline
 90
        4
 70
     0
 43
0.0
 10
165.4495345305386
 20
-24.90132296342056
 10
185.4495345305386
 20
-24.90132296342056
 10
185.4495345305386
 20
-8.901322963420504
 10
165.4495345305386
 20
-8.901322963420504
  0
LINE
  5
50B
330
1F
100
AcDbEntity
  8
0
 62
     4
100
AcDbLine
 10
175.4495345305386
 20
-23.40132296342056
 30
0.0
 11
175.4495345305386
 21
-16.90132296342056
 31
0.0
  0
LINE
  5
50C
330
1F
100
AcDbEntity
  8
0
 62
     4
100
AcDbLine
 10
185.4495345305386
 20
-16.90132296342056
 30
0.0
 11
165.4495345305386
 21
-16.90132296342056
 31
0.0
  0
LINE
  5
50D
330
1F
100
AcDbEntity
  8
0
 62
     4
100
AcDbLine
 10
180.4495345305386
 20
-23.40132296342056
 30
0.0
 11
180.4495345305386
 21
-16.90132296342056
 31
0.0
  0
LINE
  5
50E
330
1F
100
AcDbEntity
  8
0
 62
     4
100
AcDbLine
 10
185.4495345305386
 20
-24.90132296342056
 30
0.0
 11
185.4495345305386
 21
-23.40132296342056
 31
0.0
  0
LINE
  5
50F
330
1F
100
AcDbEntity
  8
0
 62
     4
100
AcDbLine
 10
170.4495345305387
 20
-23.40132296342056
 30
0.0
 11
170.4495345305387
 21
-16.90132296342056
 31
0.0
  0
LINE
  5
510
330
1F
100
AcDbEntity
  8
0
 62
     4
100
AcDbLine
 10
185.4495345305386
 20
-23.40132296342056
 30
0.0
 11
165.4495345305386
 21
-23.40132296342056
 31
0.0
  0
LWPOLYLINE
  5
511
330
1F
100
AcDbEntity
  8
0
 62
     4
100
AcDbPolyline
 90
        4
 70
     1
 43
0.0
 10
185.0736350307595
 20
-22.42317475174712
 10
180.8249089196866
 20
-22.42317475174712
 10
180.8249089196866
 20
-17.12863049490254
 10
185.0736350307595
 20
-17.12863049490254
  0
LWPOLYLINE
  5
512
330
1F
100
AcDbEntity
  8
0
 62
     4
100
AcDbPolyline
 90
        4
 70
     1
 43
0.0
 10
180.0731099201284
 20
-22.42317475174712
 10
175.8243838090555
 20
-22.42317475174712
 10
175.8243838090555
 20
-17.12863049490254
 10
180.0731099201284
 20
-17.12863049490254
  0
LWPOLYLINE
  5
513
330
1F
100
AcDbEntity
  8
0
 62
     4
100
AcDbPolyline
 90
        4
 70
     1
 43
0.0
 10
175.0852115834246
 20
-22.42317475174712
 10
170.8364854723518
 20
-22.42317475174712
 10
170.8364854723518
 20
-17.12863049490254
 10
175.0852115834246
 20
-17.12863049490254
  0
LWPOLYLINE
  5
514
330
1F
100
AcDbEntity
  8
0
 62
     4
100
AcDbPolyline
 90
        4
 70
     1
 43
0.0
 10
170.0670441858774
 20
-22.42317475174712
 10
165.8183180748045
 20
-22.42317475174712
 10
165.8183180748045
 20
-17.12863049490254
 10
170.0670441858774
 20
-17.12863049490254
  0
LINE
  5
515
330
1F
100
AcDbEntity
  8
0
 62
     0
100
AcDbLine
 10
185.0736350307595
 20
-18.92480498060961
 30
0.0
 11
180.8249089196866
 21
-18.92480498060961
 31
0.0
  0
LINE
  5
516
330
1F
100
AcDbEntity
  8
0
 62
     0
100
AcDbLine
 10
180.0731099201284
 20
-18.92480498060961
 30
0.0
 11
175.8243838090555
 21
-18.92480498060961
 31
0.0
  0
LINE
  5
517
330
1F
100
AcDbEntity
  8
0
 62
     0
100
AcDbLine
 10
175.0852115834246
 20
-18.92480498060961
 30
0.0
 11
170.8364854723518
 21
-18.92480498060961
 31
0.0
  0
LINE
  5
518
330
1F
100
AcDbEntity
  8
0
 62
     0
100
AcDbLine
 10
170.0670441858774
 20
-18.92480498060961
 30
0.0
 11
165.8183180748045
 21
-18.92480498060961
 31
0.0
  0
LINE
  5
519
330
1F
100
AcDbEntity
  8
0
 62
     4
100
AcDbLine
 10
185.4495345305386
 20
-8.901322963420504
 30
0.0
 11
185.4495345305386
 21
-9.401322963420504
 31
0.0
  0
LINE
  5
51A
330
1F
100
AcDbEntity
  8
0
 62
     4
100
AcDbLine
 10
185.4495345305386
 20
-9.401322963420504
 30
0.0
 11
165.4495345305386
 21
-9.401322963420504
 31
0.0
  0
ARC
  5
51B
102
{ACAD_REACTORS
330
57C
102
}
330
1F
100
AcDbEntity
  8
0
100
AcDbCircle
 10
77.47986461729041
 20
19.10491024371493
 30
0.0
 40
1.310660171779521
100
AcDbArc
 50
102.3501001262046
 51
167.6498998737987
  0
ARC
  5
51C
330
1F
100
AcDbEntity
  8
0
100
AcDbCircle
 10
77.47986461729041
 20
13.10491024371493
 30
0.0
 40
1.310660171779521
100
AcDbArc
 50
102.3501001262046
 51
167.6498998737987
  0
LINE
  5
51D
330
1F
100
AcDbEntity
  8
0
100
AcDbLine
 10
76.19953453140076
 20
14.38524032960459
 30
0.0
 11
76.19953453140076
 21
13.38524032960459
 31
0.0
  0
ARC
  5
51E
330
1F
100
AcDbEntity
  8
0
100
AcDbCircle
 10
77.47986461729041
 20
-6.895089756285067
 30
0.0
 40
1.310660171779521
100
AcDbArc
 50
102.3501001262046
 51
167.6498998737987
  0
ARC
  5
51F
102
{ACAD_REACTORS
330
57C
102
}
330
1F
100
AcDbEntity
  8
0
100
AcDbCircle
 10
193.4248799603823
 20
19.11058576031053
 30
0.0
 40
1.303909277310461
100
AcDbArc
 50
12.15982091124277
 51
77.84017908875684
  0
ARC
  5
520
330
1F
100
AcDbEntity
  8
0
100
AcDbCircle
 10
193.4248799603823
 20
13.11058576031053
 30
0.0
 40
1.303909277310461
100
AcDbArc
 50
12.15982091124277
 51
77.84017908875684
  0
ARC
  5
521
330
1F
100
AcDbEntity
  8
0
100
AcDbCircle
 10
193.4248799603823
 20
-6.889414239689465
 30
0.0
 40
1.303909277310461
100
AcDbArc
 50
12.15982091124277
 51
77.84017908875684
  0
LINE
  5
522
330
1F
100
AcDbEntity
  8
0
100
AcDbLine
 10
232.0881134245972
 20
-34.61475967039535
 30
0.0
 11
264.7910127072379
 21
-34.61475967039535
 31
0.0
  0
LINE
  5
523
330
1F
100
AcDbEntity
  8
0
100
AcDbLine
 10
294.7563090568829
 20
-34.61475967039535
 30
0.0
 11
332.0881134245972
 21
-34.61475967039535
 31
0.0
  0
LINE
  5
524
102
{ACAD_REACTORS
330
585
102
}
330
1F
100
AcDbEntity
  8
0
100
AcDbLine
 10
332.0881134245972
 20
-34.61475967039535
 30
0.0
 11
332.0881134245972
 21
-6.614759670395407
 31
0.0
  0
LINE
  5
525
330
1F
100
AcDbEntity
  8
0
100
AcDbLine
 10
232.0881134245972
 20
-6.614759670395407
 30
0.0
 11
232.0881134245972
 21
-34.61475967039535
 31
0.0
  0
LINE
  5
526
330
1F
100
AcDbEntity
  8
0
100
AcDbLine
 10
232.0881134245972
 20
-29.61475967039535
 30
0.0
 11
332.0881134245972
 21
-29.61475967039535
 31
0.0
  0
LINE
  5
527
330
1F
100
AcDbEntity
  8
0
100
AcDbLine
 10
232.0881134245972
 20
-25.61475967039535
 30
0.0
 11
332.0881134245972
 21
-25.61475967039535
 31
0.0
  0
LINE
  5
528
330
1F
100
AcDbEntity
  8
0
100
AcDbLine
 10
302.0881134245972
 20
-29.61475967039535
 30
0.0
 11
282.0881134245973
 21
-29.61475967039535
 31
0.0
  0
LINE
  5
529
330
1F
100
AcDbEntity
  8
0
100
AcDbLine
 10
262.0881134245973
 20
-29.61475967039535
 30
0.0
 11
262.0881134245973
 21
-34.61475967039535
 31
0.0
  0
LINE
  5
52A
330
1F
100
AcDbEntity
  8
0
100
AcDbLine
 10
302.0881134245972
 20
-29.61475967039535
 30
0.0
 11
302.0881134245972
 21
-34.61475967039535
 31
0.0
  0
LINE
  5
52B
330
1F
100
AcDbEntity
  8
0
100
AcDbLine
 10
302.0881134245972
 20
-31.56934546649239
 30
0.0
 11
294.7563090568829
 21
-33.09205256844387
 31
0.0
  0
LINE
  5
52C
330
1F
100
AcDbEntity
  8
0
100
AcDbLine
 10
294.7563090568829
 20
-33.09205256844387
 30
0.0
 11
294.7563090568829
 21
-34.61475967039535
 31
0.0
  0
LINE
  5
52D
330
1F
100
AcDbEntity
  8
0
100
AcDbLine
 10
262.0881134245973
 20
-34.61475967039535
 30
0.0
 11
264.7910127072378
 21
-34.61475967039535
 31
0.0
  0
LINE
  5
52E
330
1F
100
AcDbEntity
  8
0
100
AcDbLine
 10
264.7910127072379
 20
-34.61475967039535
 30
0.0
 11
269.3881134245972
 21
-32.11475967039535
 31
0.0
  0
LINE
  5
52F
330
1F
100
AcDbEntity
  8
0
100
AcDbLine
 10
269.3881134245972
 20
-32.11475967039535
 30
0.0
 11
269.3881134245972
 21
-31.49692062241427
 31
0.0
  0
LINE
  5
530
330
1F
100
AcDbEntity
  8
0
100
AcDbLine
 10
268.5086243875364
 20
-30.87908157443319
 30
0.0
 11
262.0881134245973
 21
-30.87908157443319
 31
0.0
  0
LINE
  5
531
330
1F
100
AcDbEntity
  8
0
100
AcDbLine
 10
269.3881134245972
 20
-31.49692062241427
 30
0.0
 11
268.5086243875363
 21
-30.87908157443319
 31
0.0
  0
LWPOLYLINE
  5
532
330
1F
100
AcDbEntity
  8
0
100
AcDbPolyline
 90
        4
 70
     1
 43
0.0
 10
277.7430625012511
 20
-23.96443334273698
 10
286.1130518039187
 20
-23.96443334273698
 10
286.1130518039187
 20
-19.63279383672619
 10
277.7430625012511
 20
-19.63279383672619
  0
LINE
  5
533
330
1F
100
AcDbEntity
  8
0
100
AcDbLine
 10
277.7430625012511
 20
-20.53152627897378
 30
0.0
 11
286.1130518039187
 21
-20.53152627897378
 31
0.0
  0
LINE
  5
534
330
1F
100
AcDbEntity
  8
0
100
AcDbLine
 10
232.0881134245972
 20
-25.61475967039535
 30
0.0
 11
232.0881134245972
 21
-6.614759670395407
 31
0.0
  0
LINE
  5
535
330
1F
100
AcDbEntity
  8
0
100
AcDbLine
 10
233.0881134245974
 20
-5.614759670395407
 30
0.0
 11
245.0881134245972
 21
-5.614759670395407
 31
0.0
  0
LINE
  5
536
330
1F
100
AcDbEntity
  8
0
100
AcDbLine
 10
319.0881134245972
 20
-5.614759670395407
 30
0.0
 11
331.0881134245972
 21
-5.614759670395407
 31
0.0
  0
LINE
  5
537
330
1F
100
AcDbEntity
  8
0
100
AcDbLine
 10
245.0125430008696
 20
14.3852403296047
 30
0.0
 11
253.0881134245972
 21
14.38524032960482
 31
0.0
  0
LINE
  5
538
330
1F
100
AcDbEntity
  8
0
100
AcDbLine
 10
311.0881134245971
 20
14.3852403296047
 30
0.0
 11
319.0881134245971
 21
14.38524032960459
 31
0.0
  0
LINE
  5
539
330
1F
100
AcDbEntity
  8
0
100
AcDbLine
 10
245.0881134245972
 20
-5.614759670395407
 30
0.0
 11
245.0881134245972
 21
13.40415656066978
 31
0.0
  0
LINE
  5
53A
330
1F
100
AcDbEntity
  8
0
100
AcDbLine
 10
331.088113424597
 20
-5.614759670395407
 30
0.0
 11
319.0881134245972
 21
-5.614759670395407
 31
0.0
  0
LINE
  5
53B
330
1F
100
AcDbEntity
  8
0
100
AcDbLine
 10
319.0881134245972
 20
-5.614759670395407
 30
0.0
 11
319.0881134245971
 21
13.38524032960459
 31
0.0
  0
LINE
  5
53C
330
1F
100
AcDbEntity
  8
0
100
AcDbLine
 10
245.0881134245972
 20
14.38524032960459
 30
0.0
 11
253.0881134245972
 21
14.38524032960459
 31
0.0
  0
LINE
  5
53D
330
1F
100
AcDbEntity
  8
0
100
AcDbLine
 10
253.0881134245972
 20
14.38524032960459
 30
0.0
 11
253.0881134245972
 21
19.3852403296047
 31
0.0
  0
LINE
  5
53E
330
1F
100
AcDbEntity
  8
0
100
AcDbLine
 10
319.0881134245972
 20
14.38524032960459
 30
0.0
 11
311.0881134245972
 21
14.38524032960459
 31
0.0
  0
LINE
  5
53F
330
1F
100
AcDbEntity
  8
0
100
AcDbLine
 10
311.0881134245972
 20
14.38524032960459
 30
0.0
 11
311.0881134245972
 21
19.3852403296047
 31
0.0
  0
LINE
  5
540
330
1F
100
AcDbEntity
  8
0
100
AcDbLine
 10
245.0881134245972
 20
14.38524032960459
 30
0.0
 11
245.0125430008694
 21
14.38524032960459
 31
0.0
  0
LINE
  5
541
330
1F
100
AcDbEntity
  8
0
100
AcDbLine
 10
244.0881134245973
 20
13.40415656066978
 30
0.0
 11
244.0881134245973
 21
-5.614759670395407
 31
0.0
  0
LINE
  5
542
330
1F
100
AcDbEntity
  8
0
100
AcDbLine
 10
319.0881134245972
 20
-5.614759670395407
 30
0.0
 11
320.0881134245972
 21
-5.614759670395407
 31
0.0
  0
LINE
  5
543
330
1F
100
AcDbEntity
  8
0
100
AcDbLine
 10
320.0881134245972
 20
-5.614759670395407
 30
0.0
 11
320.0881134245971
 21
13.38524032960448
 31
0.0
  0
LINE
  5
544
330
1F
100
AcDbEntity
  8
0
100
AcDbLine
 10
282.0881134245973
 20
20.38524032960459
 30
0.0
 11
279.5881134245973
 21
20.38524032960459
 31
0.0
  0
LINE
  5
545
330
1F
100
AcDbEntity
  8
0
100
AcDbLine
 10
282.0881134245973
 20
20.38524032960459
 30
0.0
 11
284.5881134245973
 21
20.38524032960459
 31
0.0
  0
LINE
  5
546
330
1F
100
AcDbEntity
  8
0
100
AcDbLine
 10
280.4937473809733
 20
20.38524032960459
 30
0.0
 11
277.4937473809733
 21
20.38524032960459
 31
0.0
  0
LINE
  5
547
330
1F
100
AcDbEntity
  8
0
100
AcDbLine
 10
282.0881134245973
 20
20.38524032960459
 30
0.0
 11
285.0881134245973
 21
20.38524032960459
 31
0.0
  0
LINE
  5
548
330
1F
100
AcDbEntity
  8
0
100
AcDbLine
 10
254.0881134245974
 20
20.38524032960459
 30
0.0
 11
280.4937473809733
 21
20.38524032960459
 31
0.0
  0
LINE
  5
549
330
1F
100
AcDbEntity
  8
0
100
AcDbLine
 10
283.1352964464091
 20
20.38524032960459
 30
0.0
 11
310.0881134245971
 21
20.38524032960459
 31
0.0
  0
ARC
  5
54A
330
1F
100
AcDbEntity
  8
0
100
AcDbCircle
 10
254.3684435104868
 20
19.10491024371493
 30
0.0
 40
1.310660171779521
100
AcDbArc
 50
102.3501001262046
 51
167.6498998737987
  0
ARC
  5
54B
330
1F
100
AcDbEntity
  8
0
100
AcDbCircle
 10
245.3684435104868
 20
13.12382647478012
 30
0.0
 40
1.310660171779521
100
AcDbArc
 50
105.7561011091582
 51
167.6498998737987
  0
ARC
  5
54C
330
1F
100
AcDbEntity
  8
0
100
AcDbCircle
 10
233.3684435104868
 20
-6.895089756285067
 30
0.0
 40
1.310660171779521
100
AcDbArc
 50
102.3501001262046
 51
167.6498998737987
  0
ARC
  5
54D
330
1F
100
AcDbEntity
  8
0
100
AcDbCircle
 10
246.3684435104868
 20
13.12382647478012
 30
0.0
 40
1.310660171779521
100
AcDbArc
 50
105.7561011091582
 51
167.6498998737987
  0
ARC
  5
54E
102
{ACAD_REACTORS
330
585
102
}
330
1F
100
AcDbEntity
  8
0
100
AcDbCircle
 10
309.8134588553032
 20
19.11058576031053
 30
0.0
 40
1.303909277310461
100
AcDbArc
 50
12.15982091124277
 51
77.84017908875684
  0
ARC
  5
54F
330
1F
100
AcDbEntity
  8
0
100
AcDbCircle
 10
318.8134588553031
 20
13.11058576031053
 30
0.0
 40
1.303909277310461
100
AcDbArc
 50
12.15982091124277
 51
77.84017908875684
  0
ARC
  5
550
330
1F
100
AcDbEntity
  8
0
100
AcDbCircle
 10
330.8134588553031
 20
-6.889414239689465
 30
0.0
 40
1.303909277310461
100
AcDbArc
 50
12.15982091124277
 51
77.84017908875684
  0
ARC
  5
551
330
1F
100
AcDbEntity
  8
0
100
AcDbCircle
 10
317.8134588553032
 20
13.11058576031053
 30
0.0
 40
1.303909277310461
100
AcDbArc
 50
12.15982091124277
 51
77.84017908875684
  0
LINE
  5
552
330
1F
100
AcDbEntity
  8
0
100
AcDbLine
 10
232.0881134245972
 20
-24.90132296342056
 30
0.0
 11
332.0881134245972
 21
-24.90132296342056
 31
0.0
  0
LINE
  5
553
330
1F
100
AcDbEntity
  8
0
 62
     4
100
AcDbLine
 10
332.0881134245972
 20
-24.90132296342056
 30
0.0
 11
344.0881134245972
 21
-24.90132296342056
 31
0.0
  0
LINE
  5
554
330
1F
100
AcDbEntity
  8
0
 62
     4
100
AcDbLine
 10
344.0881134245972
 20
-24.90132296342056
 30
0.0
 11
344.0881134245972
 21
-8.901322963420504
 31
0.0
  0
LINE
  5
555
330
1F
100
AcDbEntity
  8
0
 62
     4
100
AcDbLine
 10
344.0881134245972
 20
-8.901322963420504
 30
0.0
 11
337.5881134245972
 21
-8.901322963420504
 31
0.0
  0
LINE
  5
556
330
1F
100
AcDbEntity
  8
0
 62
     4
100
AcDbLine
 10
336.0881134245972
 20
-14.39048782773778
 30
0.0
 11
336.0881134245972
 21
-24.90132296342056
 31
0.0
  0
LINE
  5
557
330
1F
100
AcDbEntity
  8
0
 62
     4
100
AcDbLine
 10
336.0881134245972
 20
-16.90132296342056
 30
0.0
 11
332.0881134245972
 21
-16.90132296342056
 31
0.0
  0
LINE
  5
558
330
1F
100
AcDbEntity
  8
0
 62
     4
100
AcDbLine
 10
337.5881134245972
 20
-8.901322963420504
 30
0.0
 11
336.0881134245972
 21
-14.39048782773778
 31
0.0
  0
LINE
  5
559
330
1F
100
AcDbEntity
  8
0
 62
     4
100
AcDbLine
 10
336.0881134245972
 20
-15.99563133546638
 30
0.0
 11
333.7638363286404
 21
-16.44847714944347
 31
0.0
  0
LINE
  5
55A
330
1F
100
AcDbEntity
  8
0
 62
     4
100
AcDbLine
 10
333.7638363286404
 20
-16.44847714944347
 30
0.0
 11
333.7638363286404
 21
-16.90132296342056
 31
0.0
  0
LINE
  5
55B
102
{ACAD_REACTORS
330
582
102
}
330
1F
100
AcDbEntity
  8
0
 62
     4
100
AcDbLine
 10
344.0881134245972
 20
-8.901322963420504
 30
0.0
 11
343.2881134245972
 21
-8.901322963420504
 31
0.0
  0
LINE
  5
55C
330
1F
100
AcDbEntity
  8
0
 62
     4
100
AcDbLine
 10
232.0881134245972
 20
-24.90132296342056
 30
0.0
 11
220.0881134245972
 21
-24.90132296342056
 31
0.0
  0
LINE
  5
55D
330
1F
100
AcDbEntity
  8
0
 62
     4
100
AcDbLine
 10
220.0881134245972
 20
-24.90132296342056
 30
0.0
 11
220.0881134245972
 21
-8.901322963420504
 31
0.0
  0
LINE
  5
55E
330
1F
100
AcDbEntity
  8
0
 62
     4
100
AcDbLine
 10
220.0881134245972
 20
-8.901322963420504
 30
0.0
 11
226.5881134245971
 21
-8.901322963420504
 31
0.0
  0
LINE
  5
55F
330
1F
100
AcDbEntity
  8
0
 62
     4
100
AcDbLine
 10
220.0881134245972
 20
-24.90132296342056
 30
0.0
 11
228.0881134245972
 21
-24.90132296342056
 31
0.0
  0
LINE
  5
560
330
1F
100
AcDbEntity
  8
0
 62
     4
100
AcDbLine
 10
228.0881134245972
 20
-24.90132296342056
 30
0.0
 11
228.0881134245972
 21
-14.39048782773778
 31
0.0
  0
LINE
  5
561
330
1F
100
AcDbEntity
  8
0
 62
     4
100
AcDbLine
 10
228.0881134245972
 20
-16.90132296342056
 30
0.0
 11
232.0881134245972
 21
-16.90132296342056
 31
0.0
  0
LINE
  5
562
330
1F
100
AcDbEntity
  8
0
 62
     4
100
AcDbLine
 10
232.0881134245972
 20
-16.90132296342056
 30
0.0
 11
230.3881134245972
 21
-16.90132296342056
 31
0.0
  0
LINE
  5
563
330
1F
100
AcDbEntity
  8
0
 62
     4
100
AcDbLine
 10
230.3881134245972
 20
-16.90132296342056
 30
0.0
 11
230.3881134245972
 21
-16.40132296342056
 31
0.0
  0
LINE
  5
564
330
1F
100
AcDbEntity
  8
0
 62
     4
100
AcDbLine
 10
228.0881134245972
 20
-15.99563133546638
 30
0.0
 11
230.3881134245972
 21
-16.40132296342056
 31
0.0
  0
LINE
  5
565
102
{ACAD_REACTORS
330
582
102
}
330
1F
100
AcDbEntity
  8
0
 62
     4
100
AcDbLine
 10
220.0881134245972
 20
-8.901322963420504
 30
0.0
 11
226.5881134245972
 21
-8.901322963420504
 31
0.0
  0
LINE
  5
566
330
1F
100
AcDbEntity
  8
0
 62
     4
100
AcDbLine
 10
226.5881134245972
 20
-8.901322963420504
 30
0.0
 11
228.0881134245972
 21
-14.39048782773778
 31
0.0
  0
LINE
  5
567
330
1F
100
AcDbEntity
  8
0
 62
     4
100
AcDbLine
 10
220.0881134245972
 20
-24.90132296342056
 30
0.0
 11
220.8881134245972
 21
-24.90132296342056
 31
0.0
  0
LWPOLYLINE
  5
568
330
1F
100
AcDbEntity
  8
0
100
AcDbPolyline
 90
        4
 70
     1
 43
0.0
 10
232.0881134245972
 20
-34.61475967039535
 10
228.5078654421121
 20
-34.61475967039535
 10
228.5078654421121
 20
-31.92101448321722
 10
232.0881134245972
 20
-31.92101448321722
  0
LINE
  5
569
330
1F
100
AcDbEntity
  8
0
 62
     4
100
AcDbLine
 10
220.0881134245972
 20
-24.90132296342056
 30
0.0
 11
220.5880051795945
 21
-24.91172648617492
 31
0.0
  0
LINE
  5
56A
330
1F
100
AcDbEntity
  8
0
 62
     4
100
AcDbLine
 10
220.5880051795945
 20
-24.91172648617492
 30
0.0
 11
220.5880051795945
 21
-8.901322963420504
 31
0.0
  0
LINE
  5
56B
330
1F
100
AcDbEntity
  8
0
 62
     4
100
AcDbLine
 10
344.0881134245972
 20
-24.90132296342056
 30
0.0
 11
343.5881134245972
 21
-24.90132296342056
 31
0.0
  0
LINE
  5
56C
330
1F
100
AcDbEntity
  8
0
 62
     4
100
AcDbLine
 10
343.5881134245972
 20
-24.90132296342056
 30
0.0
 11
343.5881134245972
 21
-8.901322963420504
 31
0.0
  0
DIMENSION
  5
56D
102
{ACAD_XDICTIONARY
360
56E
102
}
102
{ACAD_REACTORS
330
56F
102
}
330
1F
100
AcDbEntity
  8
0
370
    40
100
AcDbDimension
  2
*D11
 10
212.6092146303913
 20
81.16157983384727
 30
0.0
 11
204.6092146303912
 21
131.4428298338473
 31
0.0
 70
    32
 71
     5
 42
100.5625
  3
MV
100
AcDbAlignedDimension
 13
194.6995345314007
 23
181.7240798338473
 33
0.0
 14
194.6995345314007
 24
81.16157983384727
 34
0.0
 50
90.0
100
AcDbRotatedDimension
  0
LINE
  5
570
330
1F
100
AcDbEntity
  8
0
370
    40
100
AcDbLine
 10
185.9495345314007
 20
181.6615798338473
 30
0.0
 11
185.9495345314007
 21
180.6615798338473
 31
0.0
  0
DIMENSION
  5
571
102
{ACAD_XDICTIONARY
360
572
102
}
102
{ACAD_REACTORS
330
573
102
}
330
1F
100
AcDbEntity
  8
0
370
    40
100
AcDbDimension
  2
*D12
 10
231.2310342316967
 20
68.91157983384726
 30
0.0
 11
223.2310342316967
 21
131.4115798338473
 31
0.0
 70
    32
 71
     5
 42
125.0
  3
MV
100
AcDbAlignedDimension
 13
185.9495345314007
 23
193.9115798338473
 33
0.0
 14
185.9495345314007
 24
68.91157983384727
 34
0.0
 50
90.0
100
AcDbRotatedDimension
  0
DIMENSION
  5
574
102
{ACAD_XDICTIONARY
360
575
102
}
102
{ACAD_REACTORS
330
576
102
}
330
1F
100
AcDbEntity
  8
0
370
    40
100
AcDbDimension
  2
*D13
 10
185.9495345314007
 20
203.6627745049699
 30
0.0
 11
134.9495345314007
 21
211.6627745049699
 31
0.0
 70
    32
 71
     5
 42
102.0
  3
MV
100
AcDbAlignedDimension
 13
83.94953453140075
 23
193.8530935953152
 33
0.0
 14
185.9495345314007
 24
193.8530935953152
 34
0.0
100
AcDbRotatedDimension
  0
DIMENSION
  5
577
102
{ACAD_XDICTIONARY
360
578
102
}
102
{ACAD_REACTORS
330
579
102
}
330
1F
100
AcDbEntity
  8
0
370
    40
100
AcDbDimension
  2
*D14
 10
194.6995345314007
 20
219.1310505846894
 30
0.0
 11
135.4495345314007
 21
227.1310505846894
 31
0.0
 70
    32
 71
     5
 42
118.5
  3
MV
100
AcDbAlignedDimension
 13
76.19953453140076
 23
181.6615798338473
 33
0.0
 14
194.6995345314007
 24
181.6615798338473
 34
0.0
100
AcDbRotatedDimension
  0
DIMENSION
  5
57A
102
{ACAD_XDICTIONARY
360
57B
102
}
102
{ACAD_REACTORS
330
57C
102
}
330
1F
100
AcDbEntity
  8
0
370
    40
100
AcDbDimension
  2
*D15
 10
194.6995345296763
 20
31.07423919894803
 30
0.0
 11
135.4495345305385
 21
39.07423919894803
 31
0.0
 70
    32
 71
     5
 42
118.4999999982756
  3
MV
100
AcDbAlignedDimension
 13
76.19953453140076
 23
19.38524032960459
 33
0.0
 14
194.6995345296763
 24
19.38524032960459
 34
0.0
100
AcDbRotatedDimension
  0
DIMENSION
  5
57D
102
{ACAD_XDICTIONARY
360
57E
102
}
102
{ACAD_REACTORS
330
57F
102
}
330
1F
100
AcDbEntity
  8
0
370
    40
100
AcDbDimension
  2
*D16
 10
63.89616408807919
 20
-34.61475967039535
 30
0.0
 11
55.8961640880792
 21
-7.114759670395366
 31
0.0
 70
    32
 71
     5
 42
54.99999999999994
  3
MV
100
AcDbAlignedDimension
 13
77.19953453140087
 23
20.38524032960459
 33
0.0
 14
76.19953453140076
 24
-34.61475967039535
 34
0.0
 50
90.0
100
AcDbRotatedDimension
  0
DIMENSION
  5
580
102
{ACAD_XDICTIONARY
360
581
102
}
102
{ACAD_REACTORS
330
582
102
}
330
1F
100
AcDbEntity
  8
0
370
    40
100
AcDbDimension
  2
*D17
 10
344.0881134245972
 20
34.07423919894789
 30
0.0
 11
282.0881134245972
 21
42.07423919894789
 31
0.0
 70
    32
 71
     5
 42
123.9999999999999
  3
MV
100
AcDbAlignedDimension
 13
220.0881134245972
 23
-8.901322963420504
 33
0.0
 14
344.0881134245972
 24
-8.901322963420504
 34
0.0
100
AcDbRotatedDimension
  0
DIMENSION
  5
583
102
{ACAD_XDICTIONARY
360
584
102
}
102
{ACAD_REACTORS
330
585
102
}
330
1F
100
AcDbEntity
  8
0
370
    40
100
AcDbDimension
  2
*D18
 10
369.3241737783044
 20
-34.61475967039537
 30
0.0
 11
361.3241737783044
 21
-7.114759670395342
 31
0.0
 70
    32
 71
     5
 42
54.99999999999993
  3
MV
100
AcDbAlignedDimension
 13
310.0881134245972
 23
20.38524032960458
 33
0.0
 14
332.0881134245972
 24
-34.61475967039536
 34
0.0
 50
90.0
100
AcDbRotatedDimension
  0
LINE
  5
586
330
1F
100
AcDbEntity
  8
0
 62
     4
100
AcDbLine
 10
94.1495345314008
 20
186.4253413017372
 30
0.0
 11
94.1495345314008
 21
181.6615798338473
 31
0.0
  0
LINE
  5
587
330
1F
100
AcDbEntity
  8
0
 62
     4
100
AcDbLine
 10
104.3495345314007
 20
186.4253413017372
 30
0.0
 11
104.3495345314007
 21
181.6615798338473
 31
0.0
  0
MTEXT
  5
588
330
1F
100
AcDbEntity
  8
0
100
AcDbMText
 10
148.9789472622928
 20
108.568481973905
 30
0.0
 40
2.5
 41
60.93703197746913
 71
     1
 72
     5
  1
{\fTimes New Roman|b0|i0|c0|p18;UNIT CONTROL}
 73
     1
 44
1.0
1001
ACAD
1000
MTEXTBEGIN
1070
    73
1070
     1
1070
    44
1040
1.0
1070
    74
1070
     0
1000
MTEXTEND
  0
ENDSEC
  0
SECTION
  2
OBJECTS
  0
DICTIONARY
  5
C
330
0
100
AcDbDictionary
281
     1
  3
ACAD_COLOR
350
73
  3
ACAD_GROUP
350
D
  3
ACAD_LAYOUT
350
1A
  3
ACAD_MATERIAL
350
72
  3
ACAD_MLINESTYLE
350
17
  3
ACAD_PLOTSETTINGS
350
19
  3
ACAD_PLOTSTYLENAME
350
E
  3
ACAD_TABLESTYLE
350
86
  3
ACAD_VISUALSTYLE
350
99
  3
AcDbVariableDictionary
350
66
  3
DWGPROPS
350
5F4
  0
DICTIONARY
  5
120
330
2
100
AcDbDictionary
280
     1
281
     1
  3
ACAD_LAYERSTATES
360
121
  0
DICTIONARY
  5
56E
330
56D
100
AcDbDictionary
280
     1
281
     1
  3
ACAD_DIMASSOC
360
56F
  0
DICTIONARY
  5
572
330
571
100
AcDbDictionary
280
     1
281
     1
  3
ACAD_DIMASSOC
360
573
  0
DICTIONARY
  5
575
330
574
100
AcDbDictionary
280
     1
281
     1
  3
ACAD_DIMASSOC
360
576
  0
DICTIONARY
  5
578
330
577
100
AcDbDictionary
280
     1
281
     1
  3
ACAD_DIMASSOC
360
579
  0
DICTIONARY
  5
57B
330
57A
100
AcDbDictionary
280
     1
281
     1
  3
ACAD_DIMASSOC
360
57C
  0
DICTIONARY
  5
57E
330
57D
100
AcDbDictionary
280
     1
281
     1
  3
ACAD_DIMASSOC
360
57F
  0
DICTIONARY
  5
581
330
580
100
AcDbDictionary
280
     1
281
     1
  3
ACAD_DIMASSOC
360
582
  0
DICTIONARY
  5
584
330
583
100
AcDbDictionary
280
     1
281
     1
  3
ACAD_DIMASSOC
360
585
  0
DICTIONARY
  5
73
102
{ACAD_REACTORS
330
C
102
}
330
C
100
AcDbDictionary
281
     1
  0
DICTIONARY
  5
D
102
{ACAD_REACTORS
330
C
102
}
330
C
100
AcDbDictionary
281
     1
  0
DICTIONARY
  5
1A
102
{ACAD_REACTORS
330
C
102
}
330
C
100
AcDbDictionary
281
     1
  3
Layout1
350
59
  3
Layout2
350
5E
  3
Model
350
22
  0
DICTIONARY
  5
72
102
{ACAD_REACTORS
330
C
102
}
330
C
100
AcDbDictionary
281
     1
  3
ByBlock
350
97
  3
ByLayer
350
96
  3
Global
350
98
  0
DICTIONARY
  5
17
102
{ACAD_REACTORS
330
C
102
}
330
C
100
AcDbDictionary
281
     1
  3
Standard
350
18
  0
DICTIONARY
  5
19
102
{ACAD_REACTORS
330
C
102
}
330
C
100
AcDbDictionary
281
     1
  0
ACDBDICTIONARYWDFLT
  5
E
102
{ACAD_REACTORS
330
C
102
}
330
C
100
AcDbDictionary
281
     1
  3
Normal
350
F
100
AcDbDictionaryWithDefault
340
F
  0
DICTIONARY
  5
86
102
{ACAD_REACTORS
330
C
102
}
330
C
100
AcDbDictionary
281
     1
  3
Standard
350
87
  0
DICTIONARY
  5
99
102
{ACAD_REACTORS
330
C
102
}
330
C
100
AcDbDictionary
281
     1
  3
2dWireframe
350
9F
  3
3D Hidden
350
A1
  3
3dWireframe
350
A0
  3
Basic
350
9E
  3
Brighten
350
A5
  3
ColorChange
350
A9
  3
Conceptual
350
A2
  3
Dim
350
A4
  3
Facepattern
350
A8
  3
Flat
350
9A
  3
FlatWithEdges
350
9B
  3
Gouraud
350
9C
  3
GouraudWithEdges
350
9D
  3
Linepattern
350
A7
  3
Realistic
350
A3
  3
Thicken
350
A6
  0
DICTIONARY
  5
66
102
{ACAD_REACTORS
330
C
102
}
330
C
100
AcDbDictionary
281
     1
  3
CTABLESTYLE
350
89
  3
DIMASSOC
350
67
  3
HIDETEXT
350
6B
  3
INDEXCTL
350
5F3
  3
SORTENTS
350
5F2
  0
XRECORD
  5
5F4
102
{ACAD_REACTORS
330
C
102
}
330
C
100
AcDbXrecord
280
     1
  1
DWGPROPS COOKIE
  2

  3

  4

  6

  7

  8
Administrator
  9

300
=
301
=
302
=
303
=
304
=
305
=
306
=
307
=
308
=
309
=
 40
0.00059
 41
2458493.509175359
 42
2458493.5097647
  1

 90
        0
  0
DICTIONARY
  5
121
102
{ACAD_REACTORS
330
120
102
}
330
120
100
AcDbDictionary
281
     1
  0
DIMASSOC
  5
56F
102
{ACAD_REACTORS
330
56E
102
}
330
56E
100
AcDbDimAssoc
330
56D
 90
        2
 70
     0
 71
     0
  1
AcDbOsnapPointRef
 72
     1
331
374
 73
     2
 91
        3
 40
1.0
 10
0.0
 20
0.0
 30
2.000000000000000E+50
 75
     0
  0
DIMASSOC
  5
573
102
{ACAD_REACTORS
330
572
102
}
330
572
100
AcDbDimAssoc
330
571
 90
        2
 70
     0
 71
     0
  1
AcDbOsnapPointRef
 72
     1
331
472
 73
     2
 91
        2
 40
1.0
 10
0.0
 20
0.0
 30
2.000000000000000E+50
 75
     0
  0
DIMASSOC
  5
576
102
{ACAD_REACTORS
330
575
102
}
330
575
100
AcDbDimAssoc
330
574
 90
        1
 70
     0
 71
     0
  1
AcDbOsnapPointRef
 72
     1
331
35B
 73
     2
 91
        1
 40
1.0
 10
0.0
 20
0.0
 30
2.000000000000000E+50
 75
     0
  0
DIMASSOC
  5
579
102
{ACAD_REACTORS
330
578
102
}
330
578
100
AcDbDimAssoc
330
577
 90
        3
 70
     0
 71
     0
  1
AcDbOsnapPointRef
 72
     1
331
374
 73
     2
 91
        1
 40
1.0
 10
0.0
 20
0.0
 30
2.000000000000000E+50
 75
     0
  1
AcDbOsnapPointRef
 72
     1
331
374
 73
     2
 91
        2
 40
1.0
 10
0.0
 20
0.0
 30
2.000000000000000E+50
 75
     0
  0
DIMASSOC
  5
57C
102
{ACAD_REACTORS
330
57B
102
}
330
57B
100
AcDbDimAssoc
330
57A
 90
        3
 70
     0
 71
     0
  1
AcDbOsnapPointRef
 72
     6
331
478
 73
     2
 91
        0
 40
0.0
 10
0.0
 20
0.0
 30
0.0
332
51B
 74
     2
 92
        0
 75
     0
  1
AcDbOsnapPointRef
 72
     6
331
47C
 73
     2
 91
        0
 40
0.9999999999999948
 10
0.0
 20
0.0
 30
0.0
332
51F
 74
     2
 92
        0
 75
     0
  0
DIMASSOC
  5
57F
102
{ACAD_REACTORS
330
57E
102
}
330
57E
100
AcDbDimAssoc
330
57D
 90
        3
 70
     0
 71
     0
  1
AcDbOsnapPointRef
 72
     1
331
47D
 73
     2
 91
        0
 40
1.0
 10
0.0
 20
0.0
 30
2.000000000000000E+50
 75
     0
  1
AcDbOsnapPointRef
 72
    13
331
483
 73
     2
 91
        0
 40
0.0
 10
0.0
 20
0.0
 30
2.000000000000000E+50
 75
     0
  0
DIMASSOC
  5
582
102
{ACAD_REACTORS
330
581
102
}
330
581
100
AcDbDimAssoc
330
580
 90
        3
 70
     0
 71
     0
  1
AcDbOsnapPointRef
 72
    13
331
565
 73
     2
 91
        0
 40
0.0
 10
0.0
 20
0.0
 30
2.000000000000000E+50
 75
     0
  1
AcDbOsnapPointRef
 72
    13
331
55B
 73
     2
 91
        0
 40
0.0
 10
0.0
 20
0.0
 30
2.000000000000000E+50
 75
     0
  0
DIMASSOC
  5
585
102
{ACAD_REACTORS
330
584
102
}
330
584
100
AcDbDimAssoc
330
583
 90
        3
 70
     0
 71
     0
  1
AcDbOsnapPointRef
 72
     1
331
54E
 73
     2
 91
        0
 40
1.358567415440839
 10
0.0
 20
0.0
 30
2.000000000000000E+50
 75
     0
  1
AcDbOsnapPointRef
 72
    13
331
524
 73
     2
 91
        0
 40
0.0
 10
0.0
 20
0.0
 30
2.000000000000000E+50
 75
     0
  0
LAYOUT
  5
59
102
{ACAD_XDICTIONARY
360
5F7
102
}
102
{ACAD_REACTORS
330
1A
102
}
330
1A
100
AcDbPlotSettings
  1

  2
None
  4

  6

 40
0.0
 41
0.0
 42
0.0
 43
0.0
 44
0.0
 45
0.0
 46
0.0
 47
0.0
 48
0.0
 49
0.0
140
0.0
141
0.0
142
1.0
143
1.0
 70
   688
 72
     0
 73
     0
 74
     5
  7

 75
    16
147
1.0
148
0.0
149
0.0
100
AcDbLayout
  1
Layout1
 70
     1
 71
     1
 10
0.0
 20
0.0
 11
12.0
 21
9.0
 12
0.0
 22
0.0
 32
0.0
 14
0.0
 24
0.0
 34
0.0
 15
0.0
 25
0.0
 35
0.0
146
0.0
 13
0.0
 23
0.0
 33
0.0
 16
1.0
 26
0.0
 36
0.0
 17
0.0
 27
1.0
 37
0.0
 76
     0
330
58
  0
LAYOUT
  5
5E
102
{ACAD_XDICTIONARY
360
5F9
102
}
102
{ACAD_REACTORS
330
1A
102
}
330
1A
100
AcDbPlotSettings
  1

  2
None
  4

  6

 40
0.0
 41
0.0
 42
0.0
 43
0.0
 44
0.0
 45
0.0
 46
0.0
 47
0.0
 48
0.0
 49
0.0
140
0.0
141
0.0
142
1.0
143
1.0
 70
   688
 72
     0
 73
     0
 74
     5
  7

 75
    16
147
1.0
148
0.0
149
0.0
100
AcDbLayout
  1
Layout2
 70
     1
 71
     2
 10
0.0
 20
0.0
 11
12.0
 21
9.0
 12
0.0
 22
0.0
 32
0.0
 14
0.0
 24
0.0
 34
0.0
 15
0.0
 25
0.0
 35
0.0
146
0.0
 13
0.0
 23
0.0
 33
0.0
 16
1.0
 26
0.0
 36
0.0
 17
0.0
 27
1.0
 37
0.0
 76
     0
330
5D
  0
LAYOUT
  5
22
102
{ACAD_XDICTIONARY
360
5F5
102
}
102
{ACAD_REACTORS
330
1A
102
}
330
1A
100
AcDbPlotSettings
  1

  2
none_device
  4
ANSI_A_(8.50_x_11.00_Inches)
  6

 40
6.349999904632568
 41
19.04999923706055
 42
6.350006103515625
 43
19.04998779296875
 44
215.8999938964844
 45
279.3999938964844
 46
0.0
 47
0.0
 48
0.0
 49
0.0
140
0.0
141
0.0
142
1.0
143
2.584895464708373
 70
 11952
 72
     0
 73
     1
 74
     0
  7

 75
     0
147
0.3868628397755418
148
0.0
149
0.0
100
AcDbLayout
  1
Model
 70
     1
 71
     0
 10
0.0
 20
0.0
 11
12.0
 21
9.0
 12
0.0
 22
0.0
 32
0.0
 14
0.0
 24
0.0
 34
0.0
 15
0.0
 25
0.0
 35
0.0
146
0.0
 13
0.0
 23
0.0
 33
0.0
 16
1.0
 26
0.0
 36
0.0
 17
0.0
 27
1.0
 37
0.0
 76
     0
330
1F
331
94
  0
MATERIAL
  5
97
102
{ACAD_XDICTIONARY
360
5FF
102
}
102
{ACAD_REACTORS
330
72
102
}
330
72
100
AcDbMaterial
  1
ByBlock
  0
MATERIAL
  5
96
102
{ACAD_XDICTIONARY
360
5FD
102
}
102
{ACAD_REACTORS
330
72
102
}
330
72
100
AcDbMaterial
  1
ByLayer
  0
MATERIAL
  5
98
102
{ACAD_XDICTIONARY
360
601
102
}
102
{ACAD_REACTORS
330
72
102
}
330
72
100
AcDbMaterial
  1
Global
  0
MLINESTYLE
  5
18
102
{ACAD_REACTORS
330
17
102
}
330
17
100
AcDbMlineStyle
  2
STANDARD
 70
     0
  3

 62
   256
 51
90.0
 52
90.0
 71
     2
 49
0.5
 62
   256
  6
BYLAYER
 49
-0.5
 62
   256
  6
BYLAYER
  0
ACDBPLACEHOLDER
  5
F
102
{ACAD_REACTORS
330
E
102
}
330
E
  0
TABLESTYLE
  5
87
102
{ACAD_XDICTIONARY
360
5FB
102
}
102
{ACAD_REACTORS
330
86
102
}
330
86
100
AcDbTableStyle
  3
Standard
 70
     0
 71
     0
 40
0.06
 41
0.06
280
     0
281
     0
  7
Standard
140
0.18
170
     2
 62
     0
 63
     7
283
     0
274
    -2
284
     1
 64
     0
275
    -2
285
     1
 65
     0
276
    -2
286
     1
 66
     0
277
    -2
287
     1
 67
     0
278
    -2
288
     1
 68
     0
279
    -2
289
     1
 69
     0
  7
Standard
140
0.25
170
     5
 62
     0
 63
     7
283
     0
274
    -2
284
     1
 64
     0
275
    -2
285
     1
 65
     0
276
    -2
286
     1
 66
     0
277
    -2
287
     1
 67
     0
278
    -2
288
     1
 68
     0
279
    -2
289
     1
 69
     0
  7
Standard
140
0.18
170
     5
 62
     0
 63
     7
283
     0
274
    -2
284
     1
 64
     0
275
    -2
285
     1
 65
     0
276
    -2
286
     1
 66
     0
277
    -2
287
     1
 67
     0
278
    -2
288
     1
 68
     0
279
    -2
289
     1
 69
     0
  0
VISUALSTYLE
  5
9F
102
{ACAD_REACTORS
330
99
102
}
330
99
100
AcDbVisualStyle
  2
2dWireframe
 70
     4
 71
     0
 72
     2
 73
     1
 90
        0
 40
-0.6
 41
-30.0
 62
     5
 63
     7
 74
     1
 91
        4
 64
     7
 65
   257
 75
     1
175
     1
 42
1.0
 92
        0
 66
   257
 43
1.0
 76
     1
 77
     6
 78
     2
 67
     7
 79
     5
170
     0
171
     0
290
     0
174
     0
 93
        1
 44
0.0
173
     0
291
     0
 45
0.0
1001
ACAD
1000
AcDbSavedByObjectVersion
1070
     0
  0
VISUALSTYLE
  5
A1
102
{ACAD_REACTORS
330
99
102
}
330
99
100
AcDbVisualStyle
  2
3D Hidden
 70
     6
 71
     1
 72
     2
 73
     2
 90
        0
 40
-0.6
 41
-30.0
 62
     5
 63
     7
 74
     2
 91
        2
 64
     7
 65
   257
 75
     2
175
     1
 42
40.0
 92
        0
 66
   257
 43
1.0
 76
     1
 77
     6
 78
     2
 67
     7
 79
     3
170
     0
171
     0
290
     0
174
     0
 93
        1
 44
0.0
173
     0
291
     0
 45
0.0
1001
ACAD
1000
AcDbSavedByObjectVersion
1070
     0
  0
VISUALSTYLE
  5
A0
102
{ACAD_REACTORS
330
99
102
}
330
99
100
AcDbVisualStyle
  2
3dWireframe
 70
     5
 71
     0
 72
     2
 73
     1
 90
        0
 40
-0.6
 41
-30.0
 62
     5
 63
     7
 74
     1
 91
        4
 64
     7
 65
   257
 75
     1
175
     1
 42
1.0
 92
        0
 66
   257
 43
1.0
 76
     1
 77
     6
 78
     2
 67
     7
 79
     5
170
     0
171
     0
290
     0
174
     0
 93
        1
 44
0.0
173
     0
291
     0
 45
0.0
1001
ACAD
1000
AcDbSavedByObjectVersion
1070
     0
  0
VISUALSTYLE
  5
9E
102
{ACAD_REACTORS
330
99
102
}
330
99
100
AcDbVisualStyle
  2
Basic
 70
     7
 71
     1
 72
     0
 73
     1
 90
        0
 40
-0.6
 41
-30.0
 62
     5
 63
     7
 74
     0
 91
        4
 64
     7
 65
   257
 75
     1
175
     1
 42
1.0
 92
        8
 66
     7
 43
1.0
 76
     1
 77
     6
 78
     2
 67
     7
 79
     5
170
     0
171
     0
290
     0
174
     0
 93
        1
 44
0.0
173
     0
291
     1
 45
0.0
1001
ACAD
1000
AcDbSavedByObjectVersion
1070
     0
  0
VISUALSTYLE
  5
A5
102
{ACAD_REACTORS
330
99
102
}
330
99
100
AcDbVisualStyle
  2
Brighten
 70
    12
 71
     2
 72
     2
 73
     1
 90
        0
 40
-0.6
 41
-30.0
 62
     5
 63
     7
 74
     1
 91
        4
 64
     7
 65
   257
 75
     1
175
     1
 42
1.0
 92
        8
 66
     7
 43
1.0
 76
     1
 77
     6
 78
     2
 67
     7
 79
     5
170
     0
171
     0
290
     0
174
     0
 93
        1
 44
50.0
173
     0
291
     1
 45
0.0
1001
ACAD
1000
AcDbSavedByObjectVersion
1070
     0
  0
VISUALSTYLE
  5
A9
102
{ACAD_REACTORS
330
99
102
}
330
99
100
AcDbVisualStyle
  2
ColorChange
 70
    16
 71
     2
 72
     2
 73
     3
 90
        0
 40
-0.6
 41
-30.0
 62
     5
 63
     8
 74
     1
 91
        4
 64
     7
 65
   257
 75
     1
175
     1
 42
1.0
 92
        8
 66
     8
 43
1.0
 76
     1
 77
     6
 78
     2
 67
     7
 79
     5
170
     0
171
     0
290
     0
174
     0
 93
        1
 44
0.0
173
     0
291
     1
 45
0.0
1001
ACAD
1000
AcDbSavedByObjectVersion
1070
     0
  0
VISUALSTYLE
  5
A2
102
{ACAD_REACTORS
330
99
102
}
330
99
100
AcDbVisualStyle
  2
Conceptual
 70
     9
 71
     3
 72
     2
 73
     1
 90
        0
 40
-0.6
 41
-30.0
 62
     5
 63
     7
 74
     2
 91
        2
 64
     7
 65
   257
 75
     1
175
     1
 42
40.0
 92
        8
 66
     7
 43
1.0
 76
     1
 77
     6
 78
     2
 67
     7
 79
     3
170
     0
171
     0
290
     0
174
     0
 93
        1
 44
0.0
173
     0
291
     0
 45
0.0
1001
ACAD
1000
AcDbSavedByObjectVersion
1070
     0
  0
VISUALSTYLE
  5
A4
102
{ACAD_REACTORS
330
99
102
}
330
99
100
AcDbVisualStyle
  2
Dim
 70
    11
 71
     2
 72
     2
 73
     1
 90
        0
 40
-0.6
 41
-30.0
 62
     5
 63
     7
 74
     1
 91
        4
 64
     7
 65
   257
 75
     1
175
     1
 42
1.0
 92
        8
 66
     7
 43
1.0
 76
     1
 77
     6
 78
     2
 67
     7
 79
     5
170
     0
171
     0
290
     0
174
     0
 93
        1
 44
-50.0
173
     0
291
     1
 45
0.0
1001
ACAD
1000
AcDbSavedByObjectVersion
1070
     0
  0
VISUALSTYLE
  5
A8
102
{ACAD_REACTORS
330
99
102
}
330
99
100
AcDbVisualStyle
  2
Facepattern
 70
    15
 71
     2
 72
     2
 73
     1
 90
        0
 40
-0.6
 41
-30.0
 62
     5
 63
     7
 74
     1
 91
        4
 64
     7
 65
   257
 75
     1
175
     1
 42
1.0
 92
        8
 66
     7
 43
1.0
 76
     1
 77
     6
 78
     2
 67
     7
 79
     5
170
     0
171
     0
290
     0
174
     0
 93
        1
 44
0.0
173
     0
291
     1
 45
0.0
1001
ACAD
1000
AcDbSavedByObjectVersion
1070
     0
  0
VISUALSTYLE
  5
9A
102
{ACAD_REACTORS
330
99
102
}
330
99
100
AcDbVisualStyle
  2
Flat
 70
     0
 71
     2
 72
     1
 73
     1
 90
        2
 40
-0.6
 41
30.0
 62
     5
 63
     7
 74
     0
 91
        4
 64
     7
 65
   257
 75
     1
175
     1
 42
1.0
 92
        8
 66
     7
 43
1.0
 76
     1
 77
     6
 78
     2
 67
     7
 79
     5
170
     0
171
     0
290
     0
174
     0
 93
        1
 44
0.0
173
     0
291
     1
 45
0.0
1001
ACAD
1000
AcDbSavedByObjectVersion
1070
     0
  0
VISUALSTYLE
  5
9B
102
{ACAD_REACTORS
330
99
102
}
330
99
100
AcDbVisualStyle
  2
FlatWithEdges
 70
     1
 71
     2
 72
     1
 73
     1
 90
        2
 40
-0.6
 41
30.0
 62
     5
 63
     7
 74
     1
 91
        4
 64
     7
 65
   257
 75
     1
175
     1
 42
1.0
 92
        0
 66
   257
 43
1.0
 76
     1
 77
     6
 78
     2
 67
     7
 79
     5
170
     0
171
     0
290
     0
174
     0
 93
        1
 44
0.0
173
     0
291
     1
 45
0.0
1001
ACAD
1000
AcDbSavedByObjectVersion
1070
     0
  0
VISUALSTYLE
  5
9C
102
{ACAD_REACTORS
330
99
102
}
330
99
100
AcDbVisualStyle
  2
Gouraud
 70
     2
 71
     2
 72
     2
 73
     1
 90
        2
 40
-0.6
 41
30.0
 62
     5
 63
     7
 74
     0
 91
        4
 64
     7
 65
   257
 75
     1
175
     1
 42
1.0
 92
        0
 66
     7
 43
1.0
 76
     1
 77
     6
 78
     2
 67
     7
 79
     5
170
     0
171
     0
290
     0
174
     0
 93
        1
 44
0.0
173
     0
291
     1
 45
0.0
1001
ACAD
1000
AcDbSavedByObjectVersion
1070
     0
  0
VISUALSTYLE
  5
9D
102
{ACAD_REACTORS
330
99
102
}
330
99
100
AcDbVisualStyle
  2
GouraudWithEdges
 70
     3
 71
     2
 72
     2
 73
     1
 90
        2
 40
-0.6
 41
30.0
 62
     5
 63
     7
 74
     1
 91
        4
 64
     7
 65
   257
 75
     1
175
     1
 42
1.0
 92
        0
 66
   257
 43
1.0
 76
     1
 77
     6
 78
     2
 67
     7
 79
     5
170
     0
171
     0
290
     0
174
     0
 93
        1
 44
0.0
173
     0
291
     1
 45
0.0
1001
ACAD
1000
AcDbSavedByObjectVersion
1070
     0
  0
VISUALSTYLE
  5
A7
102
{ACAD_REACTORS
330
99
102
}
330
99
100
AcDbVisualStyle
  2
Linepattern
 70
    14
 71
     2
 72
     2
 73
     1
 90
        0
 40
-0.6
 41
-30.0
 62
     5
 63
     7
 74
     1
 91
        4
 64
     7
 65
   257
 75
     7
175
     7
 42
1.0
 92
        8
 66
     7
 43
1.0
 76
     1
 77
     6
 78
     2
 67
     7
 79
     5
170
     0
171
     0
290
     0
174
     0
 93
        1
 44
0.0
173
     0
291
     1
 45
0.0
1001
ACAD
1000
AcDbSavedByObjectVersion
1070
     0
  0
VISUALSTYLE
  5
A3
102
{ACAD_REACTORS
330
99
102
}
330
99
100
AcDbVisualStyle
  2
Realistic
 70
     8
 71
     2
 72
     2
 73
     1
 90
        0
 40
-0.6
 41
-30.0
 62
     5
 63
     7
 74
     1
 91
        0
 64
     7
 65
   257
 75
     1
175
     1
 42
1.0
 92
        8
 66
     8
 43
1.0
 76
     1
 77
     6
 78
     2
 67
     7
 79
     5
170
     0
171
     0
290
     0
174
     0
 93
       13
 44
0.0
173
     0
291
     0
 45
0.0
1001
ACAD
1000
AcDbSavedByObjectVersion
1070
     0
  0
VISUALSTYLE
  5
A6
102
{ACAD_REACTORS
330
99
102
}
330
99
100
AcDbVisualStyle
  2
Thicken
 70
    13
 71
     2
 72
     2
 73
     1
 90
        0
 40
-0.6
 41
-30.0
 62
     5
 63
     7
 74
     1
 91
        4
 64
     7
 65
   257
 75
     1
175
     1
 42
1.0
 92
       12
 66
     7
 43
1.0
 76
     1
 77
     6
 78
     2
 67
     7
 79
     5
170
     0
171
     0
290
     0
174
     0
 93
        1
 44
0.0
173
     0
291
     1
 45
0.0
1001
ACAD
1000
AcDbSavedByObjectVersion
1070
     0
  0
DICTIONARYVAR
  5
89
102
{ACAD_REACTORS
330
66
102
}
330
66
100
DictionaryVariables
280
     0
  1
STANDARD
  0
DICTIONARYVAR
  5
67
102
{ACAD_REACTORS
330
66
102
}
330
66
100
DictionaryVariables
280
     0
  1
2
  0
DICTIONARYVAR
  5
6B
102
{ACAD_REACTORS
330
66
102
}
330
66
100
DictionaryVariables
280
     0
  1
1
  0
DICTIONARYVAR
  5
5F3
102
{ACAD_REACTORS
330
66
102
}
330
66
100
DictionaryVariables
280
     0
  1
0
  0
DICTIONARYVAR
  5
5F2
102
{ACAD_REACTORS
330
66
102
}
330
66
100
DictionaryVariables
280
     0
  1
127
  0
DICTIONARY
  5
5F7
330
59
100
AcDbDictionary
280
     1
281
     1
  3
ACAD_XREC_ROUNDTRIP
360
5F8
  0
DICTIONARY
  5
5F9
330
5E
100
AcDbDictionary
280
     1
281
     1
  3
ACAD_XREC_ROUNDTRIP
360
5FA
  0
DICTIONARY
  5
5F5
330
22
100
AcDbDictionary
280
     1
281
     1
  3
ACAD_XREC_ROUNDTRIP
360
5F6
  0
DICTIONARY
  5
5FF
330
97
100
AcDbDictionary
280
     1
281
     1
  3
ACAD_XREC_ROUNDTRIP
360
600
  0
DICTIONARY
  5
5FD
330
96
100
AcDbDictionary
280
     1
281
     1
  3
ACAD_XREC_ROUNDTRIP
360
5FE
  0
DICTIONARY
  5
601
330
98
100
AcDbDictionary
280
     1
281
     1
  3
ACAD_XREC_ROUNDTRIP
360
602
  0
DICTIONARY
  5
5FB
330
87
100
AcDbDictionary
280
     1
281
     1
  3
ACAD_XREC_ROUNDTRIP
360
5FC
  0
XRECORD
  5
5F8
102
{ACAD_REACTORS
330
5F7
102
}
330
5F7
100
AcDbXrecord
280
     1
102
SHADEPLOT
 70
     0
102
SHADEPLOTRESLEVEL
 70
     2
102
SHADEPLOTCUSTOMDPI
 70
   300
  0
XRECORD
  5
5FA
102
{ACAD_REACTORS
330
5F9
102
}
330
5F9
100
AcDbXrecord
280
     1
102
SHADEPLOT
 70
     0
102
SHADEPLOTRESLEVEL
 70
     2
102
SHADEPLOTCUSTOMDPI
 70
   300
  0
XRECORD
  5
5F6
102
{ACAD_REACTORS
330
5F5
102
}
330
5F5
100
AcDbXrecord
280
     1
102
SHADEPLOT
 70
     0
102
SHADEPLOTRESLEVEL
 70
     2
102
SHADEPLOTCUSTOMDPI
 70
   300
  0
XRECORD
  5
600
102
{ACAD_REACTORS
330
5FF
102
}
330
5FF
100
AcDbXrecord
280
     1
102
MATERIAL
148
0.0
149
0.0
149
0.0
 93
        0
 94
       63
282
     0
 72
     1
 77
     1
171
     1
175
     1
179
     1
273
     0
  0
XRECORD
  5
5FE
102
{ACAD_REACTORS
330
5FD
102
}
330
5FD
100
AcDbXrecord
280
     1
102
MATERIAL
148
0.0
149
0.0
149
0.0
 93
        0
 94
       63
282
     0
 72
     1
 77
     1
171
     1
175
     1
179
     1
273
     0
  0
XRECORD
  5
602
102
{ACAD_REACTORS
330
601
102
}
330
601
100
AcDbXrecord
280
     1
102
MATERIAL
148
0.0
149
0.0
149
0.0
 93
        0
 94
       63
282
     0
 72
     1
 77
     1
171
     1
175
     1
179
     1
273
     0
  0
XRECORD
  5
5FC
102
{ACAD_REACTORS
330
5FB
102
}
330
5FB
100
AcDbXrecord
280
     1
102
ACAD_ROUNDTRIP_PRE2007_TABLESTYLE
 90
      512
 91
        0
  1

 92
      512
 93
        0
  2

 94
      512
 95
        0
  3

  0
ENDSEC
  0
EOF
