  0
SECTION
  2
HEADER
  9
$ACADVER
  1
AC1015
  9
$ACADMAINTVER
 70
    20
  9
$DWGCODEPAGE
  3
ANSI_1252
  9
$INSBASE
 10
0.0
 20
0.0
 30
0.0
  9
$EXTMIN
 10
-6.031635817129901
 20
-35.77267568388928
 30
-15.01568345816238
  9
$EXTMAX
 10
327.8252395007281
 20
245.7269716660252
 30
0.0
  9
$LIMMIN
 10
0.0
 20
0.0
  9
$LIMMAX
 10
12.0
 20
9.0
  9
$ORTHOMODE
 70
     0
  9
$REGENMODE
 70
     1
  9
$FILLMODE
 70
     1
  9
$QTEXTMODE
 70
     0
  9
$MIRRTEXT
 70
     0
  9
$LTSCALE
 40
1.0
  9
$ATTMODE
 70
     1
  9
$TEXTSIZE
 40
0.2
  9
$TRACEWID
 40
0.05
  9
$TEXTSTYLE
  7
Standard
  9
$CLAYER
  8
0
  9
$CELTYPE
  6
ByLayer
  9
$CECOLOR
 62
   256
  9
$CELTSCALE
 40
1.0
  9
$DISPSILH
 70
     0
  9
$DIMSCALE
 40
1.0
  9
$DIMASZ
 40
0.18
  9
$DIMEXO
 40
0.0625
  9
$DIMDLI
 40
0.38
  9
$DIMRND
 40
0.0
  9
$DIMDLE
 40
0.0
  9
$DIMEXE
 40
0.18
  9
$DIMTP
 40
0.0
  9
$DIMTM
 40
0.0
  9
$DIMTXT
 40
0.18
  9
$DIMCEN
 40
0.09
  9
$DIMTSZ
 40
0.0
  9
$DIMTOL
 70
     0
  9
$DIMLIM
 70
     0
  9
$DIMTIH
 70
     1
  9
$DIMTOH
 70
     1
  9
$DIMSE1
 70
     0
  9
$DIMSE2
 70
     0
  9
$DIMTAD
 70
     0
  9
$DIMZIN
 70
     0
  9
$DIMBLK
  1

  9
$DIMASO
 70
     1
  9
$DIMSHO
 70
     1
  9
$DIMPOST
  1

  9
$DIMAPOST
  1

  9
$DIMALT
 70
     0
  9
$DIMALTD
 70
     2
  9
$DIMALTF
 40
25.4
  9
$DIMLFAC
 40
1.0
  9
$DIMTOFL
 70
     0
  9
$DIMTVP
 40
0.0
  9
$DIMTIX
 70
     0
  9
$DIMSOXD
 70
     0
  9
$DIMSAH
 70
     0
  9
$DIMBLK1
  1

  9
$DIMBLK2
  1

  9
$DIMSTYLE
  2
Standard
  9
$DIMCLRD
 70
     0
  9
$DIMCLRE
 70
     0
  9
$DIMCLRT
 70
     0
  9
$DIMTFAC
 40
1.0
  9
$DIMGAP
 40
0.09
  9
$DIMJUST
 70
     0
  9
$DIMSD1
 70
     0
  9
$DIMSD2
 70
     0
  9
$DIMTOLJ
 70
     1
  9
$DIMTZIN
 70
     0
  9
$DIMALTZ
 70
     0
  9
$DIMALTTZ
 70
     0
  9
$DIMUPT
 70
     0
  9
$DIMDEC
 70
     4
  9
$DIMTDEC
 70
     4
  9
$DIMALTU
 70
     2
  9
$DIMALTTD
 70
     2
  9
$DIMTXSTY
  7
Standard
  9
$DIMAUNIT
 70
     0
  9
$DIMADEC
 70
     0
  9
$DIMALTRND
 40
0.0
  9
$DIMAZIN
 70
     0
  9
$DIMDSEP
 70
    46
  9
$DIMATFIT
 70
     3
  9
$DIMFRAC
 70
     0
  9
$DIMLDRBLK
  1

  9
$DIMLUNIT
 70
     2
  9
$DIMLWD
 70
    -2
  9
$DIMLWE
 70
    -2
  9
$DIMTMOVE
 70
     0
  9
$LUNITS
 70
     2
  9
$LUPREC
 70
     4
  9
$SKETCHINC
 40
0.1
  9
$FILLETRAD
 40
0.0
  9
$AUNITS
 70
     0
  9
$AUPREC
 70
     0
  9
$MENU
  1
.
  9
$ELEVATION
 40
0.0
  9
$PELEVATION
 40
0.0
  9
$THICKNESS
 40
0.0
  9
$LIMCHECK
 70
     0
  9
$CHAMFERA
 40
0.0
  9
$CHAMFERB
 40
0.0
  9
$CHAMFERC
 40
0.0
  9
$CHAMFERD
 40
0.0
  9
$SKPOLY
 70
     0
  9
$TDCREATE
 40
2458472.391284630
  9
$TDUCREATE
 40
2458472.099617963
  9
$TDUPDATE
 40
2458472.391876863
  9
$TDUUPDATE
 40
2458472.100210197
  9
$TDINDWG
 40
0.0005968056
  9
$TDUSRTIMER
 40
0.0005967477
  9
$USRTIMER
 70
     1
  9
$ANGBASE
 50
0.0
  9
$ANGDIR
 70
     0
  9
$PDMODE
 70
     0
  9
$PDSIZE
 40
0.0
  9
$PLINEWID
 40
0.0
  9
$SPLFRAME
 70
     0
  9
$SPLINETYPE
 70
     6
  9
$SPLINESEGS
 70
     8
  9
$HANDSEED
  5
5DF
  9
$SURFTAB1
 70
     6
  9
$SURFTAB2
 70
     6
  9
$SURFTYPE
 70
     6
  9
$SURFU
 70
     6
  9
$SURFV
 70
     6
  9
$UCSBASE
  2

  9
$UCSNAME
  2

  9
$UCSORG
 10
0.0
 20
0.0
 30
0.0
  9
$UCSXDIR
 10
1.0
 20
0.0
 30
0.0
  9
$UCSYDIR
 10
0.0
 20
1.0
 30
0.0
  9
$UCSORTHOREF
  2

  9
$UCSORTHOVIEW
 70
     0
  9
$UCSORGTOP
 10
0.0
 20
0.0
 30
0.0
  9
$UCSORGBOTTOM
 10
0.0
 20
0.0
 30
0.0
  9
$UCSORGLEFT
 10
0.0
 20
0.0
 30
0.0
  9
$UCSORGRIGHT
 10
0.0
 20
0.0
 30
0.0
  9
$UCSORGFRONT
 10
0.0
 20
0.0
 30
0.0
  9
$UCSORGBACK
 10
0.0
 20
0.0
 30
0.0
  9
$PUCSBASE
  2

  9
$PUCSNAME
  2

  9
$PUCSORG
 10
0.0
 20
0.0
 30
0.0
  9
$PUCSXDIR
 10
1.0
 20
0.0
 30
0.0
  9
$PUCSYDIR
 10
0.0
 20
1.0
 30
0.0
  9
$PUCSORTHOREF
  2

  9
$PUCSORTHOVIEW
 70
     0
  9
$PUCSORGTOP
 10
0.0
 20
0.0
 30
0.0
  9
$PUCSORGBOTTOM
 10
0.0
 20
0.0
 30
0.0
  9
$PUCSORGLEFT
 10
0.0
 20
0.0
 30
0.0
  9
$PUCSORGRIGHT
 10
0.0
 20
0.0
 30
0.0
  9
$PUCSORGFRONT
 10
0.0
 20
0.0
 30
0.0
  9
$PUCSORGBACK
 10
0.0
 20
0.0
 30
0.0
  9
$USERI1
 70
     0
  9
$USERI2
 70
     0
  9
$USERI3
 70
     0
  9
$USERI4
 70
     0
  9
$USERI5
 70
     0
  9
$USERR1
 40
0.0
  9
$USERR2
 40
0.0
  9
$USERR3
 40
0.0
  9
$USERR4
 40
0.0
  9
$USERR5
 40
0.0
  9
$WORLDVIEW
 70
     1
  9
$SHADEDGE
 70
     3
  9
$SHADEDIF
 70
    70
  9
$TILEMODE
 70
     1
  9
$MAXACTVP
 70
    64
  9
$PINSBASE
 10
0.0
 20
0.0
 30
0.0
  9
$PLIMCHECK
 70
     0
  9
$PEXTMIN
 10
0.0
 20
0.0
 30
0.0
  9
$PEXTMAX
 10
0.0
 20
0.0
 30
0.0
  9
$PLIMMIN
 10
0.0
 20
0.0
  9
$PLIMMAX
 10
12.0
 20
9.0
  9
$UNITMODE
 70
     0
  9
$VISRETAIN
 70
     1
  9
$PLINEGEN
 70
     0
  9
$PSLTSCALE
 70
     1
  9
$TREEDEPTH
 70
  3020
  9
$CMLSTYLE
  2
Standard
  9
$CMLJUST
 70
     0
  9
$CMLSCALE
 40
1.0
  9
$PROXYGRAPHICS
 70
     1
  9
$MEASUREMENT
 70
     0
  9
$CELWEIGHT
370
    -1
  9
$ENDCAPS
280
     0
  9
$JOINSTYLE
280
     0
  9
$LWDISPLAY
290
     0
  9
$INSUNITS
 70
     1
  9
$HYPERLINKBASE
  1

  9
$STYLESHEET
  1

  9
$XEDIT
290
     1
  9
$CEPSNTYPE
380
     0
  9
$PSTYLEMODE
290
     1
  9
$FINGERPRINTGUID
  2
{3C4DFD51-B114-4FF6-B1A0-472C15B3E725}
  9
$VERSIONGUID
  2
{85266CCB-D351-476C-BF79-7B4B0C2F4FE3}
  9
$EXTNAMES
290
     1
  9
$PSVPSCALE
 40
0.0
  9
$OLESTARTUP
290
     0
  0
ENDSEC
  0
SECTION
  2
CLASSES
  0
CLASS
  1
ACDBDICTIONARYWDFLT
  2
AcDbDictionaryWithDefault
  3
ObjectDBX Classes
 90
        0
280
     0
281
     0
  0
CLASS
  1
ACDBPLACEHOLDER
  2
AcDbPlaceHolder
  3
ObjectDBX Classes
 90
        0
280
     0
281
     0
  0
CLASS
  1
LAYOUT
  2
AcDbLayout
  3
ObjectDBX Classes
 90
        0
280
     0
281
     0
  0
CLASS
  1
DICTIONARYVAR
  2
AcDbDictionaryVar
  3
ObjectDBX Classes
 90
        0
280
     0
281
     0
  0
CLASS
  1
TABLESTYLE
  2
AcDbTableStyle
  3
ObjectDBX Classes
 90
     4095
280
     0
281
     0
  0
CLASS
  1
MATERIAL
  2
AcDbMaterial
  3
ObjectDBX Classes
 90
     1153
280
     0
281
     0
  0
CLASS
  1
VISUALSTYLE
  2
AcDbVisualStyle
  3
ObjectDBX Classes
 90
     4095
280
     0
281
     0
  0
CLASS
  1
SORTENTSTABLE
  2
AcDbSortentsTable
  3
ObjectDBX Classes
 90
        0
280
     0
281
     0
  0
CLASS
  1
DIMASSOC
  2
AcDbDimAssoc
  3
"AcDbDimAssoc|Product Desc:     AcDim ARX App For Dimension|Company:          Autodesk, Inc.|WEB Address:      www.autodesk.com"
 90
        0
280
     0
281
     0
  0
ENDSEC
  0
SECTION
  2
TABLES
  0
TABLE
  2
VPORT
  5
8
330
0
100
AcDbSymbolTable
 70
     1
  0
VPORT
  5
94
330
8
100
AcDbSymbolTableRecord
100
AcDbViewportTableRecord
  2
*Active
 70
     0
 10
0.0
 20
0.0
 11
1.0
 21
1.0
 12
157.7150021975259
 22
80.2967847332429
 13
0.0
 23
0.0
 14
0.5
 24
0.5
 15
0.5
 25
0.5
 16
0.0
 26
0.0
 36
1.0
 17
0.0
 27
0.0
 37
0.0
 40
566.8846035428786
 41
2.189852700490998
 42
50.0
 43
0.0
 44
0.0
 50
0.0
 51
0.0
 71
     0
 72
  1000
 73
     1
 74
     3
 75
     0
 76
     0
 77
     0
 78
     0
281
     0
 65
     1
110
0.0
120
0.0
130
0.0
111
1.0
121
0.0
131
0.0
112
0.0
122
1.0
132
0.0
 79
     0
146
0.0
  0
ENDTAB
  0
TABLE
  2
LTYPE
  5
5
330
0
100
AcDbSymbolTable
 70
     1
  0
LTYPE
  5
14
330
5
100
AcDbSymbolTableRecord
100
AcDbLinetypeTableRecord
  2
ByBlock
 70
     0
  3

 72
    65
 73
     0
 40
0.0
  0
LTYPE
  5
15
330
5
100
AcDbSymbolTableRecord
100
AcDbLinetypeTableRecord
  2
ByLayer
 70
     0
  3

 72
    65
 73
     0
 40
0.0
  0
LTYPE
  5
16
330
5
100
AcDbSymbolTableRecord
100
AcDbLinetypeTableRecord
  2
Continuous
 70
     0
  3
Solid line
 72
    65
 73
     0
 40
0.0
  0
ENDTAB
  0
TABLE
  2
LAYER
  5
2
102
{ACAD_XDICTIONARY
360
306
102
}
330
0
100
AcDbSymbolTable
 70
     5
  0
LAYER
  5
10
330
2
100
AcDbSymbolTableRecord
100
AcDbLayerTableRecord
  2
0
 70
     0
 62
     7
  6
Continuous
370
    -3
390
F
  0
LAYER
  5
2F7
330
2
100
AcDbSymbolTableRecord
100
AcDbLayerTableRecord
  2
Defpoints
 70
     0
 62
     7
  6
Continuous
290
     0
370
    -3
390
F
  0
LAYER
  5
2F8
330
2
100
AcDbSymbolTableRecord
100
AcDbLayerTableRecord
  2
CHANGE
 70
     0
 62
     4
  6
Continuous
370
    -3
390
F
  0
LAYER
  5
2F9
102
{ACAD_XDICTIONARY
360
2FA
102
}
330
2
100
AcDbSymbolTableRecord
100
AcDbLayerTableRecord
  2
TEXT-VN
 70
     0
 62
     7
  6
Continuous
370
    -3
390
F
1001
RAK
1000
{ACET-LAYISO
1070
     0
1070
     3
1000
Continuous
1071
       -3
1071
        1
1005
F
1000
ACET-LAYISO}
  0
LAYER
  5
2FB
102
{ACAD_XDICTIONARY
360
2FC
102
}
330
2
100
AcDbSymbolTableRecord
100
AcDbLayerTableRecord
  2
E LEGEND
 70
     0
 62
     7
  6
Continuous
370
    -3
390
F
1001
AcAecLayerStandard
1000

1000

  0
ENDTAB
  0
TABLE
  2
STYLE
  5
3
330
0
100
AcDbSymbolTable
 70
     3
  0
STYLE
  5
11
330
3
100
AcDbSymbolTableRecord
100
AcDbTextStyleTableRecord
  2
Standard
 70
     0
 40
0.0
 41
1.0
 50
0.0
 71
     0
 42
0.2
  3
txt
  4

  0
STYLE
  5
2FD
330
3
100
AcDbSymbolTableRecord
100
AcDbTextStyleTableRecord
  2
Binh
 70
     0
 40
0.0
 41
1.0
 50
0.0
 71
     0
 42
25.0
  3

  4

1001
ACAD
1000
VNI-Helve-Condense
1071
        2
  0
STYLE
  5
2FE
330
3
100
AcDbSymbolTableRecord
100
AcDbTextStyleTableRecord
  2
ICON56-TTBL$0$ICO.Q4-MARS-CD-SR-E-301-A$0$X-SG1021-TITLE BLOCK_A1$0$ARIAL _10
 70
     0
 40
0.0
 41
1.0
 50
0.0
 71
     0
 42
2.5
  3
arial.ttf
  4

1001
ACAD
1000
Arial
1071
       34
  0
ENDTAB
  0
TABLE
  2
VIEW
  5
6
330
0
100
AcDbSymbolTable
 70
     0
  0
ENDTAB
  0
TABLE
  2
UCS
  5
7
330
0
100
AcDbSymbolTable
 70
     0
  0
ENDTAB
  0
TABLE
  2
APPID
  5
9
330
0
100
AcDbSymbolTable
 70
     6
  0
APPID
  5
12
330
9
100
AcDbSymbolTableRecord
100
AcDbRegAppTableRecord
  2
ACAD
 70
     0
  0
APPID
  5
301
330
9
100
AcDbSymbolTableRecord
100
AcDbRegAppTableRecord
  2
ACAD_PSEXT
 70
     0
  0
APPID
  5
302
330
9
100
AcDbSymbolTableRecord
100
AcDbRegAppTableRecord
  2
RAK
 70
     0
  0
APPID
  5
303
330
9
100
AcDbSymbolTableRecord
100
AcDbRegAppTableRecord
  2
AcDbBlockRepETag
 70
     0
  0
APPID
  5
304
330
9
100
AcDbSymbolTableRecord
100
AcDbRegAppTableRecord
  2
AcAecLayerStandard
 70
     0
  0
APPID
  5
305
330
9
100
AcDbSymbolTableRecord
100
AcDbRegAppTableRecord
  2
AcDbDynamicBlockGUID
 70
     0
  0
ENDTAB
  0
TABLE
  2
DIMSTYLE
  5
A
330
0
100
AcDbSymbolTable
 70
     3
100
AcDbDimStyleTable
 71
     0
  0
DIMSTYLE
105
27
330
A
100
AcDbSymbolTableRecord
100
AcDbDimStyleTableRecord
  2
Standard
 70
     0
340
11
  0
DIMSTYLE
105
2FF
330
A
100
AcDbSymbolTableRecord
100
AcDbDimStyleTableRecord
  2
SS
 70
     0
 40
1.5
 41
3.0
 42
2.0
 43
1.0
 44
2.0
 73
     0
 74
     0
 77
     1
140
3.0
147
0.5
176
     1
177
     1
178
     7
340
11
  0
DIMSTYLE
105
300
102
{ACAD_REACTORS
330
405
330
408
330
40B
330
40E
330
411
330
414
330
417
330
41A
330
520
330
523
330
526
330
529
330
52C
330
52F
330
532
330
535
102
}
330
A
100
AcDbSymbolTableRecord
100
AcDbDimStyleTableRecord
  2
TRIEU
 70
     0
 40
0.5
 41
30.0
 42
0.0
 43
0.0
 44
20.0
 73
     0
 77
     3
 78
     8
140
30.0
141
0.0
146
0.0000052631578947
147
10.0
172
     1
174
     1
176
     8
177
     8
178
     3
271
     0
272
     0
275
     1
279
     2
284
     8
340
2FD
342
B9
  0
ENDTAB
  0
TABLE
  2
BLOCK_RECORD
  5
1
330
0
100
AcDbSymbolTable
 70
    20
  0
BLOCK_RECORD
  5
1F
330
1
100
AcDbSymbolTableRecord
100
AcDbBlockTableRecord
  2
*Model_Space
340
22
  0
BLOCK_RECORD
  5
58
330
1
100
AcDbSymbolTableRecord
100
AcDbBlockTableRecord
  2
*Paper_Space
340
59
  0
BLOCK_RECORD
  5
5D
330
1
100
AcDbSymbolTableRecord
100
AcDbBlockTableRecord
  2
*Paper_Space0
340
5E
  0
BLOCK_RECORD
  5
B9
330
1
100
AcDbSymbolTableRecord
100
AcDbBlockTableRecord
  2
_Oblique
340
0
102
{BLKREFS
331
29C
331
29D
331
2A8
331
2A9
331
2B4
331
2B5
331
2C0
331
2C1
331
2CC
331
2CD
331
2D8
331
2D9
331
2E4
331
2E5
331
2F0
331
2F1
331
578
331
579
331
584
331
585
331
59B
331
59C
331
5A4
331
5A5
331
5AD
331
5AE
331
5B6
331
5B7
331
5BF
331
5C0
331
5C8
331
5C9
102
}
  0
BLOCK_RECORD
  5
BD
102
{ACAD_XDICTIONARY
360
BE
102
}
330
1
100
AcDbSymbolTableRecord
100
AcDbBlockTableRecord
  2
A$C00294823
340
0
102
{BLKREFS
331
309
331
424
102
}
1001
AcDbDynamicBlockGUID
1000
{5E5401EA-6850-49C2-85AB-79182764920D}
1001
AcDbBlockRepETag
1070
     1
1071
      470
1001
ACAD
1000
DesignCenter Data
1002
{
1070
     1
1070
     4
1002
}
  0
BLOCK_RECORD
  5
297
330
1
100
AcDbSymbolTableRecord
100
AcDbBlockTableRecord
  2
*D3
340
0
  0
BLOCK_RECORD
  5
2A3
330
1
100
AcDbSymbolTableRecord
100
AcDbBlockTableRecord
  2
*D4
340
0
  0
BLOCK_RECORD
  5
2AF
330
1
100
AcDbSymbolTableRecord
100
AcDbBlockTableRecord
  2
*D5
340
0
  0
BLOCK_RECORD
  5
2BB
330
1
100
AcDbSymbolTableRecord
100
AcDbBlockTableRecord
  2
*D6
340
0
  0
BLOCK_RECORD
  5
2C7
330
1
100
AcDbSymbolTableRecord
100
AcDbBlockTableRecord
  2
*D7
340
0
  0
BLOCK_RECORD
  5
2D3
330
1
100
AcDbSymbolTableRecord
100
AcDbBlockTableRecord
  2
*D8
340
0
  0
BLOCK_RECORD
  5
2DF
330
1
100
AcDbSymbolTableRecord
100
AcDbBlockTableRecord
  2
*D9
340
0
  0
BLOCK_RECORD
  5
2EB
330
1
100
AcDbSymbolTableRecord
100
AcDbBlockTableRecord
  2
*D10
340
0
  0
BLOCK_RECORD
  5
538
330
1
100
AcDbSymbolTableRecord
100
AcDbBlockTableRecord
  2
*D12
340
0
  0
BLOCK_RECORD
  5
544
330
1
100
AcDbSymbolTableRecord
100
AcDbBlockTableRecord
  2
*D13
340
0
  0
BLOCK_RECORD
  5
550
330
1
100
AcDbSymbolTableRecord
100
AcDbBlockTableRecord
  2
*D14
340
0
  0
BLOCK_RECORD
  5
55C
330
1
100
AcDbSymbolTableRecord
100
AcDbBlockTableRecord
  2
*D15
340
0
  0
BLOCK_RECORD
  5
568
330
1
100
AcDbSymbolTableRecord
100
AcDbBlockTableRecord
  2
*D16
340
0
  0
BLOCK_RECORD
  5
574
330
1
100
AcDbSymbolTableRecord
100
AcDbBlockTableRecord
  2
*D17
340
0
  0
BLOCK_RECORD
  5
580
330
1
100
AcDbSymbolTableRecord
100
AcDbBlockTableRecord
  2
*D18
340
0
  0
BLOCK_RECORD
  5
58C
330
1
100
AcDbSymbolTableRecord
100
AcDbBlockTableRecord
  2
*D19
340
0
  0
ENDTAB
  0
ENDSEC
  0
SECTION
  2
BLOCKS
  0
BLOCK
  5
20
330
1F
100
AcDbEntity
  8
0
100
AcDbBlockBegin
  2
*Model_Space
 70
     0
 10
0.0
 20
0.0
 30
0.0
  3
*Model_Space
  1

  0
ENDBLK
  5
21
330
1F
100
AcDbEntity
  8
0
100
AcDbBlockEnd
  0
BLOCK
  5
5A
330
58
100
AcDbEntity
 67
     1
  8
0
100
AcDbBlockBegin
  2
*Paper_Space
 70
     0
 10
0.0
 20
0.0
 30
0.0
  3
*Paper_Space
  1

  0
ENDBLK
  5
5B
330
58
100
AcDbEntity
 67
     1
  8
0
100
AcDbBlockEnd
  0
BLOCK
  5
5F
330
5D
100
AcDbEntity
 67
     1
  8
0
100
AcDbBlockBegin
  2
*Paper_Space0
 70
     0
 10
0.0
 20
0.0
 30
0.0
  3
*Paper_Space0
  1

  0
ENDBLK
  5
60
330
5D
100
AcDbEntity
 67
     1
  8
0
100
AcDbBlockEnd
  0
BLOCK
  5
BA
330
B9
100
AcDbEntity
  8
0
100
AcDbBlockBegin
  2
_Oblique
 70
     0
 10
0.0
 20
0.0
 30
0.0
  3
_Oblique
  1

  0
LINE
  5
BB
330
B9
100
AcDbEntity
  8
0
  6
ByBlock
 62
     0
370
    -2
100
AcDbLine
 10
-0.5
 20
-0.5
 30
0.0
 11
0.5
 21
0.5
 31
0.0
  0
ENDBLK
  5
BC
330
B9
100
AcDbEntity
  8
0
100
AcDbBlockEnd
  0
BLOCK
  5
C0
330
BD
100
AcDbEntity
  8
0
100
AcDbBlockBegin
  2
A$C00294823
 70
     0
 10
0.0
 20
0.0
 30
0.0
  3
A$C00294823
  1

  0
TEXT
  5
C1
330
BD
100
AcDbEntity
  8
E LEGEND
 62
     7
 48
0.5
100
AcDbText
 10
1642.651275121083
 20
2709.73272232688
 30
-1081.12920899369
 40
710.6013148267615
  1
DDC-C46
  7
ICON56-TTBL$0$ICO.Q4-MARS-CD-SR-E-301-A$0$X-SG1021-TITLE BLOCK_A1$0$ARIAL _10
100
AcDbText
1001
AcDbBlockRepETag
1070
     1
1071
        0
1005
C1
  0
LWPOLYLINE
  5
C2
330
BD
100
AcDbEntity
  8
0
100
AcDbPolyline
 90
        2
 70
     0
 43
0.0
 10
-0.0012468135100789
 20
896.944909899612
 10
-0.0012468135100789
 20
8132.944909899611
1001
AcDbBlockRepETag
1070
     1
1071
        1
1005
C2
  0
LWPOLYLINE
  5
C3
330
BD
100
AcDbEntity
  8
0
100
AcDbPolyline
 90
        2
 70
     0
 43
0.0
 10
8531.99875318649
 20
8132.944909899611
 10
8531.99875318649
 20
896.944909899612
1001
AcDbBlockRepETag
1070
     1
1071
        2
1005
C3
  0
LWPOLYLINE
  5
C4
330
BD
100
AcDbEntity
  8
0
 62
     4
100
AcDbPolyline
 90
        4
 70
     0
 43
0.0
 10
557.9987531864899
 20
8132.944909899611
 10
557.9987531864899
 20
9025.678854854895
 10
7901.99875318649
 20
9025.678854854895
 10
7901.99875318649
 20
8132.944909899611
1001
AcDbBlockRepETag
1070
     1
1071
        3
1005
C4
  0
LWPOLYLINE
  5
C5
330
BD
100
AcDbEntity
  8
0
 62
     4
100
AcDbPolyline
 90
        4
 70
     0
 43
0.0
 10
7901.99875318649
 20
896.944909899612
 10
7901.99875318649
 20
4.210964946425519
 10
557.9987531864899
 20
4.210964946425519
 10
557.9987531864899
 20
896.944909899612
1001
AcDbBlockRepETag
1070
     1
1071
        4
1005
C5
  0
LWPOLYLINE
  5
C6
330
BD
100
AcDbEntity
  8
0
 62
     4
100
AcDbPolyline
 90
        4
 70
     0
 43
0.0
 10
557.9987531864899
 20
8132.944909899611
 10
557.9987531864899
 20
8183.477019991144
 10
7901.99875318649
 20
8183.477019991144
 10
7901.99875318649
 20
8132.944909899611
1001
AcDbBlockRepETag
1070
     1
1071
        5
1005
C6
  0
LWPOLYLINE
  5
C7
330
BD
100
AcDbEntity
  8
0
 62
     4
100
AcDbPolyline
 90
        4
 70
     0
 43
0.0
 10
7901.99875318649
 20
896.944909899612
 10
7901.99875318649
 20
846.4127998080803
 10
557.9987531864899
 20
846.4127998080803
 10
557.9987531864899
 20
896.944909899612
1001
AcDbBlockRepETag
1070
     1
1071
        6
1005
C7
  0
LWPOLYLINE
  5
C8
330
BD
100
AcDbEntity
  8
0
100
AcDbPolyline
 90
        2
 70
     0
 43
0.0
 10
-0.0012468135100789
 20
1634.944909899612
 10
-0.0012468135100789
 20
7394.944909899612
1001
AcDbBlockRepETag
1070
     1
1071
        7
1005
C8
  0
LWPOLYLINE
  5
C9
330
BD
100
AcDbEntity
  8
0
100
AcDbPolyline
 90
        2
 70
     0
 43
0.0
 10
464.8128434661193
 20
7394.944909899612
 10
8024.81284346612
 20
7394.944909899612
1001
AcDbBlockRepETag
1070
     1
1071
        8
1005
C9
  0
LWPOLYLINE
  5
CA
330
BD
100
AcDbEntity
  8
0
100
AcDbPolyline
 90
        2
 70
     0
 43
0.0
 10
8531.99875318649
 20
7394.944909899612
 10
8531.99875318649
 20
1634.944909899612
1001
AcDbBlockRepETag
1070
     1
1071
        9
1005
CA
  0
LWPOLYLINE
  5
CB
330
BD
100
AcDbEntity
  8
0
100
AcDbPolyline
 90
        2
 70
     0
 43
0.0
 10
8024.81284346612
 20
1634.944909899612
 10
7808.812843466119
 20
1634.944909899612
1001
AcDbBlockRepETag
1070
     1
1071
       10
1005
CB
  0
LWPOLYLINE
  5
CC
330
BD
100
AcDbEntity
  8
0
100
AcDbPolyline
 90
        2
 70
     0
 43
0.0
 10
7592.81284346612
 20
1634.944909899612
 10
7376.81284346612
 20
1634.944909899612
1001
AcDbBlockRepETag
1070
     1
1071
       11
1005
CC
  0
LWPOLYLINE
  5
CD
330
BD
100
AcDbEntity
  8
0
100
AcDbPolyline
 90
        2
 70
     0
 43
0.0
 10
7160.81284346612
 20
1634.944909899612
 10
6944.812843466119
 20
1634.944909899612
1001
AcDbBlockRepETag
1070
     1
1071
       12
1005
CD
  0
LWPOLYLINE
  5
CE
330
BD
100
AcDbEntity
  8
0
100
AcDbPolyline
 90
        2
 70
     0
 43
0.0
 10
6728.812843466119
 20
1634.944909899612
 10
6512.812843466119
 20
1634.944909899612
1001
AcDbBlockRepETag
1070
     1
1071
       13
1005
CE
  0
LWPOLYLINE
  5
CF
330
BD
100
AcDbEntity
  8
0
100
AcDbPolyline
 90
        2
 70
     0
 43
0.0
 10
6296.81284346612
 20
1634.944909899612
 10
6080.812843466119
 20
1634.944909899612
1001
AcDbBlockRepETag
1070
     1
1071
       14
1005
CF
  0
LWPOLYLINE
  5
D0
330
BD
100
AcDbEntity
  8
0
100
AcDbPolyline
 90
        2
 70
     0
 43
0.0
 10
5864.812843466119
 20
1634.944909899612
 10
5648.812843466119
 20
1634.944909899612
1001
AcDbBlockRepETag
1070
     1
1071
       15
1005
D0
  0
LWPOLYLINE
  5
D1
330
BD
100
AcDbEntity
  8
0
100
AcDbPolyline
 90
        2
 70
     0
 43
0.0
 10
5432.812843466119
 20
1634.944909899612
 10
5216.81284346612
 20
1634.944909899612
1001
AcDbBlockRepETag
1070
     1
1071
       16
1005
D1
  0
LWPOLYLINE
  5
D2
330
BD
100
AcDbEntity
  8
0
100
AcDbPolyline
 90
        2
 70
     0
 43
0.0
 10
5000.812843466119
 20
1634.944909899612
 10
4784.812843466119
 20
1634.944909899612
1001
AcDbBlockRepETag
1070
     1
1071
       17
1005
D2
  0
LWPOLYLINE
  5
D3
330
BD
100
AcDbEntity
  8
0
100
AcDbPolyline
 90
        2
 70
     0
 43
0.0
 10
4568.812843466119
 20
1634.944909899612
 10
4352.812843466119
 20
1634.944909899612
1001
AcDbBlockRepETag
1070
     1
1071
       18
1005
D3
  0
LWPOLYLINE
  5
D4
330
BD
100
AcDbEntity
  8
0
100
AcDbPolyline
 90
        2
 70
     0
 43
0.0
 10
4136.812843466119
 20
1634.944909899612
 10
3920.81284346612
 20
1634.944909899612
1001
AcDbBlockRepETag
1070
     1
1071
       19
1005
D4
  0
LWPOLYLINE
  5
D5
330
BD
100
AcDbEntity
  8
0
100
AcDbPolyline
 90
        2
 70
     0
 43
0.0
 10
3704.81284346612
 20
1634.944909899612
 10
3488.81284346612
 20
1634.944909899612
1001
AcDbBlockRepETag
1070
     1
1071
       20
1005
D5
  0
LWPOLYLINE
  5
D6
330
BD
100
AcDbEntity
  8
0
100
AcDbPolyline
 90
        2
 70
     0
 43
0.0
 10
3272.81284346612
 20
1634.944909899612
 10
3056.812843466119
 20
1634.944909899612
1001
AcDbBlockRepETag
1070
     1
1071
       21
1005
D6
  0
LWPOLYLINE
  5
D7
330
BD
100
AcDbEntity
  8
0
100
AcDbPolyline
 90
        2
 70
     0
 43
0.0
 10
2840.81284346612
 20
1634.944909899612
 10
2624.812843466119
 20
1634.944909899612
1001
AcDbBlockRepETag
1070
     1
1071
       22
1005
D7
  0
LWPOLYLINE
  5
D8
330
BD
100
AcDbEntity
  8
0
100
AcDbPolyline
 90
        2
 70
     0
 43
0.0
 10
2408.812843466119
 20
1634.944909899612
 10
2192.81284346612
 20
1634.944909899612
1001
AcDbBlockRepETag
1070
     1
1071
       23
1005
D8
  0
LWPOLYLINE
  5
D9
330
BD
100
AcDbEntity
  8
0
100
AcDbPolyline
 90
        2
 70
     0
 43
0.0
 10
1976.812843466119
 20
1634.944909899612
 10
1760.812843466119
 20
1634.944909899612
1001
AcDbBlockRepETag
1070
     1
1071
       24
1005
D9
  0
LWPOLYLINE
  5
DA
330
BD
100
AcDbEntity
  8
0
100
AcDbPolyline
 90
        2
 70
     0
 43
0.0
 10
1544.812843466119
 20
1634.944909899612
 10
1328.812843466119
 20
1634.944909899612
1001
AcDbBlockRepETag
1070
     1
1071
       25
1005
DA
  0
LWPOLYLINE
  5
DB
330
BD
100
AcDbEntity
  8
0
100
AcDbPolyline
 90
        2
 70
     0
 43
0.0
 10
1112.812843466119
 20
1634.944909899612
 10
896.8128434661194
 20
1634.944909899612
1001
AcDbBlockRepETag
1070
     1
1071
       26
1005
DB
  0
LWPOLYLINE
  5
DC
330
BD
100
AcDbEntity
  8
0
100
AcDbPolyline
 90
        2
 70
     0
 43
0.0
 10
680.8128434661194
 20
1634.944909899612
 10
464.8128434661193
 20
1634.944909899612
1001
AcDbBlockRepETag
1070
     1
1071
       27
1005
DC
  0
LWPOLYLINE
  5
DD
330
BD
100
AcDbEntity
  8
0
100
AcDbPolyline
 90
        4
 70
     1
 43
0.0
 10
-0.0012468135100789
 20
896.944909899612
 10
-0.0012468135100789
 20
8132.944909899611
 10
8531.99875318649
 20
8132.944909899611
 10
8531.99875318649
 20
896.944909899612
1001
AcDbBlockRepETag
1070
     1
1071
       28
1005
DD
  0
LWPOLYLINE
  5
DE
330
BD
100
AcDbEntity
  8
0
100
AcDbPolyline
 90
        4
 70
     1
 43
0.0
 10
-0.0012468135100789
 20
2390.944909899612
 10
-0.0012468135100789
 20
6638.944909899612
 10
8531.99875318649
 20
6638.944909899612
 10
8531.99875318649
 20
2390.944909899612
1001
AcDbBlockRepETag
1070
     1
1071
       29
1005
DE
  0
LWPOLYLINE
  5
DF
330
BD
100
AcDbEntity
  8
0
 62
     4
100
AcDbPolyline
 90
        4
 70
     1
 43
0.0
 10
557.9987531864899
 20
8490.880689716549
 10
557.9987531864899
 20
9029.889864029014
 10
7901.99875318649
 20
9029.889864029014
 10
7901.99875318649
 20
8490.880689716549
1001
AcDbBlockRepETag
1070
     1
1071
       30
1005
DF
  0
LWPOLYLINE
  5
E0
330
BD
100
AcDbEntity
  8
0
 62
     4
100
AcDbPolyline
 90
        4
 70
     1
 43
0.0
 10
557.9987531864899
 20
8490.880689716549
 10
557.9987531864899
 20
9029.889864029014
 10
925.198753186909
 20
9029.889864029014
 10
925.198753186909
 20
8490.880689716549
1001
AcDbBlockRepETag
1070
     1
1071
       31
1005
E0
  0
CIRCLE
  5
E1
330
BD
100
AcDbEntity
  8
0
 62
     4
100
AcDbCircle
 10
741.5987531866995
 20
8758.279772285721
 30
0.0
 40
134.7522935779816
1001
AcDbBlockRepETag
1070
     1
1071
       32
1005
E1
  0
LWPOLYLINE
  5
E2
330
BD
100
AcDbEntity
  8
0
 62
     4
100
AcDbPolyline
 90
        4
 70
     1
 43
0.0
 10
816.0851055234088
 20
8861.187490369543
 10
851.0231819882173
 20
8822.812783272123
 10
667.1124008499901
 20
8655.372054201901
 10
632.1743243851815
 20
8693.746761297225
1001
AcDbBlockRepETag
1070
     1
1071
       33
1005
E2
  0
LWPOLYLINE
  5
E3
330
BD
100
AcDbEntity
  8
0
 62
     4
100
AcDbPolyline
 90
        4
 70
     1
 43
0.0
 10
925.198753186909
 20
8490.880689716549
 10
925.198753186909
 20
9029.889864029014
 10
1292.398753186629
 20
9029.889864029014
 10
1292.398753186629
 20
8490.880689716549
1001
AcDbBlockRepETag
1070
     1
1071
       34
1005
E3
  0
CIRCLE
  5
E4
330
BD
100
AcDbEntity
  8
0
 62
     4
100
AcDbCircle
 10
1108.798753186769
 20
8758.279772285721
 30
0.0
 40
134.7522935779816
1001
AcDbBlockRepETag
1070
     1
1071
       35
1005
E4
  0
LWPOLYLINE
  5
E5
330
BD
100
AcDbEntity
  8
0
 62
     4
100
AcDbPolyline
 90
        4
 70
     1
 43
0.0
 10
1183.285105523828
 20
8861.187490369543
 10
1218.223181988636
 20
8822.812783272123
 10
1034.31240084971
 20
8655.372054201901
 10
999.3743243845528
 20
8693.746761297225
1001
AcDbBlockRepETag
1070
     1
1071
       36
1005
E5
  0
LWPOLYLINE
  5
E6
330
BD
100
AcDbEntity
  8
0
 62
     4
100
AcDbPolyline
 90
        4
 70
     1
 43
0.0
 10
1292.398753186629
 20
8490.880689716549
 10
1292.398753186629
 20
9029.889864029014
 10
1659.598753186699
 20
9029.889864029014
 10
1659.598753186699
 20
8490.880689716549
1001
AcDbBlockRepETag
1070
     1
1071
       37
1005
E6
  0
CIRCLE
  5
E7
330
BD
100
AcDbEntity
  8
0
 62
     4
100
AcDbCircle
 10
1475.99875318649
 20
8758.279772285721
 30
0.0
 40
134.7522935779816
1001
AcDbBlockRepETag
1070
     1
1071
       38
1005
E7
  0
LWPOLYLINE
  5
E8
330
BD
100
AcDbEntity
  8
0
 62
     4
100
AcDbPolyline
 90
        4
 70
     1
 43
0.0
 10
1550.485105523548
 20
8861.187490369543
 10
1585.423181988706
 20
8822.812783272123
 10
1401.51240084978
 20
8655.372054201901
 10
1366.574324384972
 20
8693.746761297225
1001
AcDbBlockRepETag
1070
     1
1071
       39
1005
E8
  0
LWPOLYLINE
  5
E9
330
BD
100
AcDbEntity
  8
0
 62
     4
100
AcDbPolyline
 90
        4
 70
     1
 43
0.0
 10
1659.598753186699
 20
8490.880689716549
 10
1659.598753186699
 20
9029.889864029014
 10
2026.798753186769
 20
9029.889864029014
 10
2026.798753186769
 20
8490.880689716549
1001
AcDbBlockRepETag
1070
     1
1071
       40
1005
E9
  0
CIRCLE
  5
EA
330
BD
100
AcDbEntity
  8
0
 62
     4
100
AcDbCircle
 10
1843.198753186909
 20
8758.279772285721
 30
0.0
 40
134.7522935779816
1001
AcDbBlockRepETag
1070
     1
1071
       41
1005
EA
  0
LWPOLYLINE
  5
EB
330
BD
100
AcDbEntity
  8
0
 62
     4
100
AcDbPolyline
 90
        4
 70
     1
 43
0.0
 10
1917.685105523618
 20
8861.187490369543
 10
1952.623181988427
 20
8822.812783272123
 10
1768.71240084985
 20
8655.372054201901
 10
1733.774324384693
 20
8693.746761297225
1001
AcDbBlockRepETag
1070
     1
1071
       42
1005
EB
  0
LWPOLYLINE
  5
EC
330
BD
100
AcDbEntity
  8
0
 62
     4
100
AcDbPolyline
 90
        4
 70
     1
 43
0.0
 10
2026.798753186769
 20
8490.880689716549
 10
2026.798753186769
 20
9029.889864029014
 10
2393.99875318649
 20
9029.889864029014
 10
2393.99875318649
 20
8490.880689716549
1001
AcDbBlockRepETag
1070
     1
1071
       43
1005
EC
  0
CIRCLE
  5
ED
330
BD
100
AcDbEntity
  8
0
 62
     4
100
AcDbCircle
 10
2210.39875318663
 20
8758.279772285721
 30
0.0
 40
134.7522935779816
1001
AcDbBlockRepETag
1070
     1
1071
       44
1005
ED
  0
LWPOLYLINE
  5
EE
330
BD
100
AcDbEntity
  8
0
 62
     4
100
AcDbPolyline
 90
        4
 70
     1
 43
0.0
 10
2284.885105523688
 20
8861.187490369543
 10
2319.823181988148
 20
8822.812783272123
 10
2135.912400849571
 20
8655.372054201901
 10
2100.974324384762
 20
8693.746761297225
1001
AcDbBlockRepETag
1070
     1
1071
       45
1005
EE
  0
LWPOLYLINE
  5
EF
330
BD
100
AcDbEntity
  8
0
 62
     4
100
AcDbPolyline
 90
        4
 70
     1
 43
0.0
 10
2393.99875318649
 20
8490.880689716549
 10
2393.99875318649
 20
9029.889864029014
 10
2761.198753186909
 20
9029.889864029014
 10
2761.198753186909
 20
8490.880689716549
1001
AcDbBlockRepETag
1070
     1
1071
       46
1005
EF
  0
CIRCLE
  5
F0
330
BD
100
AcDbEntity
  8
0
 62
     4
100
AcDbCircle
 10
2577.5987531867
 20
8758.279772285721
 30
0.0
 40
134.7522935779816
1001
AcDbBlockRepETag
1070
     1
1071
       47
1005
F0
  0
LWPOLYLINE
  5
F1
330
BD
100
AcDbEntity
  8
0
 62
     4
100
AcDbPolyline
 90
        4
 70
     1
 43
0.0
 10
2652.085105523409
 20
8861.187490369543
 10
2687.023181988218
 20
8822.812783272123
 10
2503.11240084999
 20
8655.372054201901
 10
2468.174324385182
 20
8693.746761297225
1001
AcDbBlockRepETag
1070
     1
1071
       48
1005
F1
  0
LWPOLYLINE
  5
F2
330
BD
100
AcDbEntity
  8
0
 62
     4
100
AcDbPolyline
 90
        4
 70
     1
 43
0.0
 10
2761.198753186909
 20
8490.880689716549
 10
2761.198753186909
 20
9029.889864029014
 10
3128.39875318663
 20
9029.889864029014
 10
3128.39875318663
 20
8490.880689716549
1001
AcDbBlockRepETag
1070
     1
1071
       49
1005
F2
  0
CIRCLE
  5
F3
330
BD
100
AcDbEntity
  8
0
 62
     4
100
AcDbCircle
 10
2944.798753186769
 20
8758.279772285721
 30
0.0
 40
134.7522935779816
1001
AcDbBlockRepETag
1070
     1
1071
       50
1005
F3
  0
LWPOLYLINE
  5
F4
330
BD
100
AcDbEntity
  8
0
 62
     4
100
AcDbPolyline
 90
        4
 70
     1
 43
0.0
 10
3019.285105523828
 20
8861.187490369543
 10
3054.223181988636
 20
8822.812783272123
 10
2870.312400849711
 20
8655.372054201901
 10
2835.374324384553
 20
8693.746761297225
1001
AcDbBlockRepETag
1070
     1
1071
       51
1005
F4
  0
LWPOLYLINE
  5
F5
330
BD
100
AcDbEntity
  8
0
 62
     4
100
AcDbPolyline
 90
        4
 70
     1
 43
0.0
 10
3128.39875318663
 20
8490.880689716549
 10
3128.39875318663
 20
9029.889864029014
 10
3495.5987531867
 20
9029.889864029014
 10
3495.5987531867
 20
8490.880689716549
1001
AcDbBlockRepETag
1070
     1
1071
       52
1005
F5
  0
CIRCLE
  5
F6
330
BD
100
AcDbEntity
  8
0
 62
     4
100
AcDbCircle
 10
3311.99875318649
 20
8758.279772285721
 30
0.0
 40
134.7522935779816
1001
AcDbBlockRepETag
1070
     1
1071
       53
1005
F6
  0
LWPOLYLINE
  5
F7
330
BD
100
AcDbEntity
  8
0
 62
     4
100
AcDbPolyline
 90
        4
 70
     1
 43
0.0
 10
3386.485105523549
 20
8861.187490369543
 10
3421.423181988707
 20
8822.812783272123
 10
3237.512400849781
 20
8655.372054201901
 10
3202.574324384972
 20
8693.746761297225
1001
AcDbBlockRepETag
1070
     1
1071
       54
1005
F7
  0
LWPOLYLINE
  5
F8
330
BD
100
AcDbEntity
  8
0
 62
     4
100
AcDbPolyline
 90
        4
 70
     1
 43
0.0
 10
3495.5987531867
 20
8490.880689716549
 10
3495.5987531867
 20
9029.889864029014
 10
3862.79875318677
 20
9029.889864029014
 10
3862.79875318677
 20
8490.880689716549
1001
AcDbBlockRepETag
1070
     1
1071
       55
1005
F8
  0
CIRCLE
  5
F9
330
BD
100
AcDbEntity
  8
0
 62
     4
100
AcDbCircle
 10
3679.198753186909
 20
8758.279772285721
 30
0.0
 40
134.7522935779816
1001
AcDbBlockRepETag
1070
     1
1071
       56
1005
F9
  0
LWPOLYLINE
  5
FA
330
BD
100
AcDbEntity
  8
0
 62
     4
100
AcDbPolyline
 90
        4
 70
     1
 43
0.0
 10
3753.685105523619
 20
8861.187490369543
 10
3788.623181988427
 20
8822.812783272123
 10
3604.712400849851
 20
8655.372054201901
 10
3569.774324384693
 20
8693.746761297225
1001
AcDbBlockRepETag
1070
     1
1071
       57
1005
FA
  0
LWPOLYLINE
  5
FB
330
BD
100
AcDbEntity
  8
0
 62
     4
100
AcDbPolyline
 90
        4
 70
     1
 43
0.0
 10
3862.79875318677
 20
8490.880689716549
 10
3862.79875318677
 20
9029.889864029014
 10
4229.99875318649
 20
9029.889864029014
 10
4229.99875318649
 20
8490.880689716549
1001
AcDbBlockRepETag
1070
     1
1071
       58
1005
FB
  0
CIRCLE
  5
FC
330
BD
100
AcDbEntity
  8
0
 62
     4
100
AcDbCircle
 10
4046.39875318663
 20
8758.279772285721
 30
0.0
 40
134.7522935779816
1001
AcDbBlockRepETag
1070
     1
1071
       59
1005
FC
  0
LWPOLYLINE
  5
FD
330
BD
100
AcDbEntity
  8
0
 62
     4
100
AcDbPolyline
 90
        4
 70
     1
 43
0.0
 10
4120.885105523688
 20
8861.187490369543
 10
4155.823181988147
 20
8822.812783272123
 10
3971.912400849571
 20
8655.372054201901
 10
3936.974324384763
 20
8693.746761297225
1001
AcDbBlockRepETag
1070
     1
1071
       60
1005
FD
  0
LWPOLYLINE
  5
FE
330
BD
100
AcDbEntity
  8
0
 62
     4
100
AcDbPolyline
 90
        4
 70
     1
 43
0.0
 10
4229.99875318649
 20
8490.880689716549
 10
4229.99875318649
 20
9029.889864029014
 10
4597.198753186908
 20
9029.889864029014
 10
4597.198753186908
 20
8490.880689716549
1001
AcDbBlockRepETag
1070
     1
1071
       61
1005
FE
  0
CIRCLE
  5
FF
330
BD
100
AcDbEntity
  8
0
 62
     4
100
AcDbCircle
 10
4413.5987531867
 20
8758.279772285721
 30
0.0
 40
134.7522935779816
1001
AcDbBlockRepETag
1070
     1
1071
       62
1005
FF
  0
LWPOLYLINE
  5
100
330
BD
100
AcDbEntity
  8
0
 62
     4
100
AcDbPolyline
 90
        4
 70
     1
 43
0.0
 10
4488.085105523409
 20
8861.187490369543
 10
4523.023181988217
 20
8822.812783272123
 10
4339.11240084999
 20
8655.372054201901
 10
4304.174324385181
 20
8693.746761297225
1001
AcDbBlockRepETag
1070
     1
1071
       63
1005
100
  0
LWPOLYLINE
  5
101
330
BD
100
AcDbEntity
  8
0
 62
     4
100
AcDbPolyline
 90
        4
 70
     1
 43
0.0
 10
4597.198753186908
 20
8490.880689716549
 10
4597.198753186908
 20
9029.889864029014
 10
4964.398753186629
 20
9029.889864029014
 10
4964.398753186629
 20
8490.880689716549
1001
AcDbBlockRepETag
1070
     1
1071
       64
1005
101
  0
CIRCLE
  5
102
330
BD
100
AcDbEntity
  8
0
 62
     4
100
AcDbCircle
 10
4780.798753186769
 20
8758.279772285721
 30
0.0
 40
134.7522935779816
1001
AcDbBlockRepETag
1070
     1
1071
       65
1005
102
  0
LWPOLYLINE
  5
103
330
BD
100
AcDbEntity
  8
0
 62
     4
100
AcDbPolyline
 90
        4
 70
     1
 43
0.0
 10
4855.285105523828
 20
8861.187490369543
 10
4890.223181988637
 20
8822.812783272123
 10
4706.312400849711
 20
8655.372054201901
 10
4671.374324384553
 20
8693.746761297225
1001
AcDbBlockRepETag
1070
     1
1071
       66
1005
103
  0
LWPOLYLINE
  5
104
330
BD
100
AcDbEntity
  8
0
 62
     4
100
AcDbPolyline
 90
        4
 70
     1
 43
0.0
 10
4964.398753186629
 20
8490.880689716549
 10
4964.398753186629
 20
9029.889864029014
 10
5331.5987531867
 20
9029.889864029014
 10
5331.5987531867
 20
8490.880689716549
1001
AcDbBlockRepETag
1070
     1
1071
       67
1005
104
  0
CIRCLE
  5
105
330
BD
100
AcDbEntity
  8
0
 62
     4
100
AcDbCircle
 10
5147.99875318649
 20
8758.279772285721
 30
0.0
 40
134.7522935779816
1001
AcDbBlockRepETag
1070
     1
1071
       68
1005
105
  0
LWPOLYLINE
  5
106
330
BD
100
AcDbEntity
  8
0
 62
     4
100
AcDbPolyline
 90
        4
 70
     1
 43
0.0
 10
5222.485105523548
 20
8861.187490369543
 10
5257.423181988706
 20
8822.812783272123
 10
5073.51240084978
 20
8655.372054201901
 10
5038.574324384972
 20
8693.746761297225
1001
AcDbBlockRepETag
1070
     1
1071
       69
1005
106
  0
LWPOLYLINE
  5
107
330
BD
100
AcDbEntity
  8
0
 62
     4
100
AcDbPolyline
 90
        4
 70
     1
 43
0.0
 10
5331.5987531867
 20
8490.880689716549
 10
5331.5987531867
 20
9029.889864029014
 10
5698.798753186769
 20
9029.889864029014
 10
5698.798753186769
 20
8490.880689716549
1001
AcDbBlockRepETag
1070
     1
1071
       70
1005
107
  0
CIRCLE
  5
108
330
BD
100
AcDbEntity
  8
0
 62
     4
100
AcDbCircle
 10
5515.198753186909
 20
8758.279772285721
 30
0.0
 40
134.7522935779816
1001
AcDbBlockRepETag
1070
     1
1071
       71
1005
108
  0
LWPOLYLINE
  5
109
330
BD
100
AcDbEntity
  8
0
 62
     4
100
AcDbPolyline
 90
        4
 70
     1
 43
0.0
 10
5589.685105523618
 20
8861.187490369543
 10
5624.623181988427
 20
8822.812783272123
 10
5440.71240084985
 20
8655.372054201901
 10
5405.774324384693
 20
8693.746761297225
1001
AcDbBlockRepETag
1070
     1
1071
       72
1005
109
  0
LWPOLYLINE
  5
10A
330
BD
100
AcDbEntity
  8
0
 62
     4
100
AcDbPolyline
 90
        4
 70
     1
 43
0.0
 10
5698.798753186769
 20
8490.880689716549
 10
5698.798753186769
 20
9029.889864029014
 10
6065.99875318649
 20
9029.889864029014
 10
6065.99875318649
 20
8490.880689716549
1001
AcDbBlockRepETag
1070
     1
1071
       73
1005
10A
  0
CIRCLE
  5
10B
330
BD
100
AcDbEntity
  8
0
 62
     4
100
AcDbCircle
 10
5882.398753186629
 20
8758.279772285721
 30
0.0
 40
134.7522935779816
1001
AcDbBlockRepETag
1070
     1
1071
       74
1005
10B
  0
LWPOLYLINE
  5
10C
330
BD
100
AcDbEntity
  8
0
 62
     4
100
AcDbPolyline
 90
        4
 70
     1
 43
0.0
 10
5956.885105523689
 20
8861.187490369543
 10
5991.823181988148
 20
8822.812783272123
 10
5807.912400849571
 20
8655.372054201901
 10
5772.974324384763
 20
8693.746761297225
1001
AcDbBlockRepETag
1070
     1
1071
       75
1005
10C
  0
LWPOLYLINE
  5
10D
330
BD
100
AcDbEntity
  8
0
 62
     4
100
AcDbPolyline
 90
        4
 70
     1
 43
0.0
 10
6065.99875318649
 20
8490.880689716549
 10
6065.99875318649
 20
9029.889864029014
 10
6433.198753186909
 20
9029.889864029014
 10
6433.198753186909
 20
8490.880689716549
1001
AcDbBlockRepETag
1070
     1
1071
       76
1005
10D
  0
CIRCLE
  5
10E
330
BD
100
AcDbEntity
  8
0
 62
     4
100
AcDbCircle
 10
6249.5987531867
 20
8758.279772285721
 30
0.0
 40
134.7522935779816
1001
AcDbBlockRepETag
1070
     1
1071
       77
1005
10E
  0
LWPOLYLINE
  5
10F
330
BD
100
AcDbEntity
  8
0
 62
     4
100
AcDbPolyline
 90
        4
 70
     1
 43
0.0
 10
6324.085105523409
 20
8861.187490369543
 10
6359.023181988217
 20
8822.812783272123
 10
6175.11240084999
 20
8655.372054201901
 10
6140.174324385181
 20
8693.746761297225
1001
AcDbBlockRepETag
1070
     1
1071
       78
1005
10F
  0
LWPOLYLINE
  5
110
330
BD
100
AcDbEntity
  8
0
 62
     4
100
AcDbPolyline
 90
        4
 70
     1
 43
0.0
 10
6433.198753186909
 20
8490.880689716549
 10
6433.198753186909
 20
9029.889864029014
 10
6800.398753186629
 20
9029.889864029014
 10
6800.398753186629
 20
8490.880689716549
1001
AcDbBlockRepETag
1070
     1
1071
       79
1005
110
  0
CIRCLE
  5
111
330
BD
100
AcDbEntity
  8
0
 62
     4
100
AcDbCircle
 10
6616.79875318677
 20
8758.279772285721
 30
0.0
 40
134.7522935779816
1001
AcDbBlockRepETag
1070
     1
1071
       80
1005
111
  0
LWPOLYLINE
  5
112
330
BD
100
AcDbEntity
  8
0
 62
     4
100
AcDbPolyline
 90
        4
 70
     1
 43
0.0
 10
6691.285105523828
 20
8861.187490369543
 10
6726.223181988636
 20
8822.812783272123
 10
6542.312400849711
 20
8655.372054201901
 10
6507.374324384553
 20
8693.746761297225
1001
AcDbBlockRepETag
1070
     1
1071
       81
1005
112
  0
LWPOLYLINE
  5
113
330
BD
100
AcDbEntity
  8
0
 62
     4
100
AcDbPolyline
 90
        4
 70
     1
 43
0.0
 10
6800.398753186629
 20
8490.880689716549
 10
6800.398753186629
 20
9029.889864029014
 10
7167.598753186699
 20
9029.889864029014
 10
7167.598753186699
 20
8490.880689716549
1001
AcDbBlockRepETag
1070
     1
1071
       82
1005
113
  0
CIRCLE
  5
114
330
BD
100
AcDbEntity
  8
0
 62
     4
100
AcDbCircle
 10
6983.99875318649
 20
8758.279772285721
 30
0.0
 40
134.7522935779816
1001
AcDbBlockRepETag
1070
     1
1071
       83
1005
114
  0
LWPOLYLINE
  5
115
330
BD
100
AcDbEntity
  8
0
 62
     4
100
AcDbPolyline
 90
        4
 70
     1
 43
0.0
 10
7058.485105523549
 20
8861.187490369543
 10
7093.423181988707
 20
8822.812783272123
 10
6909.512400849781
 20
8655.372054201901
 10
6874.574324384972
 20
8693.746761297225
1001
AcDbBlockRepETag
1070
     1
1071
       84
1005
115
  0
LWPOLYLINE
  5
116
330
BD
100
AcDbEntity
  8
0
 62
     4
100
AcDbPolyline
 90
        4
 70
     1
 43
0.0
 10
7167.598753186699
 20
8490.880689716549
 10
7167.598753186699
 20
9029.889864029014
 10
7534.79875318677
 20
9029.889864029014
 10
7534.79875318677
 20
8490.880689716549
1001
AcDbBlockRepETag
1070
     1
1071
       85
1005
116
  0
CIRCLE
  5
117
330
BD
100
AcDbEntity
  8
0
 62
     4
100
AcDbCircle
 10
7351.198753186909
 20
8758.279772285721
 30
0.0
 40
134.7522935779816
1001
AcDbBlockRepETag
1070
     1
1071
       86
1005
117
  0
LWPOLYLINE
  5
118
330
BD
100
AcDbEntity
  8
0
 62
     4
100
AcDbPolyline
 90
        4
 70
     1
 43
0.0
 10
7425.685105523618
 20
8861.187490369543
 10
7460.623181988427
 20
8822.812783272123
 10
7276.71240084985
 20
8655.372054201901
 10
7241.774324384692
 20
8693.746761297225
1001
AcDbBlockRepETag
1070
     1
1071
       87
1005
118
  0
LWPOLYLINE
  5
119
330
BD
100
AcDbEntity
  8
0
 62
     4
100
AcDbPolyline
 90
        4
 70
     1
 43
0.0
 10
7534.79875318677
 20
8490.880689716549
 10
7534.79875318677
 20
9029.889864029014
 10
7901.99875318649
 20
9029.889864029014
 10
7901.99875318649
 20
8490.880689716549
1001
AcDbBlockRepETag
1070
     1
1071
       88
1005
119
  0
CIRCLE
  5
11A
330
BD
100
AcDbEntity
  8
0
 62
     4
100
AcDbCircle
 10
7718.39875318663
 20
8758.279772285721
 30
0.0
 40
134.7522935779816
1001
AcDbBlockRepETag
1070
     1
1071
       89
1005
11A
  0
LWPOLYLINE
  5
11B
330
BD
100
AcDbEntity
  8
0
 62
     4
100
AcDbPolyline
 90
        4
 70
     1
 43
0.0
 10
7792.885105523688
 20
8861.187490369543
 10
7827.823181988148
 20
8822.812783272123
 10
7643.912400849571
 20
8655.372054201901
 10
7608.974324384763
 20
8693.746761297225
1001
AcDbBlockRepETag
1070
     1
1071
       90
1005
11B
  0
LWPOLYLINE
  5
11C
330
BD
100
AcDbEntity
  8
0
 62
     4
100
AcDbPolyline
 90
        4
 70
     1
 43
0.0
 10
557.9987531864899
 20
539.0091300826752
 10
557.9987531864899
 20
-0.0000442276941612
 10
7901.99875318649
 20
-0.0000442276941612
 10
7901.99875318649
 20
539.0091300826752
1001
AcDbBlockRepETag
1070
     1
1071
       91
1005
11C
  0
LWPOLYLINE
  5
11D
330
BD
100
AcDbEntity
  8
0
 62
     4
100
AcDbPolyline
 90
        4
 70
     1
 43
0.0
 10
557.9987531864899
 20
539.0091300826752
 10
557.9987531864899
 20
-0.0000442276941612
 10
925.198753186909
 20
-0.0000442276941612
 10
925.198753186909
 20
539.0091300826752
1001
AcDbBlockRepETag
1070
     1
1071
       92
1005
11D
  0
CIRCLE
  5
11E
330
BD
100
AcDbEntity
  8
0
 62
     4
100
AcDbCircle
 10
741.5987531866995
 20
271.6100475155981
 30
0.0
 40
134.7522935779816
1001
AcDbBlockRepETag
1070
     1
1071
       93
1005
11E
  0
LWPOLYLINE
  5
11F
330
BD
100
AcDbEntity
  8
0
 62
     4
100
AcDbPolyline
 90
        4
 70
     1
 43
0.0
 10
816.0851055234088
 20
168.7023294317769
 10
851.0231819882173
 20
207.0770365271019
 10
667.1124008499901
 20
374.5177655994194
 10
632.1743243851815
 20
336.1430585019989
1001
AcDbBlockRepETag
1070
     1
1071
       94
1005
11F
  0
LWPOLYLINE
  5
120
330
BD
100
AcDbEntity
  8
0
 62
     4
100
AcDbPolyline
 90
        4
 70
     1
 43
0.0
 10
925.198753186909
 20
539.0091300826752
 10
925.198753186909
 20
-0.0000442276941612
 10
1292.398753186629
 20
-0.0000442276941612
 10
1292.398753186629
 20
539.0091300826752
1001
AcDbBlockRepETag
1070
     1
1071
       95
1005
120
  0
CIRCLE
  5
121
330
BD
100
AcDbEntity
  8
0
 62
     4
100
AcDbCircle
 10
1108.798753186769
 20
271.6100475155981
 30
0.0
 40
134.7522935779816
1001
AcDbBlockRepETag
1070
     1
1071
       96
1005
121
  0
LWPOLYLINE
  5
122
330
BD
100
AcDbEntity
  8
0
 62
     4
100
AcDbPolyline
 90
        4
 70
     1
 43
0.0
 10
1183.285105523828
 20
168.7023294317769
 10
1218.223181988636
 20
207.0770365271019
 10
1034.31240084971
 20
374.5177655994194
 10
999.3743243845528
 20
336.1430585019989
1001
AcDbBlockRepETag
1070
     1
1071
       97
1005
122
  0
LWPOLYLINE
  5
123
330
BD
100
AcDbEntity
  8
0
 62
     4
100
AcDbPolyline
 90
        4
 70
     1
 43
0.0
 10
1292.398753186629
 20
539.0091300826752
 10
1292.398753186629
 20
-0.0000442276941612
 10
1659.598753186699
 20
-0.0000442276941612
 10
1659.598753186699
 20
539.0091300826752
1001
AcDbBlockRepETag
1070
     1
1071
       98
1005
123
  0
CIRCLE
  5
124
330
BD
100
AcDbEntity
  8
0
 62
     4
100
AcDbCircle
 10
1475.99875318649
 20
271.6100475155981
 30
0.0
 40
134.7522935779816
1001
AcDbBlockRepETag
1070
     1
1071
       99
1005
124
  0
LWPOLYLINE
  5
125
330
BD
100
AcDbEntity
  8
0
 62
     4
100
AcDbPolyline
 90
        4
 70
     1
 43
0.0
 10
1550.485105523548
 20
168.7023294317769
 10
1585.423181988706
 20
207.0770365271019
 10
1401.51240084978
 20
374.5177655994194
 10
1366.574324384972
 20
336.1430585019989
1001
AcDbBlockRepETag
1070
     1
1071
      100
1005
125
  0
LWPOLYLINE
  5
126
330
BD
100
AcDbEntity
  8
0
 62
     4
100
AcDbPolyline
 90
        4
 70
     1
 43
0.0
 10
1659.598753186699
 20
539.0091300826752
 10
1659.598753186699
 20
-0.0000442276941612
 10
2026.798753186769
 20
-0.0000442276941612
 10
2026.798753186769
 20
539.0091300826752
1001
AcDbBlockRepETag
1070
     1
1071
      101
1005
126
  0
CIRCLE
  5
127
330
BD
100
AcDbEntity
  8
0
 62
     4
100
AcDbCircle
 10
1843.198753186909
 20
271.6100475155981
 30
0.0
 40
134.7522935779816
1001
AcDbBlockRepETag
1070
     1
1071
      102
1005
127
  0
LWPOLYLINE
  5
128
330
BD
100
AcDbEntity
  8
0
 62
     4
100
AcDbPolyline
 90
        4
 70
     1
 43
0.0
 10
1917.685105523618
 20
168.7023294317769
 10
1952.623181988427
 20
207.0770365271019
 10
1768.71240084985
 20
374.5177655994194
 10
1733.774324384693
 20
336.1430585019989
1001
AcDbBlockRepETag
1070
     1
1071
      103
1005
128
  0
LWPOLYLINE
  5
129
330
BD
100
AcDbEntity
  8
0
 62
     4
100
AcDbPolyline
 90
        4
 70
     1
 43
0.0
 10
2026.798753186769
 20
539.0091300826752
 10
2026.798753186769
 20
-0.0000442276941612
 10
2393.99875318649
 20
-0.0000442276941612
 10
2393.99875318649
 20
539.0091300826752
1001
AcDbBlockRepETag
1070
     1
1071
      104
1005
129
  0
CIRCLE
  5
12A
330
BD
100
AcDbEntity
  8
0
 62
     4
100
AcDbCircle
 10
2210.39875318663
 20
271.6100475155981
 30
0.0
 40
134.7522935779816
1001
AcDbBlockRepETag
1070
     1
1071
      105
1005
12A
  0
LWPOLYLINE
  5
12B
330
BD
100
AcDbEntity
  8
0
 62
     4
100
AcDbPolyline
 90
        4
 70
     1
 43
0.0
 10
2284.885105523688
 20
168.7023294317769
 10
2319.823181988148
 20
207.0770365271019
 10
2135.912400849571
 20
374.5177655994194
 10
2100.974324384762
 20
336.1430585019989
1001
AcDbBlockRepETag
1070
     1
1071
      106
1005
12B
  0
LWPOLYLINE
  5
12C
330
BD
100
AcDbEntity
  8
0
 62
     4
100
AcDbPolyline
 90
        4
 70
     1
 43
0.0
 10
2393.99875318649
 20
539.0091300826752
 10
2393.99875318649
 20
-0.0000442276941612
 10
2761.198753186909
 20
-0.0000442276941612
 10
2761.198753186909
 20
539.0091300826752
1001
AcDbBlockRepETag
1070
     1
1071
      107
1005
12C
  0
CIRCLE
  5
12D
330
BD
100
AcDbEntity
  8
0
 62
     4
100
AcDbCircle
 10
2577.5987531867
 20
271.6100475155981
 30
0.0
 40
134.7522935779816
1001
AcDbBlockRepETag
1070
     1
1071
      108
1005
12D
  0
LWPOLYLINE
  5
12E
330
BD
100
AcDbEntity
  8
0
 62
     4
100
AcDbPolyline
 90
        4
 70
     1
 43
0.0
 10
2652.085105523409
 20
168.7023294317769
 10
2687.023181988218
 20
207.0770365271019
 10
2503.11240084999
 20
374.5177655994194
 10
2468.174324385182
 20
336.1430585019989
1001
AcDbBlockRepETag
1070
     1
1071
      109
1005
12E
  0
LWPOLYLINE
  5
12F
330
BD
100
AcDbEntity
  8
0
 62
     4
100
AcDbPolyline
 90
        4
 70
     1
 43
0.0
 10
2761.198753186909
 20
539.0091300826752
 10
2761.198753186909
 20
-0.0000442276941612
 10
3128.39875318663
 20
-0.0000442276941612
 10
3128.39875318663
 20
539.0091300826752
1001
AcDbBlockRepETag
1070
     1
1071
      110
1005
12F
  0
CIRCLE
  5
130
330
BD
100
AcDbEntity
  8
0
 62
     4
100
AcDbCircle
 10
2944.798753186769
 20
271.6100475155981
 30
0.0
 40
134.7522935779816
1001
AcDbBlockRepETag
1070
     1
1071
      111
1005
130
  0
LWPOLYLINE
  5
131
330
BD
100
AcDbEntity
  8
0
 62
     4
100
AcDbPolyline
 90
        4
 70
     1
 43
0.0
 10
3019.285105523828
 20
168.7023294317769
 10
3054.223181988636
 20
207.0770365271019
 10
2870.312400849711
 20
374.5177655994194
 10
2835.374324384553
 20
336.1430585019989
1001
AcDbBlockRepETag
1070
     1
1071
      112
1005
131
  0
LWPOLYLINE
  5
132
330
BD
100
AcDbEntity
  8
0
 62
     4
100
AcDbPolyline
 90
        4
 70
     1
 43
0.0
 10
3128.39875318663
 20
539.0091300826752
 10
3128.39875318663
 20
-0.0000442276941612
 10
3495.5987531867
 20
-0.0000442276941612
 10
3495.5987531867
 20
539.0091300826752
1001
AcDbBlockRepETag
1070
     1
1071
      113
1005
132
  0
CIRCLE
  5
133
330
BD
100
AcDbEntity
  8
0
 62
     4
100
AcDbCircle
 10
3311.99875318649
 20
271.6100475155981
 30
0.0
 40
134.7522935779816
1001
AcDbBlockRepETag
1070
     1
1071
      114
1005
133
  0
LWPOLYLINE
  5
134
330
BD
100
AcDbEntity
  8
0
 62
     4
100
AcDbPolyline
 90
        4
 70
     1
 43
0.0
 10
3386.485105523549
 20
168.7023294317769
 10
3421.423181988707
 20
207.0770365271019
 10
3237.512400849781
 20
374.5177655994194
 10
3202.574324384972
 20
336.1430585019989
1001
AcDbBlockRepETag
1070
     1
1071
      115
1005
134
  0
LWPOLYLINE
  5
135
330
BD
100
AcDbEntity
  8
0
 62
     4
100
AcDbPolyline
 90
        4
 70
     1
 43
0.0
 10
3495.5987531867
 20
539.0091300826752
 10
3495.5987531867
 20
-0.0000442276941612
 10
3862.79875318677
 20
-0.0000442276941612
 10
3862.79875318677
 20
539.0091300826752
1001
AcDbBlockRepETag
1070
     1
1071
      116
1005
135
  0
CIRCLE
  5
136
330
BD
100
AcDbEntity
  8
0
 62
     4
100
AcDbCircle
 10
3679.198753186909
 20
271.6100475155981
 30
0.0
 40
134.7522935779816
1001
AcDbBlockRepETag
1070
     1
1071
      117
1005
136
  0
LWPOLYLINE
  5
137
330
BD
100
AcDbEntity
  8
0
 62
     4
100
AcDbPolyline
 90
        4
 70
     1
 43
0.0
 10
3753.685105523619
 20
168.7023294317769
 10
3788.623181988427
 20
207.0770365271019
 10
3604.712400849851
 20
374.5177655994194
 10
3569.774324384693
 20
336.1430585019989
1001
AcDbBlockRepETag
1070
     1
1071
      118
1005
137
  0
LWPOLYLINE
  5
138
330
BD
100
AcDbEntity
  8
0
 62
     4
100
AcDbPolyline
 90
        4
 70
     1
 43
0.0
 10
3862.79875318677
 20
539.0091300826752
 10
3862.79875318677
 20
-0.0000442276941612
 10
4229.99875318649
 20
-0.0000442276941612
 10
4229.99875318649
 20
539.0091300826752
1001
AcDbBlockRepETag
1070
     1
1071
      119
1005
138
  0
CIRCLE
  5
139
330
BD
100
AcDbEntity
  8
0
 62
     4
100
AcDbCircle
 10
4046.39875318663
 20
271.6100475155981
 30
0.0
 40
134.7522935779816
1001
AcDbBlockRepETag
1070
     1
1071
      120
1005
139
  0
LWPOLYLINE
  5
13A
330
BD
100
AcDbEntity
  8
0
 62
     4
100
AcDbPolyline
 90
        4
 70
     1
 43
0.0
 10
4120.885105523688
 20
168.7023294317769
 10
4155.823181988147
 20
207.0770365271019
 10
3971.912400849571
 20
374.5177655994194
 10
3936.974324384763
 20
336.1430585019989
1001
AcDbBlockRepETag
1070
     1
1071
      121
1005
13A
  0
LWPOLYLINE
  5
13B
330
BD
100
AcDbEntity
  8
0
 62
     4
100
AcDbPolyline
 90
        4
 70
     1
 43
0.0
 10
4229.99875318649
 20
539.0091300826752
 10
4229.99875318649
 20
-0.0000442276941612
 10
4597.198753186908
 20
-0.0000442276941612
 10
4597.198753186908
 20
539.0091300826752
1001
AcDbBlockRepETag
1070
     1
1071
      122
1005
13B
  0
CIRCLE
  5
13C
330
BD
100
AcDbEntity
  8
0
 62
     4
100
AcDbCircle
 10
4413.5987531867
 20
271.6100475155981
 30
0.0
 40
134.7522935779816
1001
AcDbBlockRepETag
1070
     1
1071
      123
1005
13C
  0
LWPOLYLINE
  5
13D
330
BD
100
AcDbEntity
  8
0
 62
     4
100
AcDbPolyline
 90
        4
 70
     1
 43
0.0
 10
4488.085105523409
 20
168.7023294317769
 10
4523.023181988217
 20
207.0770365271019
 10
4339.11240084999
 20
374.5177655994194
 10
4304.174324385181
 20
336.1430585019989
1001
AcDbBlockRepETag
1070
     1
1071
      124
1005
13D
  0
LWPOLYLINE
  5
13E
330
BD
100
AcDbEntity
  8
0
 62
     4
100
AcDbPolyline
 90
        4
 70
     1
 43
0.0
 10
4597.198753186908
 20
539.0091300826752
 10
4597.198753186908
 20
-0.0000442276941612
 10
4964.398753186629
 20
-0.0000442276941612
 10
4964.398753186629
 20
539.0091300826752
1001
AcDbBlockRepETag
1070
     1
1071
      125
1005
13E
  0
CIRCLE
  5
13F
330
BD
100
AcDbEntity
  8
0
 62
     4
100
AcDbCircle
 10
4780.798753186769
 20
271.6100475155981
 30
0.0
 40
134.7522935779816
1001
AcDbBlockRepETag
1070
     1
1071
      126
1005
13F
  0
LWPOLYLINE
  5
140
330
BD
100
AcDbEntity
  8
0
 62
     4
100
AcDbPolyline
 90
        4
 70
     1
 43
0.0
 10
4855.285105523828
 20
168.7023294317769
 10
4890.223181988637
 20
207.0770365271019
 10
4706.312400849711
 20
374.5177655994194
 10
4671.374324384553
 20
336.1430585019989
1001
AcDbBlockRepETag
1070
     1
1071
      127
1005
140
  0
LWPOLYLINE
  5
141
330
BD
100
AcDbEntity
  8
0
 62
     4
100
AcDbPolyline
 90
        4
 70
     1
 43
0.0
 10
4964.398753186629
 20
539.0091300826752
 10
4964.398753186629
 20
-0.0000442276941612
 10
5331.5987531867
 20
-0.0000442276941612
 10
5331.5987531867
 20
539.0091300826752
1001
AcDbBlockRepETag
1070
     1
1071
      128
1005
141
  0
CIRCLE
  5
142
330
BD
100
AcDbEntity
  8
0
 62
     4
100
AcDbCircle
 10
5147.99875318649
 20
271.6100475155981
 30
0.0
 40
134.7522935779816
1001
AcDbBlockRepETag
1070
     1
1071
      129
1005
142
  0
LWPOLYLINE
  5
143
330
BD
100
AcDbEntity
  8
0
 62
     4
100
AcDbPolyline
 90
        4
 70
     1
 43
0.0
 10
5222.485105523548
 20
168.7023294317769
 10
5257.423181988706
 20
207.0770365271019
 10
5073.51240084978
 20
374.5177655994194
 10
5038.574324384972
 20
336.1430585019989
1001
AcDbBlockRepETag
1070
     1
1071
      130
1005
143
  0
LWPOLYLINE
  5
144
330
BD
100
AcDbEntity
  8
0
 62
     4
100
AcDbPolyline
 90
        4
 70
     1
 43
0.0
 10
5331.5987531867
 20
539.0091300826752
 10
5331.5987531867
 20
-0.0000442276941612
 10
5698.798753186769
 20
-0.0000442276941612
 10
5698.798753186769
 20
539.0091300826752
1001
AcDbBlockRepETag
1070
     1
1071
      131
1005
144
  0
CIRCLE
  5
145
330
BD
100
AcDbEntity
  8
0
 62
     4
100
AcDbCircle
 10
5515.198753186909
 20
271.6100475155981
 30
0.0
 40
134.7522935779816
1001
AcDbBlockRepETag
1070
     1
1071
      132
1005
145
  0
LWPOLYLINE
  5
146
330
BD
100
AcDbEntity
  8
0
 62
     4
100
AcDbPolyline
 90
        4
 70
     1
 43
0.0
 10
5589.685105523618
 20
168.7023294317769
 10
5624.623181988427
 20
207.0770365271019
 10
5440.71240084985
 20
374.5177655994194
 10
5405.774324384693
 20
336.1430585019989
1001
AcDbBlockRepETag
1070
     1
1071
      133
1005
146
  0
LWPOLYLINE
  5
147
330
BD
100
AcDbEntity
  8
0
 62
     4
100
AcDbPolyline
 90
        4
 70
     1
 43
0.0
 10
5698.798753186769
 20
539.0091300826752
 10
5698.798753186769
 20
-0.0000442276941612
 10
6065.99875318649
 20
-0.0000442276941612
 10
6065.99875318649
 20
539.0091300826752
1001
AcDbBlockRepETag
1070
     1
1071
      134
1005
147
  0
CIRCLE
  5
148
330
BD
100
AcDbEntity
  8
0
 62
     4
100
AcDbCircle
 10
5882.398753186629
 20
271.6100475155981
 30
0.0
 40
134.7522935779816
1001
AcDbBlockRepETag
1070
     1
1071
      135
1005
148
  0
LWPOLYLINE
  5
149
330
BD
100
AcDbEntity
  8
0
 62
     4
100
AcDbPolyline
 90
        4
 70
     1
 43
0.0
 10
5956.885105523689
 20
168.7023294317769
 10
5991.823181988148
 20
207.0770365271019
 10
5807.912400849571
 20
374.5177655994194
 10
5772.974324384763
 20
336.1430585019989
1001
AcDbBlockRepETag
1070
     1
1071
      136
1005
149
  0
LWPOLYLINE
  5
14A
330
BD
100
AcDbEntity
  8
0
 62
     4
100
AcDbPolyline
 90
        4
 70
     1
 43
0.0
 10
6065.99875318649
 20
539.0091300826752
 10
6065.99875318649
 20
-0.0000442276941612
 10
6433.198753186909
 20
-0.0000442276941612
 10
6433.198753186909
 20
539.0091300826752
1001
AcDbBlockRepETag
1070
     1
1071
      137
1005
14A
  0
CIRCLE
  5
14B
330
BD
100
AcDbEntity
  8
0
 62
     4
100
AcDbCircle
 10
6249.5987531867
 20
271.6100475155981
 30
0.0
 40
134.7522935779816
1001
AcDbBlockRepETag
1070
     1
1071
      138
1005
14B
  0
LWPOLYLINE
  5
14C
330
BD
100
AcDbEntity
  8
0
 62
     4
100
AcDbPolyline
 90
        4
 70
     1
 43
0.0
 10
6324.085105523409
 20
168.7023294317769
 10
6359.023181988217
 20
207.0770365271019
 10
6175.11240084999
 20
374.5177655994194
 10
6140.174324385181
 20
336.1430585019989
1001
AcDbBlockRepETag
1070
     1
1071
      139
1005
14C
  0
LWPOLYLINE
  5
14D
330
BD
100
AcDbEntity
  8
0
 62
     4
100
AcDbPolyline
 90
        4
 70
     1
 43
0.0
 10
6433.198753186909
 20
539.0091300826752
 10
6433.198753186909
 20
-0.0000442276941612
 10
6800.398753186629
 20
-0.0000442276941612
 10
6800.398753186629
 20
539.0091300826752
1001
AcDbBlockRepETag
1070
     1
1071
      140
1005
14D
  0
CIRCLE
  5
14E
330
BD
100
AcDbEntity
  8
0
 62
     4
100
AcDbCircle
 10
6616.79875318677
 20
271.6100475155981
 30
0.0
 40
134.7522935779816
1001
AcDbBlockRepETag
1070
     1
1071
      141
1005
14E
  0
LWPOLYLINE
  5
14F
330
BD
100
AcDbEntity
  8
0
 62
     4
100
AcDbPolyline
 90
        4
 70
     1
 43
0.0
 10
6691.285105523828
 20
168.7023294317769
 10
6726.223181988636
 20
207.0770365271019
 10
6542.312400849711
 20
374.5177655994194
 10
6507.374324384553
 20
336.1430585019989
1001
AcDbBlockRepETag
1070
     1
1071
      142
1005
14F
  0
LWPOLYLINE
  5
150
330
BD
100
AcDbEntity
  8
0
 62
     4
100
AcDbPolyline
 90
        4
 70
     1
 43
0.0
 10
6800.398753186629
 20
539.0091300826752
 10
6800.398753186629
 20
-0.0000442276941612
 10
7167.598753186699
 20
-0.0000442276941612
 10
7167.598753186699
 20
539.0091300826752
1001
AcDbBlockRepETag
1070
     1
1071
      143
1005
150
  0
CIRCLE
  5
151
330
BD
100
AcDbEntity
  8
0
 62
     4
100
AcDbCircle
 10
6983.99875318649
 20
271.6100475155981
 30
0.0
 40
134.7522935779816
1001
AcDbBlockRepETag
1070
     1
1071
      144
1005
151
  0
LWPOLYLINE
  5
152
330
BD
100
AcDbEntity
  8
0
 62
     4
100
AcDbPolyline
 90
        4
 70
     1
 43
0.0
 10
7058.485105523549
 20
168.7023294317769
 10
7093.423181988707
 20
207.0770365271019
 10
6909.512400849781
 20
374.5177655994194
 10
6874.574324384972
 20
336.1430585019989
1001
AcDbBlockRepETag
1070
     1
1071
      145
1005
152
  0
LWPOLYLINE
  5
153
330
BD
100
AcDbEntity
  8
0
 62
     4
100
AcDbPolyline
 90
        4
 70
     1
 43
0.0
 10
7167.598753186699
 20
539.0091300826752
 10
7167.598753186699
 20
-0.0000442276941612
 10
7534.79875318677
 20
-0.0000442276941612
 10
7534.79875318677
 20
539.0091300826752
1001
AcDbBlockRepETag
1070
     1
1071
      146
1005
153
  0
CIRCLE
  5
154
330
BD
100
AcDbEntity
  8
0
 62
     4
100
AcDbCircle
 10
7351.198753186909
 20
271.6100475155981
 30
0.0
 40
134.7522935779816
1001
AcDbBlockRepETag
1070
     1
1071
      147
1005
154
  0
LWPOLYLINE
  5
155
330
BD
100
AcDbEntity
  8
0
 62
     4
100
AcDbPolyline
 90
        4
 70
     1
 43
0.0
 10
7425.685105523618
 20
168.7023294317769
 10
7460.623181988427
 20
207.0770365271019
 10
7276.71240084985
 20
374.5177655994194
 10
7241.774324384692
 20
336.1430585019989
1001
AcDbBlockRepETag
1070
     1
1071
      148
1005
155
  0
LWPOLYLINE
  5
156
330
BD
100
AcDbEntity
  8
0
 62
     4
100
AcDbPolyline
 90
        4
 70
     1
 43
0.0
 10
7534.79875318677
 20
539.0091300826752
 10
7534.79875318677
 20
-0.0000442276941612
 10
7901.99875318649
 20
-0.0000442276941612
 10
7901.99875318649
 20
539.0091300826752
1001
AcDbBlockRepETag
1070
     1
1071
      149
1005
156
  0
CIRCLE
  5
157
330
BD
100
AcDbEntity
  8
0
 62
     4
100
AcDbCircle
 10
7718.39875318663
 20
271.6100475155981
 30
0.0
 40
134.7522935779816
1001
AcDbBlockRepETag
1070
     1
1071
      150
1005
157
  0
LWPOLYLINE
  5
158
330
BD
100
AcDbEntity
  8
0
 62
     4
100
AcDbPolyline
 90
        4
 70
     1
 43
0.0
 10
7792.885105523688
 20
168.7023294317769
 10
7827.823181988148
 20
207.0770365271019
 10
7643.912400849571
 20
374.5177655994194
 10
7608.974324384763
 20
336.1430585019989
1001
AcDbBlockRepETag
1070
     1
1071
      151
1005
158
  0
LWPOLYLINE
  5
159
330
BD
100
AcDbEntity
  8
0
100
AcDbPolyline
 90
        4
 70
     1
 43
0.0
 10
464.8128434661193
 20
1634.944909899612
 10
464.8128434661193
 20
1850.944909899612
 10
680.8128434661194
 20
1850.944909899612
 10
680.8128434661194
 20
1634.944909899612
1001
AcDbBlockRepETag
1070
     1
1071
      152
1005
159
  0
LWPOLYLINE
  5
15A
330
BD
100
AcDbEntity
  8
0
100
AcDbPolyline
 90
        4
 70
     0
 43
0.0
 10
680.8128434661194
 20
1634.944909899612
 10
680.8128434661194
 20
1850.944909899612
 10
896.8128434661194
 20
1850.944909899612
 10
896.8128434661194
 20
1634.944909899612
1001
AcDbBlockRepETag
1070
     1
1071
      153
1005
15A
  0
LWPOLYLINE
  5
15B
330
BD
100
AcDbEntity
  8
0
100
AcDbPolyline
 90
        4
 70
     1
 43
0.0
 10
896.8128434661194
 20
1634.944909899612
 10
896.8128434661194
 20
1850.944909899612
 10
1112.812843466119
 20
1850.944909899612
 10
1112.812843466119
 20
1634.944909899612
1001
AcDbBlockRepETag
1070
     1
1071
      154
1005
15B
  0
LWPOLYLINE
  5
15C
330
BD
100
AcDbEntity
  8
0
100
AcDbPolyline
 90
        4
 70
     0
 43
0.0
 10
1112.812843466119
 20
1634.944909899612
 10
1112.812843466119
 20
1850.944909899612
 10
1328.812843466119
 20
1850.944909899612
 10
1328.812843466119
 20
1634.944909899612
1001
AcDbBlockRepETag
1070
     1
1071
      155
1005
15C
  0
LWPOLYLINE
  5
15D
330
BD
100
AcDbEntity
  8
0
100
AcDbPolyline
 90
        4
 70
     1
 43
0.0
 10
1328.812843466119
 20
1634.944909899612
 10
1328.812843466119
 20
1850.944909899612
 10
1544.812843466119
 20
1850.944909899612
 10
1544.812843466119
 20
1634.944909899612
1001
AcDbBlockRepETag
1070
     1
1071
      156
1005
15D
  0
LWPOLYLINE
  5
15E
330
BD
100
AcDbEntity
  8
0
100
AcDbPolyline
 90
        4
 70
     0
 43
0.0
 10
1544.812843466119
 20
1634.944909899612
 10
1544.812843466119
 20
1850.944909899612
 10
1760.812843466119
 20
1850.944909899612
 10
1760.812843466119
 20
1634.944909899612
1001
AcDbBlockRepETag
1070
     1
1071
      157
1005
15E
  0
LWPOLYLINE
  5
15F
330
BD
100
AcDbEntity
  8
0
100
AcDbPolyline
 90
        4
 70
     1
 43
0.0
 10
1760.812843466119
 20
1634.944909899612
 10
1760.812843466119
 20
1850.944909899612
 10
1976.812843466119
 20
1850.944909899612
 10
1976.812843466119
 20
1634.944909899612
1001
AcDbBlockRepETag
1070
     1
1071
      158
1005
15F
  0
LWPOLYLINE
  5
160
330
BD
100
AcDbEntity
  8
0
100
AcDbPolyline
 90
        4
 70
     0
 43
0.0
 10
1976.812843466119
 20
1634.944909899612
 10
1976.812843466119
 20
1850.944909899612
 10
2192.81284346612
 20
1850.944909899612
 10
2192.81284346612
 20
1634.944909899612
1001
AcDbBlockRepETag
1070
     1
1071
      159
1005
160
  0
LWPOLYLINE
  5
161
330
BD
100
AcDbEntity
  8
0
100
AcDbPolyline
 90
        4
 70
     1
 43
0.0
 10
2192.81284346612
 20
1634.944909899612
 10
2192.81284346612
 20
1850.944909899612
 10
2408.812843466119
 20
1850.944909899612
 10
2408.812843466119
 20
1634.944909899612
1001
AcDbBlockRepETag
1070
     1
1071
      160
1005
161
  0
LWPOLYLINE
  5
162
330
BD
100
AcDbEntity
  8
0
100
AcDbPolyline
 90
        4
 70
     0
 43
0.0
 10
2408.812843466119
 20
1634.944909899612
 10
2408.812843466119
 20
1850.944909899612
 10
2624.812843466119
 20
1850.944909899612
 10
2624.812843466119
 20
1634.944909899612
1001
AcDbBlockRepETag
1070
     1
1071
      161
1005
162
  0
LWPOLYLINE
  5
163
330
BD
100
AcDbEntity
  8
0
100
AcDbPolyline
 90
        4
 70
     1
 43
0.0
 10
2624.812843466119
 20
1634.944909899612
 10
2624.812843466119
 20
1850.944909899612
 10
2840.81284346612
 20
1850.944909899612
 10
2840.81284346612
 20
1634.944909899612
1001
AcDbBlockRepETag
1070
     1
1071
      162
1005
163
  0
LWPOLYLINE
  5
164
330
BD
100
AcDbEntity
  8
0
100
AcDbPolyline
 90
        4
 70
     0
 43
0.0
 10
2840.81284346612
 20
1634.944909899612
 10
2840.81284346612
 20
1850.944909899612
 10
3056.812843466119
 20
1850.944909899612
 10
3056.812843466119
 20
1634.944909899612
1001
AcDbBlockRepETag
1070
     1
1071
      163
1005
164
  0
LWPOLYLINE
  5
165
330
BD
100
AcDbEntity
  8
0
100
AcDbPolyline
 90
        4
 70
     1
 43
0.0
 10
3056.812843466119
 20
1634.944909899612
 10
3056.812843466119
 20
1850.944909899612
 10
3272.81284346612
 20
1850.944909899612
 10
3272.81284346612
 20
1634.944909899612
1001
AcDbBlockRepETag
1070
     1
1071
      164
1005
165
  0
LWPOLYLINE
  5
166
330
BD
100
AcDbEntity
  8
0
100
AcDbPolyline
 90
        4
 70
     0
 43
0.0
 10
3272.81284346612
 20
1634.944909899612
 10
3272.81284346612
 20
1850.944909899612
 10
3488.81284346612
 20
1850.944909899612
 10
3488.81284346612
 20
1634.944909899612
1001
AcDbBlockRepETag
1070
     1
1071
      165
1005
166
  0
LWPOLYLINE
  5
167
330
BD
100
AcDbEntity
  8
0
100
AcDbPolyline
 90
        4
 70
     1
 43
0.0
 10
3488.81284346612
 20
1634.944909899612
 10
3488.81284346612
 20
1850.944909899612
 10
3704.81284346612
 20
1850.944909899612
 10
3704.81284346612
 20
1634.944909899612
1001
AcDbBlockRepETag
1070
     1
1071
      166
1005
167
  0
LWPOLYLINE
  5
168
330
BD
100
AcDbEntity
  8
0
100
AcDbPolyline
 90
        4
 70
     0
 43
0.0
 10
3704.81284346612
 20
1634.944909899612
 10
3704.81284346612
 20
1850.944909899612
 10
3920.81284346612
 20
1850.944909899612
 10
3920.81284346612
 20
1634.944909899612
1001
AcDbBlockRepETag
1070
     1
1071
      167
1005
168
  0
LWPOLYLINE
  5
169
330
BD
100
AcDbEntity
  8
0
100
AcDbPolyline
 90
        4
 70
     1
 43
0.0
 10
3920.81284346612
 20
1634.944909899612
 10
3920.81284346612
 20
1850.944909899612
 10
4136.812843466119
 20
1850.944909899612
 10
4136.812843466119
 20
1634.944909899612
1001
AcDbBlockRepETag
1070
     1
1071
      168
1005
169
  0
LWPOLYLINE
  5
16A
330
BD
100
AcDbEntity
  8
0
100
AcDbPolyline
 90
        4
 70
     0
 43
0.0
 10
4136.812843466119
 20
1634.944909899612
 10
4136.812843466119
 20
1850.944909899612
 10
4352.812843466119
 20
1850.944909899612
 10
4352.812843466119
 20
1634.944909899612
1001
AcDbBlockRepETag
1070
     1
1071
      169
1005
16A
  0
LWPOLYLINE
  5
16B
330
BD
100
AcDbEntity
  8
0
100
AcDbPolyline
 90
        4
 70
     1
 43
0.0
 10
4352.812843466119
 20
1634.944909899612
 10
4352.812843466119
 20
1850.944909899612
 10
4568.812843466119
 20
1850.944909899612
 10
4568.812843466119
 20
1634.944909899612
1001
AcDbBlockRepETag
1070
     1
1071
      170
1005
16B
  0
LWPOLYLINE
  5
16C
330
BD
100
AcDbEntity
  8
0
100
AcDbPolyline
 90
        4
 70
     0
 43
0.0
 10
4568.812843466119
 20
1634.944909899612
 10
4568.812843466119
 20
1850.944909899612
 10
4784.812843466119
 20
1850.944909899612
 10
4784.812843466119
 20
1634.944909899612
1001
AcDbBlockRepETag
1070
     1
1071
      171
1005
16C
  0
LWPOLYLINE
  5
16D
330
BD
100
AcDbEntity
  8
0
100
AcDbPolyline
 90
        4
 70
     1
 43
0.0
 10
4784.812843466119
 20
1634.944909899612
 10
4784.812843466119
 20
1850.944909899612
 10
5000.812843466119
 20
1850.944909899612
 10
5000.812843466119
 20
1634.944909899612
1001
AcDbBlockRepETag
1070
     1
1071
      172
1005
16D
  0
LWPOLYLINE
  5
16E
330
BD
100
AcDbEntity
  8
0
100
AcDbPolyline
 90
        4
 70
     0
 43
0.0
 10
5000.812843466119
 20
1634.944909899612
 10
5000.812843466119
 20
1850.944909899612
 10
5216.81284346612
 20
1850.944909899612
 10
5216.81284346612
 20
1634.944909899612
1001
AcDbBlockRepETag
1070
     1
1071
      173
1005
16E
  0
LWPOLYLINE
  5
16F
330
BD
100
AcDbEntity
  8
0
100
AcDbPolyline
 90
        4
 70
     1
 43
0.0
 10
5216.81284346612
 20
1634.944909899612
 10
5216.81284346612
 20
1850.944909899612
 10
5432.812843466119
 20
1850.944909899612
 10
5432.812843466119
 20
1634.944909899612
1001
AcDbBlockRepETag
1070
     1
1071
      174
1005
16F
  0
LWPOLYLINE
  5
170
330
BD
100
AcDbEntity
  8
0
100
AcDbPolyline
 90
        4
 70
     0
 43
0.0
 10
5432.812843466119
 20
1634.944909899612
 10
5432.812843466119
 20
1850.944909899612
 10
5648.812843466119
 20
1850.944909899612
 10
5648.812843466119
 20
1634.944909899612
1001
AcDbBlockRepETag
1070
     1
1071
      175
1005
170
  0
LWPOLYLINE
  5
171
330
BD
100
AcDbEntity
  8
0
100
AcDbPolyline
 90
        4
 70
     1
 43
0.0
 10
5648.812843466119
 20
1634.944909899612
 10
5648.812843466119
 20
1850.944909899612
 10
5864.812843466119
 20
1850.944909899612
 10
5864.812843466119
 20
1634.944909899612
1001
AcDbBlockRepETag
1070
     1
1071
      176
1005
171
  0
LWPOLYLINE
  5
172
330
BD
100
AcDbEntity
  8
0
100
AcDbPolyline
 90
        4
 70
     0
 43
0.0
 10
5864.812843466119
 20
1634.944909899612
 10
5864.812843466119
 20
1850.944909899612
 10
6080.812843466119
 20
1850.944909899612
 10
6080.812843466119
 20
1634.944909899612
1001
AcDbBlockRepETag
1070
     1
1071
      177
1005
172
  0
LWPOLYLINE
  5
173
330
BD
100
AcDbEntity
  8
0
100
AcDbPolyline
 90
        4
 70
     1
 43
0.0
 10
6080.812843466119
 20
1634.944909899612
 10
6080.812843466119
 20
1850.944909899612
 10
6296.81284346612
 20
1850.944909899612
 10
6296.81284346612
 20
1634.944909899612
1001
AcDbBlockRepETag
1070
     1
1071
      178
1005
173
  0
LWPOLYLINE
  5
174
330
BD
100
AcDbEntity
  8
0
100
AcDbPolyline
 90
        4
 70
     0
 43
0.0
 10
6296.81284346612
 20
1634.944909899612
 10
6296.81284346612
 20
1850.944909899612
 10
6512.812843466119
 20
1850.944909899612
 10
6512.812843466119
 20
1634.944909899612
1001
AcDbBlockRepETag
1070
     1
1071
      179
1005
174
  0
LWPOLYLINE
  5
175
330
BD
100
AcDbEntity
  8
0
100
AcDbPolyline
 90
        4
 70
     1
 43
0.0
 10
6512.812843466119
 20
1634.944909899612
 10
6512.812843466119
 20
1850.944909899612
 10
6728.812843466119
 20
1850.944909899612
 10
6728.812843466119
 20
1634.944909899612
1001
AcDbBlockRepETag
1070
     1
1071
      180
1005
175
  0
LWPOLYLINE
  5
176
330
BD
100
AcDbEntity
  8
0
100
AcDbPolyline
 90
        4
 70
     0
 43
0.0
 10
6728.812843466119
 20
1634.944909899612
 10
6728.812843466119
 20
1850.944909899612
 10
6944.812843466119
 20
1850.944909899612
 10
6944.812843466119
 20
1634.944909899612
1001
AcDbBlockRepETag
1070
     1
1071
      181
1005
176
  0
LWPOLYLINE
  5
177
330
BD
100
AcDbEntity
  8
0
100
AcDbPolyline
 90
        4
 70
     1
 43
0.0
 10
6944.812843466119
 20
1634.944909899612
 10
6944.812843466119
 20
1850.944909899612
 10
7160.81284346612
 20
1850.944909899612
 10
7160.81284346612
 20
1634.944909899612
1001
AcDbBlockRepETag
1070
     1
1071
      182
1005
177
  0
LWPOLYLINE
  5
178
330
BD
100
AcDbEntity
  8
0
100
AcDbPolyline
 90
        4
 70
     0
 43
0.0
 10
7160.81284346612
 20
1634.944909899612
 10
7160.81284346612
 20
1850.944909899612
 10
7376.81284346612
 20
1850.944909899612
 10
7376.81284346612
 20
1634.944909899612
1001
AcDbBlockRepETag
1070
     1
1071
      183
1005
178
  0
LWPOLYLINE
  5
179
330
BD
100
AcDbEntity
  8
0
100
AcDbPolyline
 90
        4
 70
     1
 43
0.0
 10
7376.81284346612
 20
1634.944909899612
 10
7376.81284346612
 20
1850.944909899612
 10
7592.81284346612
 20
1850.944909899612
 10
7592.81284346612
 20
1634.944909899612
1001
AcDbBlockRepETag
1070
     1
1071
      184
1005
179
  0
LWPOLYLINE
  5
17A
330
BD
100
AcDbEntity
  8
0
100
AcDbPolyline
 90
        4
 70
     0
 43
0.0
 10
7592.81284346612
 20
1634.944909899612
 10
7592.81284346612
 20
1850.944909899612
 10
7808.812843466119
 20
1850.944909899612
 10
7808.812843466119
 20
1634.944909899612
1001
AcDbBlockRepETag
1070
     1
1071
      185
1005
17A
  0
LWPOLYLINE
  5
17B
330
BD
100
AcDbEntity
  8
0
100
AcDbPolyline
 90
        4
 70
     1
 43
0.0
 10
7808.812843466119
 20
1634.944909899612
 10
7808.812843466119
 20
1850.944909899612
 10
8024.81284346612
 20
1850.944909899612
 10
8024.81284346612
 20
1634.944909899612
1001
AcDbBlockRepETag
1070
     1
1071
      186
1005
17B
  0
LINE
  5
17C
330
BD
100
AcDbEntity
  8
0
100
AcDbLine
 10
597.1490024832892
 20
1850.944909899612
 30
0.0
 11
-0.0012468135100789
 21
1850.944909899612
 31
0.0
1001
AcDbBlockRepETag
1070
     1
1071
      187
1005
17C
  0
LINE
  5
17D
330
BD
100
AcDbEntity
  8
0
100
AcDbLine
 10
8024.81284346612
 20
1850.944909899612
 30
0.0
 11
8531.99875318649
 21
1850.944909899612
 31
0.0
1001
AcDbBlockRepETag
1070
     1
1071
      188
1005
17D
  0
LWPOLYLINE
  5
17E
330
BD
100
AcDbEntity
  8
0
100
AcDbPolyline
 90
        2
 70
     0
 43
0.0
 10
8024.81284346612
 20
7394.944909899612
 10
7808.812843466119
 20
7394.944909899612
1001
AcDbBlockRepETag
1070
     1
1071
      189
1005
17E
  0
LWPOLYLINE
  5
17F
330
BD
100
AcDbEntity
  8
0
100
AcDbPolyline
 90
        2
 70
     0
 43
0.0
 10
7592.81284346612
 20
7394.944909899612
 10
7376.81284346612
 20
7394.944909899612
1001
AcDbBlockRepETag
1070
     1
1071
      190
1005
17F
  0
LWPOLYLINE
  5
180
330
BD
100
AcDbEntity
  8
0
100
AcDbPolyline
 90
        2
 70
     0
 43
0.0
 10
7160.81284346612
 20
7394.944909899612
 10
6944.812843466119
 20
7394.944909899612
1001
AcDbBlockRepETag
1070
     1
1071
      191
1005
180
  0
LWPOLYLINE
  5
181
330
BD
100
AcDbEntity
  8
0
100
AcDbPolyline
 90
        2
 70
     0
 43
0.0
 10
6728.812843466119
 20
7394.944909899612
 10
6512.812843466119
 20
7394.944909899612
1001
AcDbBlockRepETag
1070
     1
1071
      192
1005
181
  0
LWPOLYLINE
  5
182
330
BD
100
AcDbEntity
  8
0
100
AcDbPolyline
 90
        2
 70
     0
 43
0.0
 10
6296.81284346612
 20
7394.944909899612
 10
6080.812843466119
 20
7394.944909899612
1001
AcDbBlockRepETag
1070
     1
1071
      193
1005
182
  0
LWPOLYLINE
  5
183
330
BD
100
AcDbEntity
  8
0
100
AcDbPolyline
 90
        2
 70
     0
 43
0.0
 10
5864.812843466119
 20
7394.944909899612
 10
5648.812843466119
 20
7394.944909899612
1001
AcDbBlockRepETag
1070
     1
1071
      194
1005
183
  0
LWPOLYLINE
  5
184
330
BD
100
AcDbEntity
  8
0
100
AcDbPolyline
 90
        2
 70
     0
 43
0.0
 10
5432.812843466119
 20
7394.944909899612
 10
5216.81284346612
 20
7394.944909899612
1001
AcDbBlockRepETag
1070
     1
1071
      195
1005
184
  0
LWPOLYLINE
  5
185
330
BD
100
AcDbEntity
  8
0
100
AcDbPolyline
 90
        2
 70
     0
 43
0.0
 10
5000.812843466119
 20
7394.944909899612
 10
4784.812843466119
 20
7394.944909899612
1001
AcDbBlockRepETag
1070
     1
1071
      196
1005
185
  0
LWPOLYLINE
  5
186
330
BD
100
AcDbEntity
  8
0
100
AcDbPolyline
 90
        2
 70
     0
 43
0.0
 10
4568.812843466119
 20
7394.944909899612
 10
4352.812843466119
 20
7394.944909899612
1001
AcDbBlockRepETag
1070
     1
1071
      197
1005
186
  0
LWPOLYLINE
  5
187
330
BD
100
AcDbEntity
  8
0
100
AcDbPolyline
 90
        2
 70
     0
 43
0.0
 10
4136.812843466119
 20
7394.944909899612
 10
3920.81284346612
 20
7394.944909899612
1001
AcDbBlockRepETag
1070
     1
1071
      198
1005
187
  0
LWPOLYLINE
  5
188
330
BD
100
AcDbEntity
  8
0
100
AcDbPolyline
 90
        2
 70
     0
 43
0.0
 10
3704.81284346612
 20
7394.944909899612
 10
3488.81284346612
 20
7394.944909899612
1001
AcDbBlockRepETag
1070
     1
1071
      199
1005
188
  0
LWPOLYLINE
  5
189
330
BD
100
AcDbEntity
  8
0
100
AcDbPolyline
 90
        2
 70
     0
 43
0.0
 10
3272.81284346612
 20
7394.944909899612
 10
3056.812843466119
 20
7394.944909899612
1001
AcDbBlockRepETag
1070
     1
1071
      200
1005
189
  0
LWPOLYLINE
  5
18A
330
BD
100
AcDbEntity
  8
0
100
AcDbPolyline
 90
        2
 70
     0
 43
0.0
 10
2840.81284346612
 20
7394.944909899612
 10
2624.812843466119
 20
7394.944909899612
1001
AcDbBlockRepETag
1070
     1
1071
      201
1005
18A
  0
LWPOLYLINE
  5
18B
330
BD
100
AcDbEntity
  8
0
100
AcDbPolyline
 90
        2
 70
     0
 43
0.0
 10
2408.812843466119
 20
7394.944909899612
 10
2192.81284346612
 20
7394.944909899612
1001
AcDbBlockRepETag
1070
     1
1071
      202
1005
18B
  0
LWPOLYLINE
  5
18C
330
BD
100
AcDbEntity
  8
0
100
AcDbPolyline
 90
        2
 70
     0
 43
0.0
 10
1976.812843466119
 20
7394.944909899612
 10
1760.812843466119
 20
7394.944909899612
1001
AcDbBlockRepETag
1070
     1
1071
      203
1005
18C
  0
LWPOLYLINE
  5
18D
330
BD
100
AcDbEntity
  8
0
100
AcDbPolyline
 90
        2
 70
     0
 43
0.0
 10
1544.812843466119
 20
7394.944909899612
 10
1328.812843466119
 20
7394.944909899612
1001
AcDbBlockRepETag
1070
     1
1071
      204
1005
18D
  0
LWPOLYLINE
  5
18E
330
BD
100
AcDbEntity
  8
0
100
AcDbPolyline
 90
        2
 70
     0
 43
0.0
 10
1112.812843466119
 20
7394.944909899612
 10
896.8128434661194
 20
7394.944909899612
1001
AcDbBlockRepETag
1070
     1
1071
      205
1005
18E
  0
LWPOLYLINE
  5
18F
330
BD
100
AcDbEntity
  8
0
100
AcDbPolyline
 90
        2
 70
     0
 43
0.0
 10
680.8128434661194
 20
7394.944909899612
 10
464.8128434661193
 20
7394.944909899612
1001
AcDbBlockRepETag
1070
     1
1071
      206
1005
18F
  0
LWPOLYLINE
  5
190
330
BD
100
AcDbEntity
  8
0
100
AcDbPolyline
 90
        4
 70
     1
 43
0.0
 10
464.8128434661193
 20
7394.944909899612
 10
464.8128434661193
 20
7178.944909899612
 10
680.8128434661194
 20
7178.944909899612
 10
680.8128434661194
 20
7394.944909899612
1001
AcDbBlockRepETag
1070
     1
1071
      207
1005
190
  0
LWPOLYLINE
  5
191
330
BD
100
AcDbEntity
  8
0
100
AcDbPolyline
 90
        4
 70
     0
 43
0.0
 10
680.8128434661194
 20
7394.944909899612
 10
680.8128434661194
 20
7178.944909899612
 10
896.8128434661194
 20
7178.944909899612
 10
896.8128434661194
 20
7394.944909899612
1001
AcDbBlockRepETag
1070
     1
1071
      208
1005
191
  0
LWPOLYLINE
  5
192
330
BD
100
AcDbEntity
  8
0
100
AcDbPolyline
 90
        4
 70
     1
 43
0.0
 10
896.8128434661194
 20
7394.944909899612
 10
896.8128434661194
 20
7178.944909899612
 10
1112.812843466119
 20
7178.944909899612
 10
1112.812843466119
 20
7394.944909899612
1001
AcDbBlockRepETag
1070
     1
1071
      209
1005
192
  0
LWPOLYLINE
  5
193
330
BD
100
AcDbEntity
  8
0
100
AcDbPolyline
 90
        4
 70
     0
 43
0.0
 10
1112.812843466119
 20
7394.944909899612
 10
1112.812843466119
 20
7178.944909899612
 10
1328.812843466119
 20
7178.944909899612
 10
1328.812843466119
 20
7394.944909899612
1001
AcDbBlockRepETag
1070
     1
1071
      210
1005
193
  0
LWPOLYLINE
  5
194
330
BD
100
AcDbEntity
  8
0
100
AcDbPolyline
 90
        4
 70
     1
 43
0.0
 10
1328.812843466119
 20
7394.944909899612
 10
1328.812843466119
 20
7178.944909899612
 10
1544.812843466119
 20
7178.944909899612
 10
1544.812843466119
 20
7394.944909899612
1001
AcDbBlockRepETag
1070
     1
1071
      211
1005
194
  0
LWPOLYLINE
  5
195
330
BD
100
AcDbEntity
  8
0
100
AcDbPolyline
 90
        4
 70
     0
 43
0.0
 10
1544.812843466119
 20
7394.944909899612
 10
1544.812843466119
 20
7178.944909899612
 10
1760.812843466119
 20
7178.944909899612
 10
1760.812843466119
 20
7394.944909899612
1001
AcDbBlockRepETag
1070
     1
1071
      212
1005
195
  0
LWPOLYLINE
  5
196
330
BD
100
AcDbEntity
  8
0
100
AcDbPolyline
 90
        4
 70
     1
 43
0.0
 10
1760.812843466119
 20
7394.944909899612
 10
1760.812843466119
 20
7178.944909899612
 10
1976.812843466119
 20
7178.944909899612
 10
1976.812843466119
 20
7394.944909899612
1001
AcDbBlockRepETag
1070
     1
1071
      213
1005
196
  0
LWPOLYLINE
  5
197
330
BD
100
AcDbEntity
  8
0
100
AcDbPolyline
 90
        4
 70
     0
 43
0.0
 10
1976.812843466119
 20
7394.944909899612
 10
1976.812843466119
 20
7178.944909899612
 10
2192.81284346612
 20
7178.944909899612
 10
2192.81284346612
 20
7394.944909899612
1001
AcDbBlockRepETag
1070
     1
1071
      214
1005
197
  0
LWPOLYLINE
  5
198
330
BD
100
AcDbEntity
  8
0
100
AcDbPolyline
 90
        4
 70
     1
 43
0.0
 10
2192.81284346612
 20
7394.944909899612
 10
2192.81284346612
 20
7178.944909899612
 10
2408.812843466119
 20
7178.944909899612
 10
2408.812843466119
 20
7394.944909899612
1001
AcDbBlockRepETag
1070
     1
1071
      215
1005
198
  0
LWPOLYLINE
  5
199
330
BD
100
AcDbEntity
  8
0
100
AcDbPolyline
 90
        4
 70
     0
 43
0.0
 10
2408.812843466119
 20
7394.944909899612
 10
2408.812843466119
 20
7178.944909899612
 10
2624.812843466119
 20
7178.944909899612
 10
2624.812843466119
 20
7394.944909899612
1001
AcDbBlockRepETag
1070
     1
1071
      216
1005
199
  0
LWPOLYLINE
  5
19A
330
BD
100
AcDbEntity
  8
0
100
AcDbPolyline
 90
        4
 70
     1
 43
0.0
 10
2624.812843466119
 20
7394.944909899612
 10
2624.812843466119
 20
7178.944909899612
 10
2840.81284346612
 20
7178.944909899612
 10
2840.81284346612
 20
7394.944909899612
1001
AcDbBlockRepETag
1070
     1
1071
      217
1005
19A
  0
LWPOLYLINE
  5
19B
330
BD
100
AcDbEntity
  8
0
100
AcDbPolyline
 90
        4
 70
     0
 43
0.0
 10
2840.81284346612
 20
7394.944909899612
 10
2840.81284346612
 20
7178.944909899612
 10
3056.812843466119
 20
7178.944909899612
 10
3056.812843466119
 20
7394.944909899612
1001
AcDbBlockRepETag
1070
     1
1071
      218
1005
19B
  0
LWPOLYLINE
  5
19C
330
BD
100
AcDbEntity
  8
0
100
AcDbPolyline
 90
        4
 70
     1
 43
0.0
 10
3056.812843466119
 20
7394.944909899612
 10
3056.812843466119
 20
7178.944909899612
 10
3272.81284346612
 20
7178.944909899612
 10
3272.81284346612
 20
7394.944909899612
1001
AcDbBlockRepETag
1070
     1
1071
      219
1005
19C
  0
LWPOLYLINE
  5
19D
330
BD
100
AcDbEntity
  8
0
100
AcDbPolyline
 90
        4
 70
     0
 43
0.0
 10
3272.81284346612
 20
7394.944909899612
 10
3272.81284346612
 20
7178.944909899612
 10
3488.81284346612
 20
7178.944909899612
 10
3488.81284346612
 20
7394.944909899612
1001
AcDbBlockRepETag
1070
     1
1071
      220
1005
19D
  0
LWPOLYLINE
  5
19E
330
BD
100
AcDbEntity
  8
0
100
AcDbPolyline
 90
        4
 70
     1
 43
0.0
 10
3488.81284346612
 20
7394.944909899612
 10
3488.81284346612
 20
7178.944909899612
 10
3704.81284346612
 20
7178.944909899612
 10
3704.81284346612
 20
7394.944909899612
1001
AcDbBlockRepETag
1070
     1
1071
      221
1005
19E
  0
LWPOLYLINE
  5
19F
330
BD
100
AcDbEntity
  8
0
100
AcDbPolyline
 90
        4
 70
     0
 43
0.0
 10
3704.81284346612
 20
7394.944909899612
 10
3704.81284346612
 20
7178.944909899612
 10
3920.81284346612
 20
7178.944909899612
 10
3920.81284346612
 20
7394.944909899612
1001
AcDbBlockRepETag
1070
     1
1071
      222
1005
19F
  0
LWPOLYLINE
  5
1A0
330
BD
100
AcDbEntity
  8
0
100
AcDbPolyline
 90
        4
 70
     1
 43
0.0
 10
3920.81284346612
 20
7394.944909899612
 10
3920.81284346612
 20
7178.944909899612
 10
4136.812843466119
 20
7178.944909899612
 10
4136.812843466119
 20
7394.944909899612
1001
AcDbBlockRepETag
1070
     1
1071
      223
1005
1A0
  0
LWPOLYLINE
  5
1A1
330
BD
100
AcDbEntity
  8
0
100
AcDbPolyline
 90
        4
 70
     0
 43
0.0
 10
4136.812843466119
 20
7394.944909899612
 10
4136.812843466119
 20
7178.944909899612
 10
4352.812843466119
 20
7178.944909899612
 10
4352.812843466119
 20
7394.944909899612
1001
AcDbBlockRepETag
1070
     1
1071
      224
1005
1A1
  0
LWPOLYLINE
  5
1A2
330
BD
100
AcDbEntity
  8
0
100
AcDbPolyline
 90
        4
 70
     1
 43
0.0
 10
4352.812843466119
 20
7394.944909899612
 10
4352.812843466119
 20
7178.944909899612
 10
4568.812843466119
 20
7178.944909899612
 10
4568.812843466119
 20
7394.944909899612
1001
AcDbBlockRepETag
1070
     1
1071
      225
1005
1A2
  0
LWPOLYLINE
  5
1A3
330
BD
100
AcDbEntity
  8
0
100
AcDbPolyline
 90
        4
 70
     0
 43
0.0
 10
4568.812843466119
 20
7394.944909899612
 10
4568.812843466119
 20
7178.944909899612
 10
4784.812843466119
 20
7178.944909899612
 10
4784.812843466119
 20
7394.944909899612
1001
AcDbBlockRepETag
1070
     1
1071
      226
1005
1A3
  0
LWPOLYLINE
  5
1A4
330
BD
100
AcDbEntity
  8
0
100
AcDbPolyline
 90
        4
 70
     1
 43
0.0
 10
4784.812843466119
 20
7394.944909899612
 10
4784.812843466119
 20
7178.944909899612
 10
5000.812843466119
 20
7178.944909899612
 10
5000.812843466119
 20
7394.944909899612
1001
AcDbBlockRepETag
1070
     1
1071
      227
1005
1A4
  0
LWPOLYLINE
  5
1A5
330
BD
100
AcDbEntity
  8
0
100
AcDbPolyline
 90
        4
 70
     0
 43
0.0
 10
5000.812843466119
 20
7394.944909899612
 10
5000.812843466119
 20
7178.944909899612
 10
5216.81284346612
 20
7178.944909899612
 10
5216.81284346612
 20
7394.944909899612
1001
AcDbBlockRepETag
1070
     1
1071
      228
1005
1A5
  0
LWPOLYLINE
  5
1A6
330
BD
100
AcDbEntity
  8
0
100
AcDbPolyline
 90
        4
 70
     1
 43
0.0
 10
5216.81284346612
 20
7394.944909899612
 10
5216.81284346612
 20
7178.944909899612
 10
5432.812843466119
 20
7178.944909899612
 10
5432.812843466119
 20
7394.944909899612
1001
AcDbBlockRepETag
1070
     1
1071
      229
1005
1A6
  0
LWPOLYLINE
  5
1A7
330
BD
100
AcDbEntity
  8
0
100
AcDbPolyline
 90
        4
 70
     0
 43
0.0
 10
5432.812843466119
 20
7394.944909899612
 10
5432.812843466119
 20
7178.944909899612
 10
5648.812843466119
 20
7178.944909899612
 10
5648.812843466119
 20
7394.944909899612
1001
AcDbBlockRepETag
1070
     1
1071
      230
1005
1A7
  0
LWPOLYLINE
  5
1A8
330
BD
100
AcDbEntity
  8
0
100
AcDbPolyline
 90
        4
 70
     1
 43
0.0
 10
5648.812843466119
 20
7394.944909899612
 10
5648.812843466119
 20
7178.944909899612
 10
5864.812843466119
 20
7178.944909899612
 10
5864.812843466119
 20
7394.944909899612
1001
AcDbBlockRepETag
1070
     1
1071
      231
1005
1A8
  0
LWPOLYLINE
  5
1A9
330
BD
100
AcDbEntity
  8
0
100
AcDbPolyline
 90
        4
 70
     0
 43
0.0
 10
5864.812843466119
 20
7394.944909899612
 10
5864.812843466119
 20
7178.944909899612
 10
6080.812843466119
 20
7178.944909899612
 10
6080.812843466119
 20
7394.944909899612
1001
AcDbBlockRepETag
1070
     1
1071
      232
1005
1A9
  0
LWPOLYLINE
  5
1AA
330
BD
100
AcDbEntity
  8
0
100
AcDbPolyline
 90
        4
 70
     1
 43
0.0
 10
6080.812843466119
 20
7394.944909899612
 10
6080.812843466119
 20
7178.944909899612
 10
6296.81284346612
 20
7178.944909899612
 10
6296.81284346612
 20
7394.944909899612
1001
AcDbBlockRepETag
1070
     1
1071
      233
1005
1AA
  0
LWPOLYLINE
  5
1AB
330
BD
100
AcDbEntity
  8
0
100
AcDbPolyline
 90
        4
 70
     0
 43
0.0
 10
6296.81284346612
 20
7394.944909899612
 10
6296.81284346612
 20
7178.944909899612
 10
6512.812843466119
 20
7178.944909899612
 10
6512.812843466119
 20
7394.944909899612
1001
AcDbBlockRepETag
1070
     1
1071
      234
1005
1AB
  0
LWPOLYLINE
  5
1AC
330
BD
100
AcDbEntity
  8
0
100
AcDbPolyline
 90
        4
 70
     1
 43
0.0
 10
6512.812843466119
 20
7394.944909899612
 10
6512.812843466119
 20
7178.944909899612
 10
6728.812843466119
 20
7178.944909899612
 10
6728.812843466119
 20
7394.944909899612
1001
AcDbBlockRepETag
1070
     1
1071
      235
1005
1AC
  0
LWPOLYLINE
  5
1AD
330
BD
100
AcDbEntity
  8
0
100
AcDbPolyline
 90
        4
 70
     0
 43
0.0
 10
6728.812843466119
 20
7394.944909899612
 10
6728.812843466119
 20
7178.944909899612
 10
6944.812843466119
 20
7178.944909899612
 10
6944.812843466119
 20
7394.944909899612
1001
AcDbBlockRepETag
1070
     1
1071
      236
1005
1AD
  0
LWPOLYLINE
  5
1AE
330
BD
100
AcDbEntity
  8
0
100
AcDbPolyline
 90
        4
 70
     1
 43
0.0
 10
6944.812843466119
 20
7394.944909899612
 10
6944.812843466119
 20
7178.944909899612
 10
7160.81284346612
 20
7178.944909899612
 10
7160.81284346612
 20
7394.944909899612
1001
AcDbBlockRepETag
1070
     1
1071
      237
1005
1AE
  0
LWPOLYLINE
  5
1AF
330
BD
100
AcDbEntity
  8
0
100
AcDbPolyline
 90
        4
 70
     0
 43
0.0
 10
7160.81284346612
 20
7394.944909899612
 10
7160.81284346612
 20
7178.944909899612
 10
7376.81284346612
 20
7178.944909899612
 10
7376.81284346612
 20
7394.944909899612
1001
AcDbBlockRepETag
1070
     1
1071
      238
1005
1AF
  0
LWPOLYLINE
  5
1B0
330
BD
100
AcDbEntity
  8
0
100
AcDbPolyline
 90
        4
 70
     1
 43
0.0
 10
7376.81284346612
 20
7394.944909899612
 10
7376.81284346612
 20
7178.944909899612
 10
7592.81284346612
 20
7178.944909899612
 10
7592.81284346612
 20
7394.944909899612
1001
AcDbBlockRepETag
1070
     1
1071
      239
1005
1B0
  0
LWPOLYLINE
  5
1B1
330
BD
100
AcDbEntity
  8
0
100
AcDbPolyline
 90
        4
 70
     0
 43
0.0
 10
7592.81284346612
 20
7394.944909899612
 10
7592.81284346612
 20
7178.944909899612
 10
7808.812843466119
 20
7178.944909899612
 10
7808.812843466119
 20
7394.944909899612
1001
AcDbBlockRepETag
1070
     1
1071
      240
1005
1B1
  0
LWPOLYLINE
  5
1B2
330
BD
100
AcDbEntity
  8
0
100
AcDbPolyline
 90
        4
 70
     1
 43
0.0
 10
7808.812843466119
 20
7394.944909899612
 10
7808.812843466119
 20
7178.944909899612
 10
8024.81284346612
 20
7178.944909899612
 10
8024.81284346612
 20
7394.944909899612
1001
AcDbBlockRepETag
1070
     1
1071
      241
1005
1B2
  0
LINE
  5
1B3
330
BD
100
AcDbEntity
  8
0
100
AcDbLine
 10
464.8128434661193
 20
7178.944909899612
 30
0.0
 11
-0.0012468135100789
 21
7178.944909899612
 31
0.0
1001
AcDbBlockRepETag
1070
     1
1071
      242
1005
1B3
  0
LINE
  5
1B4
330
BD
100
AcDbEntity
  8
0
100
AcDbLine
 10
8024.81284346612
 20
7178.944909899612
 30
0.0
 11
8531.99875318649
 21
7178.944909899612
 31
0.0
1001
AcDbBlockRepETag
1070
     1
1071
      243
1005
1B4
  0
MTEXT
  5
1B5
330
BD
100
AcDbEntity
  8
0
100
AcDbMText
 10
652.6832200844656
 20
900.5285681425011
 30
0.0
 40
168.440366972477
 41
1179.887284879185
 71
     1
 72
     5
  1
{\fTimes New Roman|b0|i0|c0|p18;NET1 +}
 11
0.0000000000000001
 21
1.0
 31
0.0
 73
     1
 44
1.0
1001
AcDbBlockRepETag
1070
     1
1071
      244
1005
1B5
1001
ACAD
1000
MTEXTBEGIN
1070
    73
1070
     1
1070
    44
1040
1.0
1070
    74
1070
     0
1000
MTEXTEND
  0
MTEXT
  5
1B6
330
BD
100
AcDbEntity
  8
0
100
AcDbMText
 10
1019.883220084535
 20
900.5285681425011
 30
0.0
 40
168.440366972477
 41
1179.887284879185
 71
     1
 72
     5
  1
{\fTimes New Roman|b0|i0|c0|p18;NET1 -}
 11
0.0000000000000001
 21
1.0
 31
0.0
 73
     1
 44
1.0
1001
AcDbBlockRepETag
1070
     1
1071
      245
1005
1B6
1001
ACAD
1000
MTEXTBEGIN
1070
    73
1070
     1
1070
    44
1040
1.0
1070
    74
1070
     0
1000
MTEXTEND
  0
MTEXT
  5
1B7
330
BD
100
AcDbEntity
  8
0
100
AcDbMText
 10
1387.083220084954
 20
900.5285681425011
 30
0.0
 40
168.440366972477
 41
1179.887284879185
 71
     1
 72
     5
  1
{\fTimes New Roman|b0|i0|c0|p18;NET2 +}
 11
0.0000000000000001
 21
1.0
 31
0.0
 73
     1
 44
1.0
1001
AcDbBlockRepETag
1070
     1
1071
      246
1005
1B7
1001
ACAD
1000
MTEXTBEGIN
1070
    73
1070
     1
1070
    44
1040
1.0
1070
    74
1070
     0
1000
MTEXTEND
  0
MTEXT
  5
1B8
330
BD
100
AcDbEntity
  8
0
100
AcDbMText
 10
1754.283220085024
 20
900.5285681425011
 30
0.0
 40
168.440366972477
 41
1179.887284879185
 71
     1
 72
     5
  1
{\fTimes New Roman|b0|i0|c0|p18;NET2 -}
 11
0.0000000000000001
 21
1.0
 31
0.0
 73
     1
 44
1.0
1001
AcDbBlockRepETag
1070
     1
1071
      247
1005
1B8
1001
ACAD
1000
MTEXTBEGIN
1070
    73
1070
     1
1070
    44
1040
1.0
1070
    74
1070
     0
1000
MTEXTEND
  0
MTEXT
  5
1B9
330
BD
100
AcDbEntity
  8
0
100
AcDbMText
 10
2121.483220084745
 20
900.5285681425011
 30
0.0
 40
168.440366972477
 41
1179.887284879185
 71
     1
 72
     5
  1
{\fTimes New Roman|b0|i0|c0|p18;GND}
 11
0.0000000000000001
 21
1.0
 31
0.0
 73
     1
 44
1.0
1001
AcDbBlockRepETag
1070
     1
1071
      248
1005
1B9
1001
ACAD
1000
MTEXTBEGIN
1070
    73
1070
     1
1070
    44
1040
1.0
1070
    74
1070
     0
1000
MTEXTEND
  0
MTEXT
  5
1BA
330
BD
100
AcDbEntity
  8
0
100
AcDbMText
 10
2488.683220084466
 20
900.5285681425011
 30
0.0
 40
168.440366972477
 41
1179.887284879185
 71
     1
 72
     5
  1
{\fTimes New Roman|b0|i0|c0|p18;24V OUT}
 11
0.0000000000000001
 21
1.0
 31
0.0
 73
     1
 44
1.0
1001
AcDbBlockRepETag
1070
     1
1071
      249
1005
1BA
1001
ACAD
1000
MTEXTBEGIN
1070
    73
1070
     1
1070
    44
1040
1.0
1070
    74
1070
     0
1000
MTEXTEND
  0
MTEXT
  5
1BB
330
BD
100
AcDbEntity
  8
0
100
AcDbMText
 10
2855.883220084535
 20
900.5285681425011
 30
0.0
 40
168.440366972477
 41
1179.887284879185
 71
     1
 72
     5
  1
{\fTimes New Roman|b0|i0|c0|p18;UI 01}
 11
0.0000000000000001
 21
1.0
 31
0.0
 73
     1
 44
1.0
1001
AcDbBlockRepETag
1070
     1
1071
      250
1005
1BB
1001
ACAD
1000
MTEXTBEGIN
1070
    73
1070
     1
1070
    44
1040
1.0
1070
    74
1070
     0
1000
MTEXTEND
  0
MTEXT
  5
1BC
330
BD
100
AcDbEntity
  8
0
100
AcDbMText
 10
3223.083220084955
 20
900.5285681425011
 30
0.0
 40
168.440366972477
 41
1179.887284879185
 71
     1
 72
     5
  1
{\fTimes New Roman|b0|i0|c0|p18;UI 02}
 11
0.0000000000000001
 21
1.0
 31
0.0
 73
     1
 44
1.0
1001
AcDbBlockRepETag
1070
     1
1071
      251
1005
1BC
1001
ACAD
1000
MTEXTBEGIN
1070
    73
1070
     1
1070
    44
1040
1.0
1070
    74
1070
     0
1000
MTEXTEND
  0
MTEXT
  5
1BD
330
BD
100
AcDbEntity
  8
0
100
AcDbMText
 10
3590.283220085025
 20
900.5285681425011
 30
0.0
 40
168.440366972477
 41
1179.887284879185
 71
     1
 72
     5
  1
{\fTimes New Roman|b0|i0|c0|p18;UI 03}
 11
0.0000000000000001
 21
1.0
 31
0.0
 73
     1
 44
1.0
1001
AcDbBlockRepETag
1070
     1
1071
      252
1005
1BD
1001
ACAD
1000
MTEXTBEGIN
1070
    73
1070
     1
1070
    44
1040
1.0
1070
    74
1070
     0
1000
MTEXTEND
  0
MTEXT
  5
1BE
330
BD
100
AcDbEntity
  8
0
100
AcDbMText
 10
3957.483220084745
 20
900.5285681425011
 30
0.0
 40
168.440366972477
 41
1179.887284879185
 71
     1
 72
     5
  1
{\fTimes New Roman|b0|i0|c0|p18;UI 04}
 11
0.0000000000000001
 21
1.0
 31
0.0
 73
     1
 44
1.0
1001
AcDbBlockRepETag
1070
     1
1071
      253
1005
1BE
1001
ACAD
1000
MTEXTBEGIN
1070
    73
1070
     1
1070
    44
1040
1.0
1070
    74
1070
     0
1000
MTEXTEND
  0
MTEXT
  5
1BF
330
BD
100
AcDbEntity
  8
0
100
AcDbMText
 10
4324.683220084465
 20
900.5285681425011
 30
0.0
 40
168.440366972477
 41
1179.887284879185
 71
     1
 72
     5
  1
{\fTimes New Roman|b0|i0|c0|p18;GND}
 11
0.0000000000000001
 21
1.0
 31
0.0
 73
     1
 44
1.0
1001
AcDbBlockRepETag
1070
     1
1071
      254
1005
1BF
1001
ACAD
1000
MTEXTBEGIN
1070
    73
1070
     1
1070
    44
1040
1.0
1070
    74
1070
     0
1000
MTEXTEND
  0
MTEXT
  5
1C0
330
BD
100
AcDbEntity
  8
0
100
AcDbMText
 10
4691.883220084536
 20
900.5285681425011
 30
0.0
 40
168.440366972477
 41
1179.887284879185
 71
     1
 72
     5
  1
{\fTimes New Roman|b0|i0|c0|p18;UI 05}
 11
0.0000000000000001
 21
1.0
 31
0.0
 73
     1
 44
1.0
1001
AcDbBlockRepETag
1070
     1
1071
      255
1005
1C0
1001
ACAD
1000
MTEXTBEGIN
1070
    73
1070
     1
1070
    44
1040
1.0
1070
    74
1070
     0
1000
MTEXTEND
  0
MTEXT
  5
1C1
330
BD
100
AcDbEntity
  8
0
100
AcDbMText
 10
5059.083220084954
 20
900.5285681425011
 30
0.0
 40
168.440366972477
 41
1179.887284879185
 71
     1
 72
     5
  1
{\fTimes New Roman|b0|i0|c0|p18;UI 06}
 11
0.0000000000000001
 21
1.0
 31
0.0
 73
     1
 44
1.0
1001
AcDbBlockRepETag
1070
     1
1071
      256
1005
1C1
1001
ACAD
1000
MTEXTBEGIN
1070
    73
1070
     1
1070
    44
1040
1.0
1070
    74
1070
     0
1000
MTEXTEND
  0
MTEXT
  5
1C2
330
BD
100
AcDbEntity
  8
0
100
AcDbMText
 10
5426.283220085024
 20
900.5285681425011
 30
0.0
 40
168.440366972477
 41
1179.887284879185
 71
     1
 72
     5
  1
{\fTimes New Roman|b0|i0|c0|p18;UI 07}
 11
0.0000000000000001
 21
1.0
 31
0.0
 73
     1
 44
1.0
1001
AcDbBlockRepETag
1070
     1
1071
      257
1005
1C2
1001
ACAD
1000
MTEXTBEGIN
1070
    73
1070
     1
1070
    44
1040
1.0
1070
    74
1070
     0
1000
MTEXTEND
  0
MTEXT
  5
1C3
330
BD
100
AcDbEntity
  8
0
100
AcDbMText
 10
5793.483220084745
 20
900.5285681425011
 30
0.0
 40
168.440366972477
 41
1179.887284879185
 71
     1
 72
     5
  1
{\fTimes New Roman|b0|i0|c0|p18;UI 08}
 11
0.0000000000000001
 21
1.0
 31
0.0
 73
     1
 44
1.0
1001
AcDbBlockRepETag
1070
     1
1071
      258
1005
1C3
1001
ACAD
1000
MTEXTBEGIN
1070
    73
1070
     1
1070
    44
1040
1.0
1070
    74
1070
     0
1000
MTEXTEND
  0
MTEXT
  5
1C4
330
BD
100
AcDbEntity
  8
0
100
AcDbMText
 10
6160.683220084465
 20
900.5285681425011
 30
0.0
 40
168.440366972477
 41
1179.887284879185
 71
     1
 72
     5
  1
{\fTimes New Roman|b0|i0|c0|p18;GND}
 11
0.0000000000000001
 21
1.0
 31
0.0
 73
     1
 44
1.0
1001
AcDbBlockRepETag
1070
     1
1071
      259
1005
1C4
1001
ACAD
1000
MTEXTBEGIN
1070
    73
1070
     1
1070
    44
1040
1.0
1070
    74
1070
     0
1000
MTEXTEND
  0
MTEXT
  5
1C5
330
BD
100
AcDbEntity
  8
0
100
AcDbMText
 10
6527.883220084535
 20
900.5285681425011
 30
0.0
 40
168.440366972477
 41
1179.887284879185
 71
     1
 72
     5
  1
{\fTimes New Roman|b0|i0|c0|p18;UI 09}
 11
0.0000000000000001
 21
1.0
 31
0.0
 73
     1
 44
1.0
1001
AcDbBlockRepETag
1070
     1
1071
      260
1005
1C5
1001
ACAD
1000
MTEXTBEGIN
1070
    73
1070
     1
1070
    44
1040
1.0
1070
    74
1070
     0
1000
MTEXTEND
  0
MTEXT
  5
1C6
330
BD
100
AcDbEntity
  8
0
100
AcDbMText
 10
6895.083220084955
 20
900.5285681425011
 30
0.0
 40
168.440366972477
 41
1179.887284879185
 71
     1
 72
     5
  1
{\fTimes New Roman|b0|i0|c0|p18;UI 10}
 11
0.0000000000000001
 21
1.0
 31
0.0
 73
     1
 44
1.0
1001
AcDbBlockRepETag
1070
     1
1071
      261
1005
1C6
1001
ACAD
1000
MTEXTBEGIN
1070
    73
1070
     1
1070
    44
1040
1.0
1070
    74
1070
     0
1000
MTEXTEND
  0
MTEXT
  5
1C7
330
BD
100
AcDbEntity
  8
0
100
AcDbMText
 10
7262.283220085024
 20
900.5285681425011
 30
0.0
 40
168.440366972477
 41
1179.887284879185
 71
     1
 72
     5
  1
{\fTimes New Roman|b0|i0|c0|p18;UI 11}
 11
0.0000000000000001
 21
1.0
 31
0.0
 73
     1
 44
1.0
1001
AcDbBlockRepETag
1070
     1
1071
      262
1005
1C7
1001
ACAD
1000
MTEXTBEGIN
1070
    73
1070
     1
1070
    44
1040
1.0
1070
    74
1070
     0
1000
MTEXTEND
  0
MTEXT
  5
1C8
330
BD
100
AcDbEntity
  8
0
100
AcDbMText
 10
7629.483220084745
 20
901.7987020846339
 30
0.0
 40
168.440366972477
 41
1179.887284879185
 71
     1
 72
     5
  1
{\fTimes New Roman|b0|i0|c0|p18;UI 12}
 11
0.0000000000000001
 21
1.0
 31
0.0
 73
     1
 44
1.0
1001
AcDbBlockRepETag
1070
     1
1071
      263
1005
1C8
1001
ACAD
1000
MTEXTBEGIN
1070
    73
1070
     1
1070
    44
1040
1.0
1070
    74
1070
     0
1000
MTEXTEND
  0
MTEXT
  5
1C9
330
BD
100
AcDbEntity
  8
0
100
AcDbMText
 10
1080.838483287545
 20
7397.665190605934
 30
0.0
 40
168.440366972477
 41
1179.887284879185
 71
     1
 72
     5
  1
{\fTimes New Roman|b0|i0|c0|p18;GND IN}
 11
0.0000000000000001
 21
1.0
 31
0.0
 73
     1
 44
1.0
1001
AcDbBlockRepETag
1070
     1
1071
      265
1005
1C9
1001
ACAD
1000
MTEXTBEGIN
1070
    73
1070
     1
1070
    44
1040
1.0
1070
    74
1070
     0
1000
MTEXTEND
  0
MTEXT
  5
1CA
330
BD
100
AcDbEntity
  8
0
100
AcDbMText
 10
1448.038483287615
 20
7397.665190605934
 30
0.0
 40
168.440366972477
 41
1179.887284879185
 71
     1
 72
     5
  1
{\fTimes New Roman|b0|i0|c0|p18;UO 01}
 11
0.0000000000000001
 21
1.0
 31
0.0
 73
     1
 44
1.0
1001
AcDbBlockRepETag
1070
     1
1071
      266
1005
1CA
1001
ACAD
1000
MTEXTBEGIN
1070
    73
1070
     1
1070
    44
1040
1.0
1070
    74
1070
     0
1000
MTEXTEND
  0
MTEXT
  5
1CB
330
BD
100
AcDbEntity
  8
0
100
AcDbMText
 10
1815.238483287336
 20
7397.665190605934
 30
0.0
 40
168.440366972477
 41
1179.887284879185
 71
     1
 72
     5
  1
{\fTimes New Roman|b0|i0|c0|p18;UO 02}
 11
0.0000000000000001
 21
1.0
 31
0.0
 73
     1
 44
1.0
1001
AcDbBlockRepETag
1070
     1
1071
      267
1005
1CB
1001
ACAD
1000
MTEXTBEGIN
1070
    73
1070
     1
1070
    44
1040
1.0
1070
    74
1070
     0
1000
MTEXTEND
  0
MTEXT
  5
1CC
330
BD
100
AcDbEntity
  8
0
100
AcDbMText
 10
2182.438483287056
 20
7397.665190605934
 30
0.0
 40
168.440366972477
 41
1179.887284879185
 71
     1
 72
     5
  1
{\fTimes New Roman|b0|i0|c0|p18;GND}
 11
0.0000000000000001
 21
1.0
 31
0.0
 73
     1
 44
1.0
1001
AcDbBlockRepETag
1070
     1
1071
      268
1005
1CC
1001
ACAD
1000
MTEXTBEGIN
1070
    73
1070
     1
1070
    44
1040
1.0
1070
    74
1070
     0
1000
MTEXTEND
  0
MTEXT
  5
1CD
330
BD
100
AcDbEntity
  8
0
100
AcDbMText
 10
2549.638483287476
 20
7397.665190605934
 30
0.0
 40
168.440366972477
 41
1179.887284879185
 71
     1
 72
     5
  1
{\fTimes New Roman|b0|i0|c0|p18;UO 03}
 11
0.0000000000000001
 21
1.0
 31
0.0
 73
     1
 44
1.0
1001
AcDbBlockRepETag
1070
     1
1071
      269
1005
1CD
1001
ACAD
1000
MTEXTBEGIN
1070
    73
1070
     1
1070
    44
1040
1.0
1070
    74
1070
     0
1000
MTEXTEND
  0
MTEXT
  5
1CE
330
BD
100
AcDbEntity
  8
0
100
AcDbMText
 10
2916.838483287546
 20
7397.665190605934
 30
0.0
 40
168.440366972477
 41
1179.887284879185
 71
     1
 72
     5
  1
{\fTimes New Roman|b0|i0|c0|p18;UO 04}
 11
0.0000000000000001
 21
1.0
 31
0.0
 73
     1
 44
1.0
1001
AcDbBlockRepETag
1070
     1
1071
      270
1005
1CE
1001
ACAD
1000
MTEXTBEGIN
1070
    73
1070
     1
1070
    44
1040
1.0
1070
    74
1070
     0
1000
MTEXTEND
  0
MTEXT
  5
1CF
330
BD
100
AcDbEntity
  8
0
100
AcDbMText
 10
3651.238483287336
 20
7397.665190605934
 30
0.0
 40
168.440366972477
 41
1179.887284879185
 71
     1
 72
     5
  1
{\fTimes New Roman|b0|i0|c0|p18;NO1_1}
 11
0.0000000000000001
 21
1.0
 31
0.0
 73
     1
 44
1.0
1001
AcDbBlockRepETag
1070
     1
1071
      271
1005
1CF
1001
ACAD
1000
MTEXTBEGIN
1070
    73
1070
     1
1070
    44
1040
1.0
1070
    74
1070
     0
1000
MTEXTEND
  0
MTEXT
  5
1D0
330
BD
100
AcDbEntity
  8
0
100
AcDbMText
 10
4018.438483287056
 20
7397.665190605934
 30
0.0
 40
168.440366972477
 41
1179.887284879185
 71
     1
 72
     5
  1
{\fTimes New Roman|b0|i0|c0|p18;NO1_2}
 11
0.0000000000000001
 21
1.0
 31
0.0
 73
     1
 44
1.0
1001
AcDbBlockRepETag
1070
     1
1071
      272
1005
1D0
1001
ACAD
1000
MTEXTBEGIN
1070
    73
1070
     1
1070
    44
1040
1.0
1070
    74
1070
     0
1000
MTEXTEND
  0
MTEXT
  5
1D1
330
BD
100
AcDbEntity
  8
0
100
AcDbMText
 10
4385.638483287475
 20
7397.665190605934
 30
0.0
 40
168.440366972477
 41
1179.887284879185
 71
     1
 72
     5
  1
{\fTimes New Roman|b0|i0|c0|p18;NO2_1}
 11
0.0000000000000001
 21
1.0
 31
0.0
 73
     1
 44
1.0
1001
AcDbBlockRepETag
1070
     1
1071
      273
1005
1D1
1001
ACAD
1000
MTEXTBEGIN
1070
    73
1070
     1
1070
    44
1040
1.0
1070
    74
1070
     0
1000
MTEXTEND
  0
MTEXT
  5
1D2
330
BD
100
AcDbEntity
  8
0
100
AcDbMText
 10
4752.838483287545
 20
7397.665190605934
 30
0.0
 40
168.440366972477
 41
1179.887284879185
 71
     1
 72
     5
  1
{\fTimes New Roman|b0|i0|c0|p18;NO2_2}
 11
0.0000000000000001
 21
1.0
 31
0.0
 73
     1
 44
1.0
1001
AcDbBlockRepETag
1070
     1
1071
      274
1005
1D2
1001
ACAD
1000
MTEXTBEGIN
1070
    73
1070
     1
1070
    44
1040
1.0
1070
    74
1070
     0
1000
MTEXTEND
  0
MTEXT
  5
1D3
330
BD
100
AcDbEntity
  8
0
100
AcDbMText
 10
5120.038483287615
 20
7397.665190605934
 30
0.0
 40
168.440366972477
 41
1179.887284879185
 71
     1
 72
     5
  1
{\fTimes New Roman|b0|i0|c0|p18;NO3_1}
 11
0.0000000000000001
 21
1.0
 31
0.0
 73
     1
 44
1.0
1001
AcDbBlockRepETag
1070
     1
1071
      275
1005
1D3
1001
ACAD
1000
MTEXTBEGIN
1070
    73
1070
     1
1070
    44
1040
1.0
1070
    74
1070
     0
1000
MTEXTEND
  0
MTEXT
  5
1D4
330
BD
100
AcDbEntity
  8
0
100
AcDbMText
 10
5487.238483287335
 20
7397.665190605934
 30
0.0
 40
168.440366972477
 41
1179.887284879185
 71
     1
 72
     5
  1
{\fTimes New Roman|b0|i0|c0|p18;NO3_2}
 11
0.0000000000000001
 21
1.0
 31
0.0
 73
     1
 44
1.0
1001
AcDbBlockRepETag
1070
     1
1071
      276
1005
1D4
1001
ACAD
1000
MTEXTBEGIN
1070
    73
1070
     1
1070
    44
1040
1.0
1070
    74
1070
     0
1000
MTEXTEND
  0
MTEXT
  5
1D5
330
BD
100
AcDbEntity
  8
0
100
AcDbMText
 10
5854.438483287056
 20
7397.665190605934
 30
0.0
 40
168.440366972477
 41
1179.887284879185
 71
     1
 72
     5
  1
{\fTimes New Roman|b0|i0|c0|p18;NO4_1}
 11
0.0000000000000001
 21
1.0
 31
0.0
 73
     1
 44
1.0
1001
AcDbBlockRepETag
1070
     1
1071
      277
1005
1D5
1001
ACAD
1000
MTEXTBEGIN
1070
    73
1070
     1
1070
    44
1040
1.0
1070
    74
1070
     0
1000
MTEXTEND
  0
MTEXT
  5
1D6
330
BD
100
AcDbEntity
  8
0
100
AcDbMText
 10
6221.638483287476
 20
7397.665190605934
 30
0.0
 40
168.440366972477
 41
1179.887284879185
 71
     1
 72
     5
  1
{\fTimes New Roman|b0|i0|c0|p18;NO4_2}
 11
0.0000000000000001
 21
1.0
 31
0.0
 73
     1
 44
1.0
1001
AcDbBlockRepETag
1070
     1
1071
      278
1005
1D6
1001
ACAD
1000
MTEXTBEGIN
1070
    73
1070
     1
1070
    44
1040
1.0
1070
    74
1070
     0
1000
MTEXTEND
  0
MTEXT
  5
1D7
330
BD
100
AcDbEntity
  8
0
100
AcDbMText
 10
6588.838483287545
 20
7397.665190605934
 30
0.0
 40
168.440366972477
 41
1179.887284879185
 71
     1
 72
     5
  1
{\fTimes New Roman|b0|i0|c0|p18;NO5_1}
 11
0.0000000000000001
 21
1.0
 31
0.0
 73
     1
 44
1.0
1001
AcDbBlockRepETag
1070
     1
1071
      279
1005
1D7
1001
ACAD
1000
MTEXTBEGIN
1070
    73
1070
     1
1070
    44
1040
1.0
1070
    74
1070
     0
1000
MTEXTEND
  0
MTEXT
  5
1D8
330
BD
100
AcDbEntity
  8
0
100
AcDbMText
 10
6956.038483287615
 20
7397.665190605934
 30
0.0
 40
168.440366972477
 41
1179.887284879185
 71
     1
 72
     5
  1
{\fTimes New Roman|b0|i0|c0|p18;NO5_2}
 11
0.0000000000000001
 21
1.0
 31
0.0
 73
     1
 44
1.0
1001
AcDbBlockRepETag
1070
     1
1071
      280
1005
1D8
1001
ACAD
1000
MTEXTBEGIN
1070
    73
1070
     1
1070
    44
1040
1.0
1070
    74
1070
     0
1000
MTEXTEND
  0
MTEXT
  5
1D9
330
BD
100
AcDbEntity
  8
0
100
AcDbMText
 10
3284.038483287615
 20
7397.665190605934
 30
0.0
 40
168.440366972477
 41
1179.887284879185
 71
     1
 72
     5
  1
{\fTimes New Roman|b0|i0|c0|p18;GND}
 11
0.0000000000000001
 21
1.0
 31
0.0
 73
     1
 44
1.0
1001
AcDbBlockRepETag
1070
     1
1071
      281
1005
1D9
1001
ACAD
1000
MTEXTBEGIN
1070
    73
1070
     1
1070
    44
1040
1.0
1070
    74
1070
     0
1000
MTEXTEND
  0
MTEXT
  5
1DA
330
BD
100
AcDbEntity
  8
0
100
AcDbMText
 10
7323.238483287336
 20
7397.665190605934
 30
0.0
 40
168.440366972477
 41
1179.887284879185
 71
     1
 72
     5
  1
{\fTimes New Roman|b0|i0|c0|p18;NO6_1}
 11
0.0000000000000001
 21
1.0
 31
0.0
 73
     1
 44
1.0
1001
AcDbBlockRepETag
1070
     1
1071
      282
1005
1DA
1001
ACAD
1000
MTEXTBEGIN
1070
    73
1070
     1
1070
    44
1040
1.0
1070
    74
1070
     0
1000
MTEXTEND
  0
MTEXT
  5
1DB
330
BD
100
AcDbEntity
  8
0
100
AcDbMText
 10
7690.438483287056
 20
7397.665190605934
 30
0.0
 40
168.440366972477
 41
1179.887284879185
 71
     1
 72
     5
  1
{\fTimes New Roman|b0|i0|c0|p18;NO6_2}
 11
0.0000000000000001
 21
1.0
 31
0.0
 73
     1
 44
1.0
1001
AcDbBlockRepETag
1070
     1
1071
      283
1005
1DB
1001
ACAD
1000
MTEXTBEGIN
1070
    73
1070
     1
1070
    44
1040
1.0
1070
    74
1070
     0
1000
MTEXTEND
  0
MTEXT
  5
1DC
330
BD
100
AcDbEntity
  8
0
100
AcDbMText
 10
2511.356456131151
 20
6204.039279688266
 30
0.0
 40
288.0
 41
4212.958542863308
 71
     1
 72
     5
  1
{\fTimes New Roman|b0|i0|c0|p18;PNTECH CONTROLS}
 73
     1
 44
1.0
1001
AcDbBlockRepETag
1070
     1
1071
      284
1005
1DC
1001
ACAD
1000
MTEXTBEGIN
1070
    73
1070
     1
1070
    44
1040
1.0
1070
    74
1070
     0
1000
MTEXTEND
  0
MTEXT
  5
1DD
330
BD
100
AcDbEntity
  8
0
100
AcDbMText
 10
6941.472784489801
 20
3294.082691419986
 30
0.0
 40
180.0
 41
1268.620182746336
 71
     1
 72
     5
  1
{\fTimes New Roman|b0|i0|c0|p18;DDC-C46}
 73
     1
 44
1.0
1001
AcDbBlockRepETag
1070
     1
1071
      285
1005
1DD
1001
ACAD
1000
MTEXTBEGIN
1070
    73
1070
     1
1070
    44
1040
1.0
1070
    74
1070
     0
1000
MTEXTEND
  0
MTEXT
  5
1DE
330
BD
100
AcDbEntity
  8
0
100
AcDbMText
 10
6797.472784489801
 20
3006.082691419986
 30
0.0
 40
144.0
 41
1628.620182478115
 71
     1
 72
     5
  1
{\fTimes New Roman|b0|i0|c0|p18;UNIT CONTROL}
 73
     1
 44
1.0
1001
AcDbBlockRepETag
1070
     1
1071
      286
1005
1DE
1001
ACAD
1000
MTEXTBEGIN
1070
    73
1070
     1
1070
    44
1040
1.0
1070
    74
1070
     0
1000
MTEXTEND
  0
LWPOLYLINE
  5
1DF
330
BD
100
AcDbEntity
  8
TEXT-VN
 62
     7
100
AcDbPolyline
 90
        4
 70
     1
 43
0.0
 10
1154.092901081254
 20
4940.984784621861
 10
2018.092901081254
 20
4940.984784621861
 10
2018.092901081254
 20
4076.984784621862
 10
1154.092901081254
 20
4076.984784621862
1001
AcDbBlockRepETag
1070
     1
1071
      287
1005
1DF
  0
LWPOLYLINE
  5
1E0
330
BD
100
AcDbEntity
  8
TEXT-VN
 62
     7
100
AcDbPolyline
 90
        4
 70
     1
 43
0.0
 10
2738.092901081254
 20
5197.569863487151
 10
6482.092901081254
 20
5197.569863487151
 10
6482.092901081254
 20
3829.569863487152
 10
2738.092901081254
 20
3829.569863487152
1001
AcDbBlockRepETag
1070
     1
1071
      288
1005
1E0
  0
CIRCLE
  5
1E1
330
BD
100
AcDbEntity
  8
TEXT-VN
 62
     7
100
AcDbCircle
 10
7202.092901081254
 20
4873.569863487151
 30
0.0
 40
144.0
1001
AcDbBlockRepETag
1070
     1
1071
      289
1005
1E1
  0
CIRCLE
  5
1E2
330
BD
100
AcDbEntity
  8
TEXT-VN
 62
     7
100
AcDbCircle
 10
7202.092901081254
 20
4153.569863487152
 30
0.0
 40
144.0
1001
AcDbBlockRepETag
1070
     1
1071
      290
1005
1E2
  0
MTEXT
  5
1E3
330
BD
100
AcDbEntity
  8
0
100
AcDbMText
 10
7589.4727844898
 20
5022.082691419986
 30
0.0
 40
180.0
 41
404.6201824781155
 71
     1
 72
     5
  1
{\fTimes New Roman|b0|i0|c0|p18;<>}
 73
     1
 44
1.0
1001
AcDbBlockRepETag
1070
     1
1071
      291
1005
1E3
1001
ACAD
1000
MTEXTBEGIN
1070
    73
1070
     1
1070
    44
1040
1.0
1070
    74
1070
     0
1000
MTEXTEND
  0
MTEXT
  5
1E4
330
BD
100
AcDbEntity
  8
0
100
AcDbMText
 10
1397.4727844898
 20
3942.082691419986
 30
0.0
 40
180.0
 41
476.6201164957737
 71
     1
 72
     5
  1
{\fTimes New Roman|b0|i0|c0|p18;PC}
 73
     1
 44
1.0
1001
AcDbBlockRepETag
1070
     1
1071
      292
1005
1E4
1001
ACAD
1000
MTEXTBEGIN
1070
    73
1070
     1
1070
    44
1040
1.0
1070
    74
1070
     0
1000
MTEXTEND
  0
LINE
  5
1E5
330
BD
100
AcDbEntity
  8
TEXT-VN
 62
     7
100
AcDbLine
 10
7835.692901134899
 20
4356.152597699431
 30
0.0
 11
7835.692901134899
 21
4176.152597699431
 31
0.0
1001
AcDbBlockRepETag
1070
     1
1071
      293
1005
1E5
  0
LINE
  5
1E6
330
BD
100
AcDbEntity
  8
TEXT-VN
 62
     7
100
AcDbLine
 10
7835.692901134899
 20
4176.152597699431
 30
0.0
 11
7580.092901081254
 21
4176.152597699431
 31
0.0
1001
AcDbBlockRepETag
1070
     1
1071
      294
1005
1E6
  0
LINE
  5
1E7
330
BD
100
AcDbEntity
  8
TEXT-VN
 62
     7
100
AcDbLine
 10
7580.092901081254
 20
4176.152597699431
 30
0.0
 11
7650.292901188542
 21
4145.552597645786
 31
0.0
1001
AcDbBlockRepETag
1070
     1
1071
      295
1005
1E7
  0
LINE
  5
1E8
330
BD
100
AcDbEntity
  8
TEXT-VN
 62
     7
100
AcDbLine
 10
7580.092901081254
 20
4176.152597699431
 30
0.0
 11
7650.292901188542
 21
4206.752597753075
 31
0.0
1001
AcDbBlockRepETag
1070
     1
1071
      296
1005
1E8
  0
LWPOLYLINE
  5
1E9
330
BD
100
AcDbEntity
  8
0
 62
     3
100
AcDbPolyline
 90
        4
 70
     1
 43
0.0
 10
1447.556460148597
 20
4940.984784621861
 10
1739.714813594415
 20
4940.984784621861
 10
1739.714813594415
 20
4796.179643358919
 10
1447.556460148597
 20
4796.179643358919
1001
AcDbBlockRepETag
1070
     1
1071
      297
1005
1E9
  0
LINE
  5
1EA
330
BD
100
AcDbEntity
  8
CHANGE
  6
ByBlock
 62
     1
100
AcDbLine
 10
3563.49633456365
 20
4067.515205954085
 30
0.0
 11
3610.417206886516
 21
4103.321579148178
 31
0.0
1001
AcDbBlockRepETag
1070
     1
1071
      298
1005
1EA
  0
LINE
  5
1EB
330
BD
100
AcDbEntity
  8
CHANGE
  6
ByBlock
 62
     1
100
AcDbLine
 10
3578.572510297818
 20
4153.016447295085
 30
0.0
 11
3610.417206886516
 21
4103.321579148178
 31
0.0
1001
AcDbBlockRepETag
1070
     1
1071
      299
1005
1EB
  0
LINE
  5
1EC
330
BD
100
AcDbEntity
  8
CHANGE
  6
ByBlock
 62
     1
100
AcDbLine
 10
3256.566703249526
 20
4067.515205951989
 30
0.0
 11
3224.722006659781
 21
4117.210074098897
 31
0.0
1001
AcDbBlockRepETag
1070
     1
1071
      300
1005
1EC
  0
LINE
  5
1ED
330
BD
100
AcDbEntity
  8
CHANGE
  6
ByBlock
 62
     1
100
AcDbLine
 10
3271.642878982646
 20
4153.016447295085
 30
0.0
 11
3224.722006659781
 21
4117.210074098897
 31
0.0
1001
AcDbBlockRepETag
1070
     1
1071
      301
1005
1ED
  0
LINE
  5
1EE
330
BD
100
AcDbEntity
  8
CHANGE
  6
ByBlock
 62
     1
100
AcDbLine
 10
3578.572510297818
 20
4153.016447295085
 30
0.0
 11
3271.642878982646
 21
4153.016447295085
 31
0.0
1001
AcDbBlockRepETag
1070
     1
1071
      302
1005
1EE
  0
LINE
  5
1EF
330
BD
100
AcDbEntity
  8
CHANGE
  6
ByBlock
 62
     1
100
AcDbLine
 10
3563.49633456365
 20
4067.515205951989
 30
0.0
 11
3256.566703249526
 21
4067.515205951989
 31
0.0
1001
AcDbBlockRepETag
1070
     1
1071
      303
1005
1EF
  0
LINE
  5
1F0
330
BD
100
AcDbEntity
  8
CHANGE
  6
ByBlock
 62
     1
100
AcDbLine
 10
3403.47991019109
 20
4900.701405542553
 30
0.0
 11
3371.635213602393
 21
4950.39627368946
 31
0.0
1001
AcDbBlockRepETag
1070
     1
1071
      304
1005
1F0
  0
LINE
  5
1F1
330
BD
100
AcDbEntity
  8
CHANGE
  6
ByBlock
 62
     1
100
AcDbLine
 10
3418.556085924211
 20
4986.202646887744
 30
0.0
 11
3371.635213601345
 21
4950.39627368946
 31
0.0
1001
AcDbBlockRepETag
1070
     1
1071
      305
1005
1F1
  0
LINE
  5
1F2
330
BD
100
AcDbEntity
  8
CHANGE
  6
ByBlock
 62
     1
100
AcDbLine
 10
3725.485717239382
 20
4986.202646887744
 30
0.0
 11
3418.556085924211
 21
4986.202646887744
 31
0.0
1001
AcDbBlockRepETag
1070
     1
1071
      306
1005
1F2
  0
LINE
  5
1F3
330
BD
100
AcDbEntity
  8
CHANGE
  6
ByBlock
 62
     1
100
AcDbLine
 10
3710.409541505215
 20
4900.701405542553
 30
0.0
 11
3403.47991019109
 21
4900.701405542553
 31
0.0
1001
AcDbBlockRepETag
1070
     1
1071
      307
1005
1F3
  0
LINE
  5
1F4
330
BD
100
AcDbEntity
  8
CHANGE
  6
ByBlock
 62
     1
100
AcDbLine
 10
3650.056697605353
 20
4466.937065689941
 30
0.0
 11
3596.758926455223
 21
4164.67038514174
 31
0.0
1001
AcDbBlockRepETag
1070
     1
1071
      308
1005
1F4
  0
LINE
  5
1F5
330
BD
100
AcDbEntity
  8
CHANGE
  6
ByBlock
 62
     1
100
AcDbLine
 10
3724.311236057372
 20
4453.84398712113
 30
0.0
 11
3671.013464907592
 21
4151.57730657293
 31
0.0
1001
AcDbBlockRepETag
1070
     1
1071
      309
1005
1F5
  0
LINE
  5
1F6
330
BD
100
AcDbEntity
  8
CHANGE
  6
ByBlock
 62
     1
100
AcDbLine
 10
3671.013464907592
 20
4151.57730657293
 30
0.0
 11
3626.779826196784
 21
4117.821621796466
 31
0.0
1001
AcDbBlockRepETag
1070
     1
1071
      310
1005
1F6
  0
LINE
  5
1F7
330
BD
100
AcDbEntity
  8
CHANGE
  6
ByBlock
 62
     1
100
AcDbLine
 10
3596.758926455223
 20
4164.67038514174
 30
0.0
 11
3626.779826196784
 21
4117.821621796466
 31
0.0
1001
AcDbBlockRepETag
1070
     1
1071
      311
1005
1F7
  0
LINE
  5
1F8
330
BD
100
AcDbEntity
  8
CHANGE
  6
ByBlock
 62
     1
100
AcDbLine
 10
3650.056697605353
 20
4466.937065689941
 30
0.0
 11
3694.290336315462
 21
4500.69275046431
 31
0.0
1001
AcDbBlockRepETag
1070
     1
1071
      312
1005
1F8
  0
LINE
  5
1F9
330
BD
100
AcDbEntity
  8
CHANGE
  6
ByBlock
 62
     1
100
AcDbLine
 10
3724.311236057372
 20
4453.84398712113
 30
0.0
 11
3694.290336315462
 21
4500.69275046431
 31
0.0
1001
AcDbBlockRepETag
1070
     1
1071
      313
1005
1F9
  0
LINE
  5
1FA
330
BD
100
AcDbEntity
  8
CHANGE
  6
ByBlock
 62
     1
100
AcDbLine
 10
3670.215529925481
 20
4581.263484937022
 30
0.0
 11
3700.23642966809
 21
4534.414721591748
 31
0.0
1001
AcDbBlockRepETag
1070
     1
1071
      314
1005
1FA
  0
LINE
  5
1FB
330
BD
100
AcDbEntity
  8
CHANGE
  6
ByBlock
 62
     1
100
AcDbLine
 10
3723.513301075611
 20
4883.530165485223
 30
0.0
 11
3670.215529925481
 21
4581.263484937022
 31
0.0
1001
AcDbBlockRepETag
1070
     1
1071
      315
1005
1FB
  0
LINE
  5
1FC
330
BD
100
AcDbEntity
  8
CHANGE
  6
ByBlock
 62
     1
100
AcDbLine
 10
3652.029113768076
 20
4569.609547092463
 30
0.0
 11
3683.873810357123
 21
4519.91467894346
 31
0.0
1001
AcDbBlockRepETag
1070
     1
1071
      316
1005
1FC
  0
LINE
  5
1FD
330
BD
100
AcDbEntity
  8
CHANGE
  6
ByBlock
 62
     1
100
AcDbLine
 10
3636.952938034956
 20
4484.108305749367
 30
0.0
 11
3683.873810357123
 21
4519.91467894346
 31
0.0
1001
AcDbBlockRepETag
1070
     1
1071
      317
1005
1FD
  0
LINE
  5
1FE
330
BD
100
AcDbEntity
  8
CHANGE
  6
ByBlock
 62
     1
100
AcDbLine
 10
3636.952938034956
 20
4484.108305747271
 30
0.0
 11
3330.023306720133
 21
4484.108305747271
 31
0.0
1001
AcDbBlockRepETag
1070
     1
1071
      318
1005
1FE
  0
LINE
  5
1FF
330
BD
100
AcDbEntity
  8
CHANGE
  6
ByBlock
 62
     1
100
AcDbLine
 10
3652.029113768076
 20
4569.609547092463
 30
0.0
 11
3345.099482452905
 21
4569.609547092463
 31
0.0
1001
AcDbBlockRepETag
1070
     1
1071
      319
1005
1FF
  0
LINE
  5
200
330
BD
100
AcDbEntity
  8
CHANGE
  6
ByBlock
 62
     1
100
AcDbLine
 10
3345.099482452905
 20
4569.609547092463
 30
0.0
 11
3298.178610130388
 21
4533.803173894179
 31
0.0
1001
AcDbBlockRepETag
1070
     1
1071
      320
1005
200
  0
LINE
  5
201
330
BD
100
AcDbEntity
  8
CHANGE
  6
ByBlock
 62
     1
100
AcDbLine
 10
3330.023306720133
 20
4484.108305747271
 30
0.0
 11
3298.178610131087
 21
4533.803173894179
 31
0.0
1001
AcDbBlockRepETag
1070
     1
1071
      321
1005
201
  0
LINE
  5
202
330
BD
100
AcDbEntity
  8
CHANGE
  6
ByBlock
 62
     1
100
AcDbLine
 10
3184.284580959531
 20
4183.280765923322
 30
0.0
 11
3214.305480701092
 21
4136.432002578047
 31
0.0
1001
AcDbBlockRepETag
1070
     1
1071
      322
1005
202
  0
LINE
  5
203
330
BD
100
AcDbEntity
  8
CHANGE
  6
ByBlock
 62
     1
100
AcDbLine
 10
3258.53911941225
 20
4170.187687352416
 30
0.0
 11
3214.305480701092
 21
4136.432002578047
 31
0.0
1001
AcDbBlockRepETag
1070
     1
1071
      323
1005
203
  0
LINE
  5
204
330
BD
100
AcDbEntity
  8
CHANGE
  6
ByBlock
 62
     1
100
AcDbLine
 10
3311.836890561332
 20
4472.454367902712
 30
0.0
 11
3281.815990819771
 21
4519.303131245892
 31
0.0
1001
AcDbBlockRepETag
1070
     1
1071
      324
1005
204
  0
LINE
  5
205
330
BD
100
AcDbEntity
  8
CHANGE
  6
ByBlock
 62
     1
100
AcDbLine
 10
3237.582352108614
 20
4485.547446471523
 30
0.0
 11
3281.815990819771
 21
4519.303131245892
 31
0.0
1001
AcDbBlockRepETag
1070
     1
1071
      325
1005
205
  0
LINE
  5
206
330
BD
100
AcDbEntity
  8
CHANGE
  6
ByBlock
 62
     1
100
AcDbLine
 10
3311.836890561332
 20
4472.454367902712
 30
0.0
 11
3258.53911941225
 21
4170.187687352416
 31
0.0
1001
AcDbBlockRepETag
1070
     1
1071
      326
1005
206
  0
LINE
  5
207
330
BD
100
AcDbEntity
  8
CHANGE
  6
ByBlock
 62
     1
100
AcDbLine
 10
3237.582352108614
 20
4485.547446471523
 30
0.0
 11
3184.284580959531
 21
4183.280765923322
 31
0.0
1001
AcDbBlockRepETag
1070
     1
1071
      327
1005
207
  0
LINE
  5
208
330
BD
100
AcDbEntity
  8
CHANGE
  6
ByBlock
 62
     1
100
AcDbLine
 10
3311.038955580618
 20
4902.140546266804
 30
0.0
 11
3257.741184430139
 21
4599.873865718604
 31
0.0
1001
AcDbBlockRepETag
1070
     1
1071
      328
1005
208
  0
LINE
  5
209
330
BD
100
AcDbEntity
  8
CHANGE
  6
ByBlock
 62
     1
100
AcDbLine
 10
3385.293494032638
 20
4889.047467697993
 30
0.0
 11
3331.995722882508
 21
4586.780787149793
 31
0.0
1001
AcDbBlockRepETag
1070
     1
1071
      329
1005
209
  0
LINE
  5
20A
330
BD
100
AcDbEntity
  8
CHANGE
  6
ByBlock
 62
     1
100
AcDbLine
 10
3311.038955580618
 20
4902.140546266804
 30
0.0
 11
3355.272594291077
 21
4935.896231041174
 31
0.0
1001
AcDbBlockRepETag
1070
     1
1071
      330
1005
20A
  0
LINE
  5
20B
330
BD
100
AcDbEntity
  8
CHANGE
  6
ByBlock
 62
     1
100
AcDbLine
 10
3385.293494032638
 20
4889.047467697993
 30
0.0
 11
3355.272594291077
 21
4935.896231041174
 31
0.0
1001
AcDbBlockRepETag
1070
     1
1071
      331
1005
20B
  0
LINE
  5
20C
330
BD
100
AcDbEntity
  8
CHANGE
  6
ByBlock
 62
     1
100
AcDbLine
 10
3331.995722882508
 20
4586.780787149793
 30
0.0
 11
3287.762084172399
 21
4553.025102373329
 31
0.0
1001
AcDbBlockRepETag
1070
     1
1071
      332
1005
20C
  0
LINE
  5
20D
330
BD
100
AcDbEntity
  8
CHANGE
  6
ByBlock
 62
     1
100
AcDbLine
 10
3257.741184430139
 20
4599.873865718604
 30
0.0
 11
3287.762084172399
 21
4553.025102373329
 31
0.0
1001
AcDbBlockRepETag
1070
     1
1071
      333
1005
20D
  0
CIRCLE
  5
20E
330
BD
100
AcDbEntity
  8
CHANGE
  6
ByBlock
 62
     1
100
AcDbCircle
 10
4608.900397939549
 20
4103.321579148178
 30
0.0
 40
58.73265839740634
1001
AcDbBlockRepETag
1070
     1
1071
      334
1005
20E
  0
LINE
  5
20F
330
BD
100
AcDbEntity
  8
CHANGE
  6
ByBlock
 62
     1
100
AcDbLine
 10
5140.159070378111
 20
4067.515205954085
 30
0.0
 11
5187.079942700278
 21
4103.321579148178
 31
0.0
1001
AcDbBlockRepETag
1070
     1
1071
      335
1005
20F
  0
LINE
  5
210
330
BD
100
AcDbEntity
  8
CHANGE
  6
ByBlock
 62
     1
100
AcDbLine
 10
5155.235246111581
 20
4153.016447295085
 30
0.0
 11
5187.079942700278
 21
4103.321579148178
 31
0.0
1001
AcDbBlockRepETag
1070
     1
1071
      336
1005
210
  0
LINE
  5
211
330
BD
100
AcDbEntity
  8
CHANGE
  6
ByBlock
 62
     1
100
AcDbLine
 10
4833.229439063289
 20
4067.515205951989
 30
0.0
 11
4801.384742474591
 21
4117.210074098897
 31
0.0
1001
AcDbBlockRepETag
1070
     1
1071
      337
1005
211
  0
LINE
  5
212
330
BD
100
AcDbEntity
  8
CHANGE
  6
ByBlock
 62
     1
100
AcDbLine
 10
4848.305614796409
 20
4153.016447295085
 30
0.0
 11
4801.384742473543
 21
4117.210074098897
 31
0.0
1001
AcDbBlockRepETag
1070
     1
1071
      338
1005
212
  0
LINE
  5
213
330
BD
100
AcDbEntity
  8
CHANGE
  6
ByBlock
 62
     1
100
AcDbLine
 10
5155.235246111581
 20
4153.016447295085
 30
0.0
 11
4848.305614796409
 21
4153.016447295085
 31
0.0
1001
AcDbBlockRepETag
1070
     1
1071
      339
1005
213
  0
LINE
  5
214
330
BD
100
AcDbEntity
  8
CHANGE
  6
ByBlock
 62
     1
100
AcDbLine
 10
5140.159070378111
 20
4067.515205951989
 30
0.0
 11
4833.229439063289
 21
4067.515205951989
 31
0.0
1001
AcDbBlockRepETag
1070
     1
1071
      340
1005
214
  0
LINE
  5
215
330
BD
100
AcDbEntity
  8
CHANGE
  6
ByBlock
 62
     1
100
AcDbLine
 10
5287.072277319326
 20
4900.701405544649
 30
0.0
 11
5333.993149641843
 21
4936.507778738742
 31
0.0
1001
AcDbBlockRepETag
1070
     1
1071
      341
1005
215
  0
LINE
  5
216
330
BD
100
AcDbEntity
  8
CHANGE
  6
ByBlock
 62
     1
100
AcDbLine
 10
5302.148453054193
 20
4986.202646887744
 30
0.0
 11
5333.993149641843
 21
4936.507778738742
 31
0.0
1001
AcDbBlockRepETag
1070
     1
1071
      342
1005
216
  0
LINE
  5
217
330
BD
100
AcDbEntity
  8
CHANGE
  6
ByBlock
 62
     1
100
AcDbLine
 10
4980.142646004853
 20
4900.701405542553
 30
0.0
 11
4948.297949416155
 21
4950.39627368946
 31
0.0
1001
AcDbBlockRepETag
1070
     1
1071
      343
1005
217
  0
LINE
  5
218
330
BD
100
AcDbEntity
  8
CHANGE
  6
ByBlock
 62
     1
100
AcDbLine
 10
4995.218821739021
 20
4986.202646887744
 30
0.0
 11
4948.297949416155
 21
4950.39627368946
 31
0.0
1001
AcDbBlockRepETag
1070
     1
1071
      344
1005
218
  0
LINE
  5
219
330
BD
100
AcDbEntity
  8
CHANGE
  6
ByBlock
 62
     1
100
AcDbLine
 10
5302.148453054193
 20
4986.202646887744
 30
0.0
 11
4995.218821739021
 21
4986.202646887744
 31
0.0
1001
AcDbBlockRepETag
1070
     1
1071
      345
1005
219
  0
LINE
  5
21A
330
BD
100
AcDbEntity
  8
CHANGE
  6
ByBlock
 62
     1
100
AcDbLine
 10
5287.072277319326
 20
4900.701405542553
 30
0.0
 11
4980.142646004853
 21
4900.701405542553
 31
0.0
1001
AcDbBlockRepETag
1070
     1
1071
      346
1005
21A
  0
LINE
  5
21B
330
BD
100
AcDbEntity
  8
CHANGE
  6
ByBlock
 62
     1
100
AcDbLine
 10
5226.719433419115
 20
4466.937065689941
 30
0.0
 11
5173.421662268985
 21
4164.67038514174
 31
0.0
1001
AcDbBlockRepETag
1070
     1
1071
      347
1005
21B
  0
LINE
  5
21C
330
BD
100
AcDbEntity
  8
CHANGE
  6
ByBlock
 62
     1
100
AcDbLine
 10
5300.973971871834
 20
4453.84398712113
 30
0.0
 11
5247.676200721704
 21
4151.57730657293
 31
0.0
1001
AcDbBlockRepETag
1070
     1
1071
      348
1005
21C
  0
LINE
  5
21D
330
BD
100
AcDbEntity
  8
CHANGE
  6
ByBlock
 62
     1
100
AcDbLine
 10
5247.676200721704
 20
4151.57730657293
 30
0.0
 11
5203.442562011245
 21
4117.821621796466
 31
0.0
1001
AcDbBlockRepETag
1070
     1
1071
      349
1005
21D
  0
LINE
  5
21E
330
BD
100
AcDbEntity
  8
CHANGE
  6
ByBlock
 62
     1
100
AcDbLine
 10
5173.421662268985
 20
4164.67038514174
 30
0.0
 11
5203.442562011245
 21
4117.821621796466
 31
0.0
1001
AcDbBlockRepETag
1070
     1
1071
      350
1005
21E
  0
LINE
  5
21F
330
BD
100
AcDbEntity
  8
CHANGE
  6
ByBlock
 62
     1
100
AcDbLine
 10
5226.719433419115
 20
4466.937065689941
 30
0.0
 11
5270.953072129225
 21
4500.69275046431
 31
0.0
1001
AcDbBlockRepETag
1070
     1
1071
      351
1005
21F
  0
LINE
  5
220
330
BD
100
AcDbEntity
  8
CHANGE
  6
ByBlock
 62
     1
100
AcDbLine
 10
5300.973971871834
 20
4453.84398712113
 30
0.0
 11
5270.953072129225
 21
4500.69275046431
 31
0.0
1001
AcDbBlockRepETag
1070
     1
1071
      352
1005
220
  0
LINE
  5
221
330
BD
100
AcDbEntity
  8
CHANGE
  6
ByBlock
 62
     1
100
AcDbLine
 10
5246.878265739593
 20
4581.263484937022
 30
0.0
 11
5276.899165481853
 21
4534.414721591748
 31
0.0
1001
AcDbBlockRepETag
1070
     1
1071
      353
1005
221
  0
LINE
  5
222
330
BD
100
AcDbEntity
  8
CHANGE
  6
ByBlock
 62
     1
100
AcDbLine
 10
5321.132804191962
 20
4568.170406368212
 30
0.0
 11
5276.899165481853
 21
4534.414721591748
 31
0.0
1001
AcDbBlockRepETag
1070
     1
1071
      354
1005
222
  0
LINE
  5
223
330
BD
100
AcDbEntity
  8
CHANGE
  6
ByBlock
 62
     1
100
AcDbLine
 10
5374.430575342092
 20
4870.437086916412
 30
0.0
 11
5344.409675600531
 21
4917.285850259592
 31
0.0
1001
AcDbBlockRepETag
1070
     1
1071
      355
1005
223
  0
LINE
  5
224
330
BD
100
AcDbEntity
  8
CHANGE
  6
ByBlock
 62
     1
100
AcDbLine
 10
5300.176036890072
 20
4883.530165485223
 30
0.0
 11
5344.409675600531
 21
4917.285850259592
 31
0.0
1001
AcDbBlockRepETag
1070
     1
1071
      356
1005
224
  0
LINE
  5
225
330
BD
100
AcDbEntity
  8
CHANGE
  6
ByBlock
 62
     1
100
AcDbLine
 10
5374.430575342092
 20
4870.437086916412
 30
0.0
 11
5321.132804191962
 21
4568.170406368212
 31
0.0
1001
AcDbBlockRepETag
1070
     1
1071
      357
1005
225
  0
LINE
  5
226
330
BD
100
AcDbEntity
  8
CHANGE
  6
ByBlock
 62
     1
100
AcDbLine
 10
5300.176036890072
 20
4883.530165485223
 30
0.0
 11
5246.878265739593
 21
4581.263484937022
 31
0.0
1001
AcDbBlockRepETag
1070
     1
1071
      358
1005
226
  0
LINE
  5
227
330
BD
100
AcDbEntity
  8
CHANGE
  6
ByBlock
 62
     1
100
AcDbLine
 10
5228.691849582538
 20
4569.609547092463
 30
0.0
 11
5260.536546171585
 21
4519.91467894346
 31
0.0
1001
AcDbBlockRepETag
1070
     1
1071
      359
1005
227
  0
LINE
  5
228
330
BD
100
AcDbEntity
  8
CHANGE
  6
ByBlock
 62
     1
100
AcDbLine
 10
5213.615673848718
 20
4484.108305749367
 30
0.0
 11
5260.536546171585
 21
4519.91467894346
 31
0.0
1001
AcDbBlockRepETag
1070
     1
1071
      360
1005
228
  0
LINE
  5
229
330
BD
100
AcDbEntity
  8
CHANGE
  6
ByBlock
 62
     1
100
AcDbLine
 10
5213.615673848718
 20
4484.108305747271
 30
0.0
 11
4906.686042534595
 21
4484.108305747271
 31
0.0
1001
AcDbBlockRepETag
1070
     1
1071
      361
1005
229
  0
LINE
  5
22A
330
BD
100
AcDbEntity
  8
CHANGE
  6
ByBlock
 62
     1
100
AcDbLine
 10
5228.691849582538
 20
4569.609547092463
 30
0.0
 11
4921.762218267366
 21
4569.609547092463
 31
0.0
1001
AcDbBlockRepETag
1070
     1
1071
      362
1005
22A
  0
LINE
  5
22B
330
BD
100
AcDbEntity
  8
CHANGE
  6
ByBlock
 62
     1
100
AcDbLine
 10
4921.762218267366
 20
4569.609547092463
 30
0.0
 11
4874.841345944849
 21
4533.803173894179
 31
0.0
1001
AcDbBlockRepETag
1070
     1
1071
      363
1005
22B
  0
LINE
  5
22C
330
BD
100
AcDbEntity
  8
CHANGE
  6
ByBlock
 62
     1
100
AcDbLine
 10
4906.686042534595
 20
4484.108305747271
 30
0.0
 11
4874.841345945547
 21
4533.803173894179
 31
0.0
1001
AcDbBlockRepETag
1070
     1
1071
      364
1005
22C
  0
LINE
  5
22D
330
BD
100
AcDbEntity
  8
CHANGE
  6
ByBlock
 62
     1
100
AcDbLine
 10
4760.947316773294
 20
4183.280765923322
 30
0.0
 11
4790.968216515903
 21
4136.432002578047
 31
0.0
1001
AcDbBlockRepETag
1070
     1
1071
      365
1005
22D
  0
LINE
  5
22E
330
BD
100
AcDbEntity
  8
CHANGE
  6
ByBlock
 62
     1
100
AcDbLine
 10
4835.201855226013
 20
4170.187687352416
 30
0.0
 11
4790.968216515903
 21
4136.432002578047
 31
0.0
1001
AcDbBlockRepETag
1070
     1
1071
      366
1005
22E
  0
LINE
  5
22F
330
BD
100
AcDbEntity
  8
CHANGE
  6
ByBlock
 62
     1
100
AcDbLine
 10
4888.499626376142
 20
4472.454367902712
 30
0.0
 11
4858.478726634232
 21
4519.303131245892
 31
0.0
1001
AcDbBlockRepETag
1070
     1
1071
      367
1005
22F
  0
LINE
  5
230
330
BD
100
AcDbEntity
  8
CHANGE
  6
ByBlock
 62
     1
100
AcDbLine
 10
4814.245087923424
 20
4485.547446471523
 30
0.0
 11
4858.478726634232
 21
4519.303131245892
 31
0.0
1001
AcDbBlockRepETag
1070
     1
1071
      368
1005
230
  0
LINE
  5
231
330
BD
100
AcDbEntity
  8
CHANGE
  6
ByBlock
 62
     1
100
AcDbLine
 10
4888.499626376142
 20
4472.454367902712
 30
0.0
 11
4835.201855226013
 21
4170.187687352416
 31
0.0
1001
AcDbBlockRepETag
1070
     1
1071
      369
1005
231
  0
LINE
  5
232
330
BD
100
AcDbEntity
  8
CHANGE
  6
ByBlock
 62
     1
100
AcDbLine
 10
4814.245087923424
 20
4485.547446471523
 30
0.0
 11
4760.947316773294
 21
4183.280765923322
 31
0.0
1001
AcDbBlockRepETag
1070
     1
1071
      370
1005
232
  0
LINE
  5
233
330
BD
100
AcDbEntity
  8
CHANGE
  6
ByBlock
 62
     1
100
AcDbLine
 10
4887.70169139473
 20
4902.140546266804
 30
0.0
 11
4834.4039202446
 21
4599.873865718604
 31
0.0
1001
AcDbBlockRepETag
1070
     1
1071
      371
1005
233
  0
LINE
  5
234
330
BD
100
AcDbEntity
  8
CHANGE
  6
ByBlock
 62
     1
100
AcDbLine
 10
4961.956229847099
 20
4889.047467697993
 30
0.0
 11
4908.65845869662
 21
4586.780787149793
 31
0.0
1001
AcDbBlockRepETag
1070
     1
1071
      372
1005
234
  0
LINE
  5
235
330
BD
100
AcDbEntity
  8
CHANGE
  6
ByBlock
 62
     1
100
AcDbLine
 10
4887.70169139473
 20
4902.140546266804
 30
0.0
 11
4931.935330104839
 21
4935.896231041174
 31
0.0
1001
AcDbBlockRepETag
1070
     1
1071
      373
1005
235
  0
LINE
  5
236
330
BD
100
AcDbEntity
  8
CHANGE
  6
ByBlock
 62
     1
100
AcDbLine
 10
4961.956229847099
 20
4889.047467697993
 30
0.0
 11
4931.935330104839
 21
4935.896231041174
 31
0.0
1001
AcDbBlockRepETag
1070
     1
1071
      374
1005
236
  0
LINE
  5
237
330
BD
100
AcDbEntity
  8
CHANGE
  6
ByBlock
 62
     1
100
AcDbLine
 10
4908.65845869662
 20
4586.780787149793
 30
0.0
 11
4864.424819986161
 21
4553.025102373329
 31
0.0
1001
AcDbBlockRepETag
1070
     1
1071
      375
1005
237
  0
LINE
  5
238
330
BD
100
AcDbEntity
  8
CHANGE
  6
ByBlock
 62
     1
100
AcDbLine
 10
4834.4039202446
 20
4599.873865718604
 30
0.0
 11
4864.424819986161
 21
4553.025102373329
 31
0.0
1001
AcDbBlockRepETag
1070
     1
1071
      376
1005
238
  0
LINE
  5
239
330
BD
100
AcDbEntity
  8
CHANGE
  6
ByBlock
 62
     1
100
AcDbLine
 10
4046.072552337719
 20
4599.873865718604
 30
0.0
 11
4076.093452079279
 21
4553.025102373329
 31
0.0
1001
AcDbBlockRepETag
1070
     1
1071
      377
1005
239
  0
LINE
  5
23A
330
BD
100
AcDbEntity
  8
CHANGE
  6
ByBlock
 62
     1
100
AcDbLine
 10
4120.327090789389
 20
4586.780787149793
 30
0.0
 11
4076.093452079279
 21
4553.025102373329
 31
0.0
1001
AcDbBlockRepETag
1070
     1
1071
      378
1005
23A
  0
LINE
  5
23B
330
BD
100
AcDbEntity
  8
CHANGE
  6
ByBlock
 62
     1
100
AcDbLine
 10
4173.624861939519
 20
4889.047467697993
 30
0.0
 11
4143.603962197609
 21
4935.896231041174
 31
0.0
1001
AcDbBlockRepETag
1070
     1
1071
      379
1005
23B
  0
LINE
  5
23C
330
BD
100
AcDbEntity
  8
CHANGE
  6
ByBlock
 62
     1
100
AcDbLine
 10
4099.370323486801
 20
4902.140546266804
 30
0.0
 11
4143.603962197609
 21
4935.896231041174
 31
0.0
1001
AcDbBlockRepETag
1070
     1
1071
      380
1005
23C
  0
LINE
  5
23D
330
BD
100
AcDbEntity
  8
CHANGE
  6
ByBlock
 62
     1
100
AcDbLine
 10
4173.624861939519
 20
4889.047467697993
 30
0.0
 11
4120.327090789389
 21
4586.780787149793
 31
0.0
1001
AcDbBlockRepETag
1070
     1
1071
      381
1005
23D
  0
LINE
  5
23E
330
BD
100
AcDbEntity
  8
CHANGE
  6
ByBlock
 62
     1
100
AcDbLine
 10
4099.370323486801
 20
4902.140546266804
 30
0.0
 11
4046.072552337719
 21
4599.873865718604
 31
0.0
1001
AcDbBlockRepETag
1070
     1
1071
      382
1005
23E
  0
LINE
  5
23F
330
BD
100
AcDbEntity
  8
CHANGE
  6
ByBlock
 62
     1
100
AcDbLine
 10
4025.913720016542
 20
4485.547446471523
 30
0.0
 11
3972.615948866413
 21
4183.280765923322
 31
0.0
1001
AcDbBlockRepETag
1070
     1
1071
      383
1005
23F
  0
LINE
  5
240
330
BD
100
AcDbEntity
  8
CHANGE
  6
ByBlock
 62
     1
100
AcDbLine
 10
4100.168258468562
 20
4472.454367902712
 30
0.0
 11
4046.870487318781
 21
4170.187687352416
 31
0.0
1001
AcDbBlockRepETag
1070
     1
1071
      384
1005
240
  0
LINE
  5
241
330
BD
100
AcDbEntity
  8
CHANGE
  6
ByBlock
 62
     1
100
AcDbLine
 10
4025.913720016542
 20
4485.547446471523
 30
0.0
 11
4070.147358726652
 21
4519.303131245892
 31
0.0
1001
AcDbBlockRepETag
1070
     1
1071
      385
1005
241
  0
LINE
  5
242
330
BD
100
AcDbEntity
  8
CHANGE
  6
ByBlock
 62
     1
100
AcDbLine
 10
4100.168258468562
 20
4472.454367902712
 30
0.0
 11
4070.147358726652
 21
4519.303131245892
 31
0.0
1001
AcDbBlockRepETag
1070
     1
1071
      386
1005
242
  0
LINE
  5
243
330
BD
100
AcDbEntity
  8
CHANGE
  6
ByBlock
 62
     1
100
AcDbLine
 10
4046.870487318781
 20
4170.187687352416
 30
0.0
 11
4002.636848607973
 21
4136.432002578047
 31
0.0
1001
AcDbBlockRepETag
1070
     1
1071
      387
1005
243
  0
LINE
  5
244
330
BD
100
AcDbEntity
  8
CHANGE
  6
ByBlock
 62
     1
100
AcDbLine
 10
3972.615948866413
 20
4183.280765923322
 30
0.0
 11
4002.636848607973
 21
4136.432002578047
 31
0.0
1001
AcDbBlockRepETag
1070
     1
1071
      388
1005
244
  0
LINE
  5
245
330
BD
100
AcDbEntity
  8
CHANGE
  6
ByBlock
 62
     1
100
AcDbLine
 10
4118.354674626665
 20
4484.108305747271
 30
0.0
 11
4086.509978037968
 21
4533.803173894179
 31
0.0
1001
AcDbBlockRepETag
1070
     1
1071
      389
1005
245
  0
LINE
  5
246
330
BD
100
AcDbEntity
  8
CHANGE
  6
ByBlock
 62
     1
100
AcDbLine
 10
4133.430850360833
 20
4569.609547092463
 30
0.0
 11
4086.509978037968
 21
4533.803173894179
 31
0.0
1001
AcDbBlockRepETag
1070
     1
1071
      390
1005
246
  0
LINE
  5
247
330
BD
100
AcDbEntity
  8
CHANGE
  6
ByBlock
 62
     1
100
AcDbLine
 10
4440.360481676005
 20
4569.609547092463
 30
0.0
 11
4133.430850360833
 21
4569.609547092463
 31
0.0
1001
AcDbBlockRepETag
1070
     1
1071
      391
1005
247
  0
LINE
  5
248
330
BD
100
AcDbEntity
  8
CHANGE
  6
ByBlock
 62
     1
100
AcDbLine
 10
4425.284305941488
 20
4484.108305747271
 30
0.0
 11
4118.354674626665
 21
4484.108305747271
 31
0.0
1001
AcDbBlockRepETag
1070
     1
1071
      392
1005
248
  0
LINE
  5
249
330
BD
100
AcDbEntity
  8
CHANGE
  6
ByBlock
 62
     1
100
AcDbLine
 10
4425.284305941488
 20
4484.108305749367
 30
0.0
 11
4472.205178263656
 21
4519.91467894346
 31
0.0
1001
AcDbBlockRepETag
1070
     1
1071
      393
1005
249
  0
LINE
  5
24A
330
BD
100
AcDbEntity
  8
CHANGE
  6
ByBlock
 62
     1
100
AcDbLine
 10
4440.360481676005
 20
4569.609547092463
 30
0.0
 11
4472.205178263656
 21
4519.91467894346
 31
0.0
1001
AcDbBlockRepETag
1070
     1
1071
      394
1005
24A
  0
LINE
  5
24B
330
BD
100
AcDbEntity
  8
CHANGE
  6
ByBlock
 62
     1
100
AcDbLine
 10
4511.844668982492
 20
4883.530165485223
 30
0.0
 11
4458.54689783341
 21
4581.263484937022
 31
0.0
1001
AcDbBlockRepETag
1070
     1
1071
      395
1005
24B
  0
LINE
  5
24C
330
BD
100
AcDbEntity
  8
CHANGE
  6
ByBlock
 62
     1
100
AcDbLine
 10
4586.099207435211
 20
4870.437086916412
 30
0.0
 11
4532.80143628543
 21
4568.170406368212
 31
0.0
1001
AcDbBlockRepETag
1070
     1
1071
      396
1005
24C
  0
LINE
  5
24D
330
BD
100
AcDbEntity
  8
CHANGE
  6
ByBlock
 62
     1
100
AcDbLine
 10
4511.844668982492
 20
4883.530165485223
 30
0.0
 11
4556.078307692602
 21
4917.285850259592
 31
0.0
1001
AcDbBlockRepETag
1070
     1
1071
      397
1005
24D
  0
LINE
  5
24E
330
BD
100
AcDbEntity
  8
CHANGE
  6
ByBlock
 62
     1
100
AcDbLine
 10
4586.099207435211
 20
4870.437086916412
 30
0.0
 11
4556.078307692602
 21
4917.285850259592
 31
0.0
1001
AcDbBlockRepETag
1070
     1
1071
      398
1005
24E
  0
LINE
  5
24F
330
BD
100
AcDbEntity
  8
CHANGE
  6
ByBlock
 62
     1
100
AcDbLine
 10
4532.80143628543
 20
4568.170406368212
 30
0.0
 11
4488.567797574622
 21
4534.414721591748
 31
0.0
1001
AcDbBlockRepETag
1070
     1
1071
      399
1005
24F
  0
LINE
  5
250
330
BD
100
AcDbEntity
  8
CHANGE
  6
ByBlock
 62
     1
100
AcDbLine
 10
4458.54689783341
 20
4581.263484937022
 30
0.0
 11
4488.567797574622
 21
4534.414721591748
 31
0.0
1001
AcDbBlockRepETag
1070
     1
1071
      400
1005
250
  0
LINE
  5
251
330
BD
100
AcDbEntity
  8
CHANGE
  6
ByBlock
 62
     1
100
AcDbLine
 10
4512.642603963905
 20
4453.84398712113
 30
0.0
 11
4482.621704222343
 21
4500.69275046431
 31
0.0
1001
AcDbBlockRepETag
1070
     1
1071
      401
1005
251
  0
LINE
  5
252
330
BD
100
AcDbEntity
  8
CHANGE
  6
ByBlock
 62
     1
100
AcDbLine
 10
4438.388065511535
 20
4466.937065689941
 30
0.0
 11
4482.621704222343
 21
4500.69275046431
 31
0.0
1001
AcDbBlockRepETag
1070
     1
1071
      402
1005
252
  0
LINE
  5
253
330
BD
100
AcDbEntity
  8
CHANGE
  6
ByBlock
 62
     1
100
AcDbLine
 10
4385.090294362104
 20
4164.67038514174
 30
0.0
 11
4415.111194103665
 21
4117.821621796466
 31
0.0
1001
AcDbBlockRepETag
1070
     1
1071
      403
1005
253
  0
LINE
  5
254
330
BD
100
AcDbEntity
  8
CHANGE
  6
ByBlock
 62
     1
100
AcDbLine
 10
4459.344832813775
 20
4151.57730657293
 30
0.0
 11
4415.111194103665
 21
4117.821621796466
 31
0.0
1001
AcDbBlockRepETag
1070
     1
1071
      404
1005
254
  0
LINE
  5
255
330
BD
100
AcDbEntity
  8
CHANGE
  6
ByBlock
 62
     1
100
AcDbLine
 10
4512.642603963905
 20
4453.84398712113
 30
0.0
 11
4459.344832813775
 21
4151.57730657293
 31
0.0
1001
AcDbBlockRepETag
1070
     1
1071
      405
1005
255
  0
LINE
  5
256
330
BD
100
AcDbEntity
  8
CHANGE
  6
ByBlock
 62
     1
100
AcDbLine
 10
4438.388065511535
 20
4466.937065689941
 30
0.0
 11
4385.090294362104
 21
4164.67038514174
 31
0.0
1001
AcDbBlockRepETag
1070
     1
1071
      406
1005
256
  0
LINE
  5
257
330
BD
100
AcDbEntity
  8
CHANGE
  6
ByBlock
 62
     1
100
AcDbLine
 10
4498.740909412096
 20
4900.701405542553
 30
0.0
 11
4191.811278097971
 21
4900.701405542553
 31
0.0
1001
AcDbBlockRepETag
1070
     1
1071
      407
1005
257
  0
LINE
  5
258
330
BD
100
AcDbEntity
  8
CHANGE
  6
ByBlock
 62
     1
100
AcDbLine
 10
4513.817085146263
 20
4986.202646887744
 30
0.0
 11
4206.887453831092
 21
4986.202646887744
 31
0.0
1001
AcDbBlockRepETag
1070
     1
1071
      408
1005
258
  0
LINE
  5
259
330
BD
100
AcDbEntity
  8
CHANGE
  6
ByBlock
 62
     1
100
AcDbLine
 10
4206.887453831092
 20
4986.202646887744
 30
0.0
 11
4159.966581508925
 21
4950.39627368946
 31
0.0
1001
AcDbBlockRepETag
1070
     1
1071
      409
1005
259
  0
LINE
  5
25A
330
BD
100
AcDbEntity
  8
CHANGE
  6
ByBlock
 62
     1
100
AcDbLine
 10
4191.811278097971
 20
4900.701405542553
 30
0.0
 11
4159.966581508925
 21
4950.39627368946
 31
0.0
1001
AcDbBlockRepETag
1070
     1
1071
      410
1005
25A
  0
LINE
  5
25B
330
BD
100
AcDbEntity
  8
CHANGE
  6
ByBlock
 62
     1
100
AcDbLine
 10
4513.817085146263
 20
4986.202646887744
 30
0.0
 11
4545.661781734962
 21
4936.507778738742
 31
0.0
1001
AcDbBlockRepETag
1070
     1
1071
      411
1005
25B
  0
LINE
  5
25C
330
BD
100
AcDbEntity
  8
CHANGE
  6
ByBlock
 62
     1
100
AcDbLine
 10
4498.740909412096
 20
4900.701405544649
 30
0.0
 11
4545.661781734962
 21
4936.507778738742
 31
0.0
1001
AcDbBlockRepETag
1070
     1
1071
      412
1005
25C
  0
LINE
  5
25D
330
BD
100
AcDbEntity
  8
CHANGE
  6
ByBlock
 62
     1
100
AcDbLine
 10
4351.827702470531
 20
4067.515205951989
 30
0.0
 11
4044.898071156407
 21
4067.515205951989
 31
0.0
1001
AcDbBlockRepETag
1070
     1
1071
      413
1005
25D
  0
LINE
  5
25E
330
BD
100
AcDbEntity
  8
CHANGE
  6
ByBlock
 62
     1
100
AcDbLine
 10
4366.903878204699
 20
4153.016447295085
 30
0.0
 11
4059.974246889527
 21
4153.016447295085
 31
0.0
1001
AcDbBlockRepETag
1070
     1
1071
      414
1005
25E
  0
LINE
  5
25F
330
BD
100
AcDbEntity
  8
CHANGE
  6
ByBlock
 62
     1
100
AcDbLine
 10
4059.974246889527
 20
4153.016447295085
 30
0.0
 11
4013.053374567011
 21
4117.210074098897
 31
0.0
1001
AcDbBlockRepETag
1070
     1
1071
      415
1005
25F
  0
LINE
  5
260
330
BD
100
AcDbEntity
  8
CHANGE
  6
ByBlock
 62
     1
100
AcDbLine
 10
4044.898071156407
 20
4067.515205951989
 30
0.0
 11
4013.053374567011
 21
4117.210074098897
 31
0.0
1001
AcDbBlockRepETag
1070
     1
1071
      416
1005
260
  0
LINE
  5
261
330
BD
100
AcDbEntity
  8
CHANGE
  6
ByBlock
 62
     1
100
AcDbLine
 10
4366.903878204699
 20
4153.016447295085
 30
0.0
 11
4398.748574793397
 21
4103.321579148178
 31
0.0
1001
AcDbBlockRepETag
1070
     1
1071
      417
1005
261
  0
LINE
  5
262
330
BD
100
AcDbEntity
  8
CHANGE
  6
ByBlock
 62
     1
100
AcDbLine
 10
4351.827702470531
 20
4067.515205954085
 30
0.0
 11
4398.748574793397
 21
4103.321579148178
 31
0.0
1001
AcDbBlockRepETag
1070
     1
1071
      418
1005
262
  0
CIRCLE
  5
263
330
BD
100
AcDbEntity
  8
CHANGE
  6
ByBlock
 62
     1
100
AcDbCircle
 10
3820.569030033017
 20
4103.321579148178
 30
0.0
 40
58.73265839740634
1001
AcDbBlockRepETag
1070
     1
1071
      419
1005
263
  0
LINE
  5
264
330
BD
100
AcDbEntity
  8
CHANGE
  6
ByBlock
 62
     1
100
AcDbLine
 10
3797.767839528329
 20
4870.437086916412
 30
0.0
 11
3767.746939786419
 21
4917.285850259592
 31
0.0
1001
AcDbBlockRepETag
1070
     1
1071
      420
1005
264
  0
LINE
  5
265
330
BD
100
AcDbEntity
  8
CHANGE
  6
ByBlock
 62
     1
100
AcDbLine
 10
3797.767839528329
 20
4870.437086916412
 30
0.0
 11
3744.4700683782
 21
4568.170406368212
 31
0.0
1001
AcDbBlockRepETag
1070
     1
1071
      421
1005
265
  0
LINE
  5
266
330
BD
100
AcDbEntity
  8
CHANGE
  6
ByBlock
 62
     1
100
AcDbLine
 10
3710.409541505215
 20
4900.701405544649
 30
0.0
 11
3757.33041382808
 21
4936.507778738742
 31
0.0
1001
AcDbBlockRepETag
1070
     1
1071
      422
1005
266
  0
LINE
  5
267
330
BD
100
AcDbEntity
  8
CHANGE
  6
ByBlock
 62
     1
100
AcDbLine
 10
3725.485717239382
 20
4986.202646887744
 30
0.0
 11
3757.33041382808
 21
4936.507778738742
 31
0.0
1001
AcDbBlockRepETag
1070
     1
1071
      423
1005
267
  0
LINE
  5
268
330
BD
100
AcDbEntity
  8
CHANGE
  6
ByBlock
 62
     1
100
AcDbLine
 10
3744.4700683782
 20
4568.170406368212
 30
0.0
 11
3700.23642966809
 21
4534.414721591748
 31
0.0
1001
AcDbBlockRepETag
1070
     1
1071
      424
1005
268
  0
LINE
  5
269
330
BD
100
AcDbEntity
  8
CHANGE
  6
ByBlock
 62
     1
100
AcDbLine
 10
3723.513301075611
 20
4883.530165485223
 30
0.0
 11
3767.746939786419
 21
4917.285850259592
 31
0.0
1001
AcDbBlockRepETag
1070
     1
1071
      425
1005
269
  0
CIRCLE
  5
26A
330
BD
100
AcDbEntity
  8
CHANGE
  6
ByBlock
 62
     1
100
AcDbCircle
 10
5383.780950155749
 20
4103.321579148178
 30
0.0
 40
58.73265839740634
1001
AcDbBlockRepETag
1070
     1
1071
      426
1005
26A
  0
LINE
  5
26B
330
BD
100
AcDbEntity
  8
CHANGE
  6
ByBlock
 62
     1
100
AcDbLine
 10
5915.039622594312
 20
4067.515205954085
 30
0.0
 11
5961.960494916828
 21
4103.321579148178
 31
0.0
1001
AcDbBlockRepETag
1070
     1
1071
      427
1005
26B
  0
LINE
  5
26C
330
BD
100
AcDbEntity
  8
CHANGE
  6
ByBlock
 62
     1
100
AcDbLine
 10
5930.115798327781
 20
4153.016447295085
 30
0.0
 11
5961.960494916828
 21
4103.321579148178
 31
0.0
1001
AcDbBlockRepETag
1070
     1
1071
      428
1005
26C
  0
LINE
  5
26D
330
BD
100
AcDbEntity
  8
CHANGE
  6
ByBlock
 62
     1
100
AcDbLine
 10
5608.109991279838
 20
4067.515205951989
 30
0.0
 11
5576.265294690791
 21
4117.210074098897
 31
0.0
1001
AcDbBlockRepETag
1070
     1
1071
      429
1005
26D
  0
LINE
  5
26E
330
BD
100
AcDbEntity
  8
CHANGE
  6
ByBlock
 62
     1
100
AcDbLine
 10
5623.186167012609
 20
4153.016447295085
 30
0.0
 11
5576.265294690093
 21
4117.210074098897
 31
0.0
1001
AcDbBlockRepETag
1070
     1
1071
      430
1005
26E
  0
LINE
  5
26F
330
BD
100
AcDbEntity
  8
CHANGE
  6
ByBlock
 62
     1
100
AcDbLine
 10
5930.115798327781
 20
4153.016447295085
 30
0.0
 11
5623.186167012609
 21
4153.016447295085
 31
0.0
1001
AcDbBlockRepETag
1070
     1
1071
      431
1005
26F
  0
LINE
  5
270
330
BD
100
AcDbEntity
  8
CHANGE
  6
ByBlock
 62
     1
100
AcDbLine
 10
5915.039622594312
 20
4067.515205951989
 30
0.0
 11
5608.109991279838
 21
4067.515205951989
 31
0.0
1001
AcDbBlockRepETag
1070
     1
1071
      432
1005
270
  0
LINE
  5
271
330
BD
100
AcDbEntity
  8
CHANGE
  6
ByBlock
 62
     1
100
AcDbLine
 10
6061.952829535876
 20
4900.701405544649
 30
0.0
 11
6108.873701858043
 21
4936.507778738742
 31
0.0
1001
AcDbBlockRepETag
1070
     1
1071
      433
1005
271
  0
LINE
  5
272
330
BD
100
AcDbEntity
  8
CHANGE
  6
ByBlock
 62
     1
100
AcDbLine
 10
6077.029005270044
 20
4986.202646887744
 30
0.0
 11
6108.873701858043
 21
4936.507778738742
 31
0.0
1001
AcDbBlockRepETag
1070
     1
1071
      434
1005
272
  0
LINE
  5
273
330
BD
100
AcDbEntity
  8
CHANGE
  6
ByBlock
 62
     1
100
AcDbLine
 10
5755.023198221054
 20
4900.701405542553
 30
0.0
 11
5723.178501632705
 21
4950.39627368946
 31
0.0
1001
AcDbBlockRepETag
1070
     1
1071
      435
1005
273
  0
LINE
  5
274
330
BD
100
AcDbEntity
  8
CHANGE
  6
ByBlock
 62
     1
100
AcDbLine
 10
5770.099373954872
 20
4986.202646887744
 30
0.0
 11
5723.178501632705
 21
4950.39627368946
 31
0.0
1001
AcDbBlockRepETag
1070
     1
1071
      436
1005
274
  0
LINE
  5
275
330
BD
100
AcDbEntity
  8
CHANGE
  6
ByBlock
 62
     1
100
AcDbLine
 10
6077.029005270044
 20
4986.202646887744
 30
0.0
 11
5770.099373954872
 21
4986.202646887744
 31
0.0
1001
AcDbBlockRepETag
1070
     1
1071
      437
1005
275
  0
LINE
  5
276
330
BD
100
AcDbEntity
  8
CHANGE
  6
ByBlock
 62
     1
100
AcDbLine
 10
6061.952829535876
 20
4900.701405542553
 30
0.0
 11
5755.023198221054
 21
4900.701405542553
 31
0.0
1001
AcDbBlockRepETag
1070
     1
1071
      438
1005
276
  0
LINE
  5
277
330
BD
100
AcDbEntity
  8
CHANGE
  6
ByBlock
 62
     1
100
AcDbLine
 10
6001.599985635316
 20
4466.937065689941
 30
0.0
 11
5948.302214485535
 21
4164.67038514174
 31
0.0
1001
AcDbBlockRepETag
1070
     1
1071
      439
1005
277
  0
LINE
  5
278
330
BD
100
AcDbEntity
  8
CHANGE
  6
ByBlock
 62
     1
100
AcDbLine
 10
6075.854524087684
 20
4453.84398712113
 30
0.0
 11
6022.556752937555
 21
4151.57730657293
 31
0.0
1001
AcDbBlockRepETag
1070
     1
1071
      440
1005
278
  0
LINE
  5
279
330
BD
100
AcDbEntity
  8
CHANGE
  6
ByBlock
 62
     1
100
AcDbLine
 10
6022.556752937555
 20
4151.57730657293
 30
0.0
 11
5978.323114227445
 21
4117.821621796466
 31
0.0
1001
AcDbBlockRepETag
1070
     1
1071
      441
1005
279
  0
LINE
  5
27A
330
BD
100
AcDbEntity
  8
CHANGE
  6
ByBlock
 62
     1
100
AcDbLine
 10
5948.302214485535
 20
4164.67038514174
 30
0.0
 11
5978.323114227445
 21
4117.821621796466
 31
0.0
1001
AcDbBlockRepETag
1070
     1
1071
      442
1005
27A
  0
LINE
  5
27B
330
BD
100
AcDbEntity
  8
CHANGE
  6
ByBlock
 62
     1
100
AcDbLine
 10
6001.599985635316
 20
4466.937065689941
 30
0.0
 11
6045.833624345425
 21
4500.69275046431
 31
0.0
1001
AcDbBlockRepETag
1070
     1
1071
      443
1005
27B
  0
LINE
  5
27C
330
BD
100
AcDbEntity
  8
CHANGE
  6
ByBlock
 62
     1
100
AcDbLine
 10
6075.854524087684
 20
4453.84398712113
 30
0.0
 11
6045.833624345425
 21
4500.69275046431
 31
0.0
1001
AcDbBlockRepETag
1070
     1
1071
      444
1005
27C
  0
LINE
  5
27D
330
BD
100
AcDbEntity
  8
CHANGE
  6
ByBlock
 62
     1
100
AcDbLine
 10
6021.758817956142
 20
4581.263484937022
 30
0.0
 11
6051.779717698402
 21
4534.414721591748
 31
0.0
1001
AcDbBlockRepETag
1070
     1
1071
      445
1005
27D
  0
LINE
  5
27E
330
BD
100
AcDbEntity
  8
CHANGE
  6
ByBlock
 62
     1
100
AcDbLine
 10
6096.013356408512
 20
4568.170406368212
 30
0.0
 11
6051.779717698402
 21
4534.414721591748
 31
0.0
1001
AcDbBlockRepETag
1070
     1
1071
      446
1005
27E
  0
LINE
  5
27F
330
BD
100
AcDbEntity
  8
CHANGE
  6
ByBlock
 62
     1
100
AcDbLine
 10
6149.311127558292
 20
4870.437086916412
 30
0.0
 11
6119.290227816382
 21
4917.285850259592
 31
0.0
1001
AcDbBlockRepETag
1070
     1
1071
      447
1005
27F
  0
LINE
  5
280
330
BD
100
AcDbEntity
  8
CHANGE
  6
ByBlock
 62
     1
100
AcDbLine
 10
6075.056589106273
 20
4883.530165485223
 30
0.0
 11
6119.290227816382
 21
4917.285850259592
 31
0.0
1001
AcDbBlockRepETag
1070
     1
1071
      448
1005
280
  0
LINE
  5
281
330
BD
100
AcDbEntity
  8
CHANGE
  6
ByBlock
 62
     1
100
AcDbLine
 10
6149.311127558292
 20
4870.437086916412
 30
0.0
 11
6096.013356408512
 21
4568.170406368212
 31
0.0
1001
AcDbBlockRepETag
1070
     1
1071
      449
1005
281
  0
LINE
  5
282
330
BD
100
AcDbEntity
  8
CHANGE
  6
ByBlock
 62
     1
100
AcDbLine
 10
6075.056589106273
 20
4883.530165485223
 30
0.0
 11
6021.758817956142
 21
4581.263484937022
 31
0.0
1001
AcDbBlockRepETag
1070
     1
1071
      450
1005
282
  0
LINE
  5
283
330
BD
100
AcDbEntity
  8
CHANGE
  6
ByBlock
 62
     1
100
AcDbLine
 10
6003.572401798738
 20
4569.609547092463
 30
0.0
 11
6035.417098387435
 21
4519.91467894346
 31
0.0
1001
AcDbBlockRepETag
1070
     1
1071
      451
1005
283
  0
LINE
  5
284
330
BD
100
AcDbEntity
  8
CHANGE
  6
ByBlock
 62
     1
100
AcDbLine
 10
5988.496226065268
 20
4484.108305749367
 30
0.0
 11
6035.417098387435
 21
4519.91467894346
 31
0.0
1001
AcDbBlockRepETag
1070
     1
1071
      452
1005
284
  0
LINE
  5
285
330
BD
100
AcDbEntity
  8
CHANGE
  6
ByBlock
 62
     1
100
AcDbLine
 10
5988.496226065268
 20
4484.108305747271
 30
0.0
 11
5681.566594750446
 21
4484.108305747271
 31
0.0
1001
AcDbBlockRepETag
1070
     1
1071
      453
1005
285
  0
LINE
  5
286
330
BD
100
AcDbEntity
  8
CHANGE
  6
ByBlock
 62
     1
100
AcDbLine
 10
6003.572401798738
 20
4569.609547092463
 30
0.0
 11
5696.642770483566
 21
4569.609547092463
 31
0.0
1001
AcDbBlockRepETag
1070
     1
1071
      454
1005
286
  0
LINE
  5
287
330
BD
100
AcDbEntity
  8
CHANGE
  6
ByBlock
 62
     1
100
AcDbLine
 10
5696.642770483566
 20
4569.609547092463
 30
0.0
 11
5649.7218981607
 21
4533.803173894179
 31
0.0
1001
AcDbBlockRepETag
1070
     1
1071
      455
1005
287
  0
LINE
  5
288
330
BD
100
AcDbEntity
  8
CHANGE
  6
ByBlock
 62
     1
100
AcDbLine
 10
5681.566594750446
 20
4484.108305747271
 30
0.0
 11
5649.721898161748
 21
4533.803173894179
 31
0.0
1001
AcDbBlockRepETag
1070
     1
1071
      456
1005
288
  0
LINE
  5
289
330
BD
100
AcDbEntity
  8
CHANGE
  6
ByBlock
 62
     1
100
AcDbLine
 10
5535.827868989843
 20
4183.280765923322
 30
0.0
 11
5565.848768731754
 21
4136.432002578047
 31
0.0
1001
AcDbBlockRepETag
1070
     1
1071
      457
1005
289
  0
LINE
  5
28A
330
BD
100
AcDbEntity
  8
CHANGE
  6
ByBlock
 62
     1
100
AcDbLine
 10
5610.082407442562
 20
4170.187687352416
 30
0.0
 11
5565.848768731754
 21
4136.432002578047
 31
0.0
1001
AcDbBlockRepETag
1070
     1
1071
      458
1005
28A
  0
LINE
  5
28B
330
BD
100
AcDbEntity
  8
CHANGE
  6
ByBlock
 62
     1
100
AcDbLine
 10
5663.380178592342
 20
4472.454367902712
 30
0.0
 11
5633.359278850432
 21
4519.303131245892
 31
0.0
1001
AcDbBlockRepETag
1070
     1
1071
      459
1005
28B
  0
LINE
  5
28C
330
BD
100
AcDbEntity
  8
CHANGE
  6
ByBlock
 62
     1
100
AcDbLine
 10
5589.125640139624
 20
4485.547446471523
 30
0.0
 11
5633.359278850432
 21
4519.303131245892
 31
0.0
1001
AcDbBlockRepETag
1070
     1
1071
      460
1005
28C
  0
LINE
  5
28D
330
BD
100
AcDbEntity
  8
CHANGE
  6
ByBlock
 62
     1
100
AcDbLine
 10
5663.380178592342
 20
4472.454367902712
 30
0.0
 11
5610.082407442562
 21
4170.187687352416
 31
0.0
1001
AcDbBlockRepETag
1070
     1
1071
      461
1005
28D
  0
LINE
  5
28E
330
BD
100
AcDbEntity
  8
CHANGE
  6
ByBlock
 62
     1
100
AcDbLine
 10
5589.125640139624
 20
4485.547446471523
 30
0.0
 11
5535.827868989843
 21
4183.280765923322
 31
0.0
1001
AcDbBlockRepETag
1070
     1
1071
      462
1005
28E
  0
LINE
  5
28F
330
BD
100
AcDbEntity
  8
CHANGE
  6
ByBlock
 62
     1
100
AcDbLine
 10
5662.582243610581
 20
4902.140546266804
 30
0.0
 11
5609.284472460451
 21
4599.873865718604
 31
0.0
1001
AcDbBlockRepETag
1070
     1
1071
      463
1005
28F
  0
LINE
  5
290
330
BD
100
AcDbEntity
  8
CHANGE
  6
ByBlock
 62
     1
100
AcDbLine
 10
5736.836782063299
 20
4889.047467697993
 30
0.0
 11
5683.539010913169
 21
4586.780787149793
 31
0.0
1001
AcDbBlockRepETag
1070
     1
1071
      464
1005
290
  0
LINE
  5
291
330
BD
100
AcDbEntity
  8
CHANGE
  6
ByBlock
 62
     1
100
AcDbLine
 10
5662.582243610581
 20
4902.140546266804
 30
0.0
 11
5706.815882321389
 21
4935.896231041174
 31
0.0
1001
AcDbBlockRepETag
1070
     1
1071
      465
1005
291
  0
LINE
  5
292
330
BD
100
AcDbEntity
  8
CHANGE
  6
ByBlock
 62
     1
100
AcDbLine
 10
5736.836782063299
 20
4889.047467697993
 30
0.0
 11
5706.815882321389
 21
4935.896231041174
 31
0.0
1001
AcDbBlockRepETag
1070
     1
1071
      466
1005
292
  0
LINE
  5
293
330
BD
100
AcDbEntity
  8
CHANGE
  6
ByBlock
 62
     1
100
AcDbLine
 10
5683.539010913169
 20
4586.780787149793
 30
0.0
 11
5639.305372202711
 21
4553.025102373329
 31
0.0
1001
AcDbBlockRepETag
1070
     1
1071
      467
1005
293
  0
LINE
  5
294
330
BD
100
AcDbEntity
  8
CHANGE
  6
ByBlock
 62
     1
100
AcDbLine
 10
5609.284472460451
 20
4599.873865718604
 30
0.0
 11
5639.305372202711
 21
4553.025102373329
 31
0.0
1001
AcDbBlockRepETag
1070
     1
1071
      468
1005
294
  0
MTEXT
  5
295
330
BD
100
AcDbEntity
  8
0
100
AcDbMText
 10
665.8747987114838
 20
7397.665190605934
 30
0.0
 40
168.440366972477
 41
1179.887284879185
 71
     1
 72
     5
  1
{\fTimes New Roman|b0|i0|c0|p18;PWR IN}
 11
0.0000000000000001
 21
1.0
 31
0.0
 73
     1
 44
1.0
1001
AcDbBlockRepETag
1070
     1
1071
      469
1005
295
1001
ACAD
1000
MTEXTBEGIN
1070
    73
1070
     1
1070
    44
1040
1.0
1070
    74
1070
     0
1000
MTEXTEND
  0
ENDBLK
  5
296
330
BD
100
AcDbEntity
  8
0
100
AcDbBlockEnd
  0
BLOCK
  5
298
330
297
100
AcDbEntity
  8
0
370
    40
100
AcDbBlockBegin
  2
*D3
 70
     1
 10
0.0
 20
0.0
 30
0.0
  3
*D3
  1

  0
LINE
  5
299
330
297
100
AcDbEntity
  8
0
 62
     8
370
    -2
100
AcDbLine
 10
-167.2795337889292
 20
-322.3688401196623
 30
0.0
 11
-131.8909548940082
 21
-322.3688401196623
 31
0.0
  0
LINE
  5
29A
330
297
100
AcDbEntity
  8
0
 62
     8
370
    -2
100
AcDbLine
 10
-167.2795337889292
 20
-422.8688401181998
 30
0.0
 11
-131.8909548940082
 21
-422.8688401181998
 31
0.0
  0
LINE
  5
29B
330
297
100
AcDbEntity
  8
0
 62
     8
370
    -2
100
AcDbLine
 10
-141.8909548940082
 20
-322.3688401196623
 30
0.0
 11
-141.8909548940082
 21
-422.8688401181998
 31
0.0
  0
INSERT
  5
29C
330
297
100
AcDbEntity
  8
0
 62
     8
370
    -2
100
AcDbBlockReference
  2
_Oblique
 10
-141.8909548940082
 20
-322.3688401196623
 30
0.0
 41
15.0
 42
15.0
 43
15.0
 50
90.0
  0
INSERT
  5
29D
330
297
100
AcDbEntity
  8
0
 62
     8
370
    -2
100
AcDbBlockReference
  2
_Oblique
 10
-141.8909548940082
 20
-422.8688401181998
 30
0.0
 41
15.0
 42
15.0
 43
15.0
 50
270.0
  0
MTEXT
  5
29E
330
297
100
AcDbEntity
  8
0
 62
     3
370
    40
100
AcDbMText
 10
-152.6412048940082
 20
-372.6188401189312
 30
0.0
 40
15.0
 41
0.0
 71
     5
 72
     1
  1
\A1;{\H0.7667x;\C256;101}
  7
Binh
 11
0.0000000000000001
 21
1.0
 31
0.0
 73
     1
 44
1.0
1001
ACAD
1000
MTEXTBEGIN
1070
    73
1070
     1
1070
    44
1040
1.0
1070
    74
1070
     0
1000
MTEXTEND
  0
POINT
  5
29F
330
297
100
AcDbEntity
  8
Defpoints
 62
     0
370
    40
100
AcDbPoint
 10
-167.2795337889292
 20
-322.3688401196623
 30
0.0
  0
POINT
  5
2A0
330
297
100
AcDbEntity
  8
Defpoints
 62
     0
370
    40
100
AcDbPoint
 10
-167.2795337889292
 20
-422.8688401181998
 30
0.0
  0
POINT
  5
2A1
330
297
100
AcDbEntity
  8
Defpoints
 62
     0
370
    40
100
AcDbPoint
 10
-141.8909548940082
 20
-422.8688401181998
 30
0.0
  0
ENDBLK
  5
2A2
330
297
100
AcDbEntity
  8
0
370
    40
100
AcDbBlockEnd
  0
BLOCK
  5
2A4
330
2A3
100
AcDbEntity
  8
0
370
    40
100
AcDbBlockBegin
  2
*D4
 70
     1
 10
0.0
 20
0.0
 30
0.0
  3
*D4
  1

  0
LINE
  5
2A5
330
2A3
100
AcDbEntity
  8
0
 62
     8
370
    -2
100
AcDbLine
 10
-176.0295337888019
 20
-309.9112713124908
 30
0.0
 11
-103.9203113832118
 21
-309.9112713124909
 31
0.0
  0
LINE
  5
2A6
330
2A3
100
AcDbEntity
  8
0
 62
     8
370
    -2
100
AcDbLine
 10
-176.0295337888019
 20
-435.3264089253422
 30
0.0
 11
-103.9203113832118
 21
-435.3264089253423
 31
0.0
  0
LINE
  5
2A7
330
2A3
100
AcDbEntity
  8
0
 62
     8
370
    -2
100
AcDbLine
 10
-113.9203113832118
 20
-309.9112713124909
 30
0.0
 11
-113.9203113832118
 21
-435.3264089253423
 31
0.0
  0
INSERT
  5
2A8
330
2A3
100
AcDbEntity
  8
0
 62
     8
370
    -2
100
AcDbBlockReference
  2
_Oblique
 10
-113.9203113832118
 20
-309.9112713124909
 30
0.0
 41
15.0
 42
15.0
 43
15.0
 50
90.0
  0
INSERT
  5
2A9
330
2A3
100
AcDbEntity
  8
0
 62
     8
370
    -2
100
AcDbBlockReference
  2
_Oblique
 10
-113.9203113832118
 20
-435.3264089253423
 30
0.0
 41
15.0
 42
15.0
 43
15.0
 50
270.0
  0
MTEXT
  5
2AA
330
2A3
100
AcDbEntity
  8
0
 62
     3
370
    40
100
AcDbMText
 10
-124.6705613832117
 20
-372.6188401189166
 30
0.0
 40
15.0
 41
0.0
 71
     5
 72
     1
  1
\A1;{\H0.7667x;\C256;125}
  7
Binh
 11
0.0000000000000001
 21
1.0
 31
0.0
 73
     1
 44
1.0
1001
ACAD
1000
MTEXTBEGIN
1070
    73
1070
     1
1070
    44
1040
1.0
1070
    74
1070
     0
1000
MTEXTEND
  0
POINT
  5
2AB
330
2A3
100
AcDbEntity
  8
Defpoints
 62
     0
370
    40
100
AcDbPoint
 10
-176.0295337888019
 20
-309.9112713124908
 30
0.0
  0
POINT
  5
2AC
330
2A3
100
AcDbEntity
  8
Defpoints
 62
     0
370
    40
100
AcDbPoint
 10
-176.0295337888019
 20
-435.3264089253422
 30
0.0
  0
POINT
  5
2AD
330
2A3
100
AcDbEntity
  8
Defpoints
 62
     0
370
    40
100
AcDbPoint
 10
-113.9203113832118
 20
-435.3264089253423
 30
0.0
  0
ENDBLK
  5
2AE
330
2A3
100
AcDbEntity
  8
0
370
    40
100
AcDbBlockEnd
  0
BLOCK
  5
2B0
330
2AF
100
AcDbEntity
  8
0
370
    40
100
AcDbBlockBegin
  2
*D5
 70
     1
 10
0.0
 20
0.0
 30
0.0
  3
*D5
  1

  0
LINE
  5
2B1
330
2AF
100
AcDbEntity
  8
0
 62
     8
370
    -2
100
AcDbLine
 10
-278.0295337873176
 20
-309.9112713124908
 30
0.0
 11
-278.0295337873176
 21
-289.4996709642701
 31
0.0
  0
LINE
  5
2B2
330
2AF
100
AcDbEntity
  8
0
 62
     8
370
    -2
100
AcDbLine
 10
-176.0295337888019
 20
-309.9697575510194
 30
0.0
 11
-176.0295337888019
 21
-289.4996709642701
 31
0.0
  0
LINE
  5
2B3
330
2AF
100
AcDbEntity
  8
0
 62
     8
370
    -2
100
AcDbLine
 10
-278.0295337873176
 20
-299.4996709642701
 30
0.0
 11
-176.0295337888019
 21
-299.4996709642701
 31
0.0
  0
INSERT
  5
2B4
330
2AF
100
AcDbEntity
  8
0
 62
     8
370
    -2
100
AcDbBlockReference
  2
_Oblique
 10
-278.0295337873176
 20
-299.4996709642701
 30
0.0
 41
15.0
 42
15.0
 43
15.0
 50
180.0
  0
INSERT
  5
2B5
330
2AF
100
AcDbEntity
  8
0
 62
     8
370
    -2
100
AcDbBlockReference
  2
_Oblique
 10
-176.0295337888019
 20
-299.4996709642701
 30
0.0
 41
15.0
 42
15.0
 43
15.0
  0
MTEXT
  5
2B6
330
2AF
100
AcDbEntity
  8
0
 62
     3
370
    40
100
AcDbMText
 10
-227.0295337880597
 20
-288.7494209642701
 30
0.0
 40
15.0
 41
0.0
 71
     5
 72
     1
  1
\A1;{\H0.7667x;\C256;102}
  7
Binh
 73
     1
 44
1.0
1001
ACAD
1000
MTEXTBEGIN
1070
    73
1070
     1
1070
    44
1040
1.0
1070
    74
1070
     0
1000
MTEXTEND
  0
POINT
  5
2B7
330
2AF
100
AcDbEntity
  8
Defpoints
 62
     0
370
    40
100
AcDbPoint
 10
-278.0295337873176
 20
-309.9112713124908
 30
0.0
  0
POINT
  5
2B8
330
2AF
100
AcDbEntity
  8
Defpoints
 62
     0
370
    40
100
AcDbPoint
 10
-176.0295337888019
 20
-309.9697575510194
 30
0.0
  0
POINT
  5
2B9
330
2AF
100
AcDbEntity
  8
Defpoints
 62
     0
370
    40
100
AcDbPoint
 10
-176.0295337888019
 20
-299.4996709642701
 30
0.0
  0
ENDBLK
  5
2BA
330
2AF
100
AcDbEntity
  8
0
370
    40
100
AcDbBlockEnd
  0
BLOCK
  5
2BC
330
2BB
100
AcDbEntity
  8
0
370
    40
100
AcDbBlockBegin
  2
*D6
 70
     1
 10
0.0
 20
0.0
 30
0.0
  3
*D6
  1

  0
LINE
  5
2BD
330
2BB
100
AcDbEntity
  8
0
 62
     8
370
    -2
100
AcDbLine
 10
-285.7795337872048
 20
-322.3688401196623
 30
0.0
 11
-285.7795337872048
 21
-268.5409265366834
 31
0.0
  0
LINE
  5
2BE
330
2BB
100
AcDbEntity
  8
0
 62
     8
370
    -2
100
AcDbLine
 10
-167.2795337889292
 20
-322.3688401196623
 30
0.0
 11
-167.2795337889292
 21
-268.5409265366834
 31
0.0
  0
LINE
  5
2BF
330
2BB
100
AcDbEntity
  8
0
 62
     8
370
    -2
100
AcDbLine
 10
-285.7795337872048
 20
-278.5409265366834
 30
0.0
 11
-167.2795337889292
 21
-278.5409265366834
 31
0.0
  0
INSERT
  5
2C0
330
2BB
100
AcDbEntity
  8
0
 62
     8
370
    -2
100
AcDbBlockReference
  2
_Oblique
 10
-285.7795337872048
 20
-278.5409265366834
 30
0.0
 41
15.0
 42
15.0
 43
15.0
 50
180.0
  0
INSERT
  5
2C1
330
2BB
100
AcDbEntity
  8
0
 62
     8
370
    -2
100
AcDbBlockReference
  2
_Oblique
 10
-167.2795337889292
 20
-278.5409265366834
 30
0.0
 41
15.0
 42
15.0
 43
15.0
  0
MTEXT
  5
2C2
330
2BB
100
AcDbEntity
  8
0
 62
     3
370
    40
100
AcDbMText
 10
-226.529533788067
 20
-267.7906765366834
 30
0.0
 40
15.0
 41
0.0
 71
     5
 72
     1
  1
\A1;{\H0.7667x;\C256;119}
  7
Binh
 73
     1
 44
1.0
1001
ACAD
1000
MTEXTBEGIN
1070
    73
1070
     1
1070
    44
1040
1.0
1070
    74
1070
     0
1000
MTEXTEND
  0
POINT
  5
2C3
330
2BB
100
AcDbEntity
  8
Defpoints
 62
     0
370
    40
100
AcDbPoint
 10
-285.7795337872048
 20
-322.3688401196623
 30
0.0
  0
POINT
  5
2C4
330
2BB
100
AcDbEntity
  8
Defpoints
 62
     0
370
    40
100
AcDbPoint
 10
-167.2795337889292
 20
-322.3688401196623
 30
0.0
  0
POINT
  5
2C5
330
2BB
100
AcDbEntity
  8
Defpoints
 62
     0
370
    40
100
AcDbPoint
 10
-167.2795337889292
 20
-278.5409265366834
 30
0.0
  0
ENDBLK
  5
2C6
330
2BB
100
AcDbEntity
  8
0
370
    40
100
AcDbBlockEnd
  0
BLOCK
  5
2C8
330
2C7
100
AcDbEntity
  8
0
370
    40
100
AcDbBlockBegin
  2
*D7
 70
     1
 10
0.0
 20
0.0
 30
0.0
  3
*D7
  1

  0
LINE
  5
2C9
330
2C7
100
AcDbEntity
  8
0
 62
     8
370
    -2
100
AcDbLine
 10
-285.7795337872047
 20
-482.0400738865979
 30
0.0
 11
-285.7795337872047
 21
-460.1358755746801
 31
0.0
  0
LINE
  5
2CA
330
2C7
100
AcDbEntity
  8
0
 62
     8
370
    -2
100
AcDbLine
 10
-167.279533788929
 20
-482.0400738865979
 30
0.0
 11
-167.279533788929
 21
-460.1358755746801
 31
0.0
  0
LINE
  5
2CB
330
2C7
100
AcDbEntity
  8
0
 62
     8
370
    -2
100
AcDbLine
 10
-285.7795337872047
 20
-470.1358755746801
 30
0.0
 11
-167.279533788929
 21
-470.1358755746801
 31
0.0
  0
INSERT
  5
2CC
330
2C7
100
AcDbEntity
  8
0
 62
     8
370
    -2
100
AcDbBlockReference
  2
_Oblique
 10
-285.7795337872047
 20
-470.1358755746801
 30
0.0
 41
15.0
 42
15.0
 43
15.0
 50
180.0
  0
INSERT
  5
2CD
330
2C7
100
AcDbEntity
  8
0
 62
     8
370
    -2
100
AcDbBlockReference
  2
_Oblique
 10
-167.279533788929
 20
-470.1358755746801
 30
0.0
 41
15.0
 42
15.0
 43
15.0
  0
MTEXT
  5
2CE
330
2C7
100
AcDbEntity
  8
0
 62
     3
370
    40
100
AcDbMText
 10
-226.5295337880669
 20
-459.3856255746801
 30
0.0
 40
15.0
 41
0.0
 71
     5
 72
     1
  1
\A1;{\H0.7667x;\C256;119}
  7
Binh
 73
     1
 44
1.0
1001
ACAD
1000
MTEXTBEGIN
1070
    73
1070
     1
1070
    44
1040
1.0
1070
    74
1070
     0
1000
MTEXTEND
  0
POINT
  5
2CF
330
2C7
100
AcDbEntity
  8
Defpoints
 62
     0
370
    40
100
AcDbPoint
 10
-285.7795337872047
 20
-482.0400738865979
 30
0.0
  0
POINT
  5
2D0
330
2C7
100
AcDbEntity
  8
Defpoints
 62
     0
370
    40
100
AcDbPoint
 10
-167.279533788929
 20
-482.0400738865979
 30
0.0
  0
POINT
  5
2D1
330
2C7
100
AcDbEntity
  8
Defpoints
 62
     0
370
    40
100
AcDbPoint
 10
-167.279533788929
 20
-470.1358755746801
 30
0.0
  0
ENDBLK
  5
2D2
330
2C7
100
AcDbEntity
  8
0
370
    40
100
AcDbBlockEnd
  0
BLOCK
  5
2D4
330
2D3
100
AcDbEntity
  8
0
370
    40
100
AcDbBlockBegin
  2
*D8
 70
     1
 10
0.0
 20
0.0
 30
0.0
  3
*D8
  1

  0
LINE
  5
2D5
330
2D3
100
AcDbEntity
  8
0
 62
     8
370
    -2
100
AcDbLine
 10
-285.7795337872047
 20
-536.0400738865977
 30
0.0
 11
-308.9641184626015
 21
-536.0400738865977
 31
0.0
  0
LINE
  5
2D6
330
2D3
100
AcDbEntity
  8
0
 62
     8
370
    -2
100
AcDbLine
 10
-284.7795337872047
 20
-481.0400738865978
 30
0.0
 11
-308.9641184626015
 21
-481.0400738865978
 31
0.0
  0
LINE
  5
2D7
330
2D3
100
AcDbEntity
  8
0
 62
     8
370
    -2
100
AcDbLine
 10
-298.9641184626015
 20
-536.0400738865977
 30
0.0
 11
-298.9641184626015
 21
-481.0400738865978
 31
0.0
  0
INSERT
  5
2D8
330
2D3
100
AcDbEntity
  8
0
 62
     8
370
    -2
100
AcDbBlockReference
  2
_Oblique
 10
-298.9641184626015
 20
-536.0400738865977
 30
0.0
 41
15.0
 42
15.0
 43
15.0
 50
270.0
  0
INSERT
  5
2D9
330
2D3
100
AcDbEntity
  8
0
 62
     8
370
    -2
100
AcDbBlockReference
  2
_Oblique
 10
-298.9641184626015
 20
-481.0400738865978
 30
0.0
 41
15.0
 42
15.0
 43
15.0
 50
90.0
  0
MTEXT
  5
2DA
330
2D3
100
AcDbEntity
  8
0
 62
     3
370
    40
100
AcDbMText
 10
-309.7143684626014
 20
-508.5400738865978
 30
0.0
 40
15.0
 41
0.0
 71
     5
 72
     1
  1
\A1;{\H0.7667x;\C256;55}
  7
Binh
 11
0.0000000000000001
 21
1.0
 31
0.0
 73
     1
 44
1.0
1001
ACAD
1000
MTEXTBEGIN
1070
    73
1070
     1
1070
    44
1040
1.0
1070
    74
1070
     0
1000
MTEXTEND
  0
POINT
  5
2DB
330
2D3
100
AcDbEntity
  8
Defpoints
 62
     0
370
    40
100
AcDbPoint
 10
-285.7795337872047
 20
-536.0400738865977
 30
0.0
  0
POINT
  5
2DC
330
2D3
100
AcDbEntity
  8
Defpoints
 62
     0
370
    40
100
AcDbPoint
 10
-284.7795337872047
 20
-481.0400738865978
 30
0.0
  0
POINT
  5
2DD
330
2D3
100
AcDbEntity
  8
Defpoints
 62
     0
370
    40
100
AcDbPoint
 10
-298.9641184626015
 20
-481.0400738865978
 30
0.0
  0
ENDBLK
  5
2DE
330
2D3
100
AcDbEntity
  8
0
370
    40
100
AcDbBlockEnd
  0
BLOCK
  5
2E0
330
2DF
100
AcDbEntity
  8
0
370
    40
100
AcDbBlockBegin
  2
*D9
 70
     1
 10
0.0
 20
0.0
 30
0.0
  3
*D9
  1

  0
LINE
  5
2E1
330
2DF
100
AcDbEntity
  8
0
 62
     8
370
    -2
100
AcDbLine
 10
-141.8909548940082
 20
-526.326637179623
 30
0.0
 11
-141.8909548940082
 21
-460.1358755746801
 31
0.0
  0
LINE
  5
2E2
330
2DF
100
AcDbEntity
  8
0
 62
     8
370
    -2
100
AcDbLine
 10
-17.89095489400824
 20
-526.326637179623
 30
0.0
 11
-17.89095489400824
 21
-460.1358755746801
 31
0.0
  0
LINE
  5
2E3
330
2DF
100
AcDbEntity
  8
0
 62
     8
370
    -2
100
AcDbLine
 10
-141.8909548940082
 20
-470.1358755746801
 30
0.0
 11
-17.89095489400824
 21
-470.1358755746801
 31
0.0
  0
INSERT
  5
2E4
330
2DF
100
AcDbEntity
  8
0
 62
     8
370
    -2
100
AcDbBlockReference
  2
_Oblique
 10
-141.8909548940082
 20
-470.1358755746801
 30
0.0
 41
15.0
 42
15.0
 43
15.0
 50
180.0
  0
INSERT
  5
2E5
330
2DF
100
AcDbEntity
  8
0
 62
     8
370
    -2
100
AcDbBlockReference
  2
_Oblique
 10
-17.89095489400824
 20
-470.1358755746801
 30
0.0
 41
15.0
 42
15.0
 43
15.0
  0
MTEXT
  5
2E6
330
2DF
100
AcDbEntity
  8
0
 62
     3
370
    40
100
AcDbMText
 10
-79.89095489400824
 20
-459.3856255746801
 30
0.0
 40
15.0
 41
0.0
 71
     5
 72
     1
  1
\A1;{\H0.7667x;\C256;124}
  7
Binh
 73
     1
 44
1.0
1001
ACAD
1000
MTEXTBEGIN
1070
    73
1070
     1
1070
    44
1040
1.0
1070
    74
1070
     0
1000
MTEXTEND
  0
POINT
  5
2E7
330
2DF
100
AcDbEntity
  8
Defpoints
 62
     0
370
    40
100
AcDbPoint
 10
-141.8909548940082
 20
-526.326637179623
 30
0.0
  0
POINT
  5
2E8
330
2DF
100
AcDbEntity
  8
Defpoints
 62
     0
370
    40
100
AcDbPoint
 10
-17.89095489400824
 20
-526.326637179623
 30
0.0
  0
POINT
  5
2E9
330
2DF
100
AcDbEntity
  8
Defpoints
 62
     0
370
    40
100
AcDbPoint
 10
-17.89095489400824
 20
-470.1358755746801
 30
0.0
  0
ENDBLK
  5
2EA
330
2DF
100
AcDbEntity
  8
0
370
    40
100
AcDbBlockEnd
  0
BLOCK
  5
2EC
330
2EB
100
AcDbEntity
  8
0
370
    40
100
AcDbBlockBegin
  2
*D10
 70
     1
 10
0.0
 20
0.0
 30
0.0
  3
*D10
  1

  0
LINE
  5
2ED
330
2EB
100
AcDbEntity
  8
0
 62
     8
370
    -2
100
AcDbLine
 10
-51.89095489400804
 20
-481.0400738865979
 30
0.0
 11
18.39225685525668
 21
-481.0400738865979
 31
0.0
  0
LINE
  5
2EE
330
2EB
100
AcDbEntity
  8
0
 62
     8
370
    -2
100
AcDbLine
 10
-51.89095489400804
 20
-536.0400738865978
 30
0.0
 11
18.39225685525666
 21
-536.0400738865978
 31
0.0
  0
LINE
  5
2EF
330
2EB
100
AcDbEntity
  8
0
 62
     8
370
    -2
100
AcDbLine
 10
8.392256855256675
 20
-481.0400738865979
 30
0.0
 11
8.392256855256665
 21
-536.0400738865978
 31
0.0
  0
INSERT
  5
2F0
330
2EB
100
AcDbEntity
  8
0
 62
     8
370
    -2
100
AcDbBlockReference
  2
_Oblique
 10
8.392256855256675
 20
-481.0400738865979
 30
0.0
 41
15.0
 42
15.0
 43
15.0
 50
90.0
  0
INSERT
  5
2F1
330
2EB
100
AcDbEntity
  8
0
 62
     8
370
    -2
100
AcDbBlockReference
  2
_Oblique
 10
8.392256855256665
 20
-536.0400738865978
 30
0.0
 41
15.0
 42
15.0
 43
15.0
 50
270.0
  0
MTEXT
  5
2F2
330
2EB
100
AcDbEntity
  8
0
 62
     3
370
    40
100
AcDbMText
 10
-2.357993144743271
 20
-508.5400738865978
 30
0.0
 40
15.0
 41
0.0
 71
     5
 72
     1
  1
\A1;{\H0.7667x;\C256;55}
  7
Binh
 11
0.0000000000000001
 21
1.0
 31
0.0
 73
     1
 44
1.0
1001
ACAD
1000
MTEXTBEGIN
1070
    73
1070
     1
1070
    44
1040
1.0
1070
    74
1070
     0
1000
MTEXTEND
  0
POINT
  5
2F3
330
2EB
100
AcDbEntity
  8
Defpoints
 62
     0
370
    40
100
AcDbPoint
 10
-51.89095489400804
 20
-481.0400738865979
 30
0.0
  0
POINT
  5
2F4
330
2EB
100
AcDbEntity
  8
Defpoints
 62
     0
370
    40
100
AcDbPoint
 10
-51.89095489400804
 20
-536.0400738865978
 30
0.0
  0
POINT
  5
2F5
330
2EB
100
AcDbEntity
  8
Defpoints
 62
     0
370
    40
100
AcDbPoint
 10
8.392256855256665
 20
-536.0400738865978
 30
0.0
  0
ENDBLK
  5
2F6
330
2EB
100
AcDbEntity
  8
0
370
    40
100
AcDbBlockEnd
  0
BLOCK
  5
542
330
538
100
AcDbEntity
  8
0
100
AcDbBlockBegin
  2
*D12
 70
     1
 10
0.0
 20
0.0
 30
0.0
  3
*D12
  1

  0
LINE
  5
598
330
538
100
AcDbEntity
  8
0
 62
     8
370
    -2
100
AcDbLine
 10
142.1534488565424
 20
185.3985580830462
 30
0.0
 11
177.5420277514634
 21
185.3985580830462
 31
0.0
  0
LINE
  5
599
330
538
100
AcDbEntity
  8
0
 62
     8
370
    -2
100
AcDbLine
 10
142.1534488565424
 20
84.89855808450872
 30
0.0
 11
177.5420277514634
 21
84.89855808450871
 31
0.0
  0
LINE
  5
59A
330
538
100
AcDbEntity
  8
0
 62
     8
370
    -2
100
AcDbLine
 10
167.5420277514634
 20
185.3985580830462
 30
0.0
 11
167.5420277514634
 21
84.89855808450871
 31
0.0
  0
INSERT
  5
59B
330
538
100
AcDbEntity
  8
0
 62
     8
370
    -2
100
AcDbBlockReference
  2
_Oblique
 10
167.5420277514634
 20
185.3985580830462
 30
0.0
 41
15.0
 42
15.0
 43
15.0
 50
90.0
  0
INSERT
  5
59C
330
538
100
AcDbEntity
  8
0
 62
     8
370
    -2
100
AcDbBlockReference
  2
_Oblique
 10
167.5420277514634
 20
84.89855808450871
 30
0.0
 41
15.0
 42
15.0
 43
15.0
 50
270.0
  0
MTEXT
  5
59D
330
538
100
AcDbEntity
  8
0
 62
     3
370
    40
100
AcDbMText
 10
156.7917777514634
 20
135.1485580837775
 30
0.0
 40
15.0
 41
0.0
 71
     5
 72
     1
  1
\A1;{\H0.7667x;\C256;101}
  7
Binh
 11
0.0000000000000001
 21
1.0
 31
0.0
 73
     1
 44
1.0
1001
ACAD
1000
MTEXTBEGIN
1070
    73
1070
     1
1070
    44
1040
1.0
1070
    74
1070
     0
1000
MTEXTEND
  0
POINT
  5
59E
330
538
100
AcDbEntity
  8
Defpoints
 62
     0
100
AcDbPoint
 10
142.1534488565424
 20
185.3985580830462
 30
0.0
  0
POINT
  5
59F
330
538
100
AcDbEntity
  8
Defpoints
 62
     0
100
AcDbPoint
 10
142.1534488565424
 20
84.89855808450872
 30
0.0
  0
POINT
  5
5A0
330
538
100
AcDbEntity
  8
Defpoints
 62
     0
100
AcDbPoint
 10
167.5420277514634
 20
84.89855808450871
 30
0.0
  0
ENDBLK
  5
543
330
538
100
AcDbEntity
  8
0
100
AcDbBlockEnd
  0
BLOCK
  5
54E
330
544
100
AcDbEntity
  8
0
100
AcDbBlockBegin
  2
*D13
 70
     1
 10
0.0
 20
0.0
 30
0.0
  3
*D13
  1

  0
LINE
  5
5A1
330
544
100
AcDbEntity
  8
0
 62
     8
370
    -2
100
AcDbLine
 10
133.4034488566697
 20
197.8561268902178
 30
0.0
 11
205.5126712622598
 21
197.8561268902177
 31
0.0
  0
LINE
  5
5A2
330
544
100
AcDbEntity
  8
0
 62
     8
370
    -2
100
AcDbLine
 10
133.4034488566697
 20
72.44098927736636
 30
0.0
 11
205.5126712622598
 21
72.44098927736634
 31
0.0
  0
LINE
  5
5A3
330
544
100
AcDbEntity
  8
0
 62
     8
370
    -2
100
AcDbLine
 10
195.5126712622598
 20
197.8561268902177
 30
0.0
 11
195.5126712622597
 21
72.44098927736634
 31
0.0
  0
INSERT
  5
5A4
330
544
100
AcDbEntity
  8
0
 62
     8
370
    -2
100
AcDbBlockReference
  2
_Oblique
 10
195.5126712622598
 20
197.8561268902177
 30
0.0
 41
15.0
 42
15.0
 43
15.0
 50
90.0
  0
INSERT
  5
5A5
330
544
100
AcDbEntity
  8
0
 62
     8
370
    -2
100
AcDbBlockReference
  2
_Oblique
 10
195.5126712622597
 20
72.44098927736634
 30
0.0
 41
15.0
 42
15.0
 43
15.0
 50
270.0
  0
MTEXT
  5
5A6
330
544
100
AcDbEntity
  8
0
 62
     3
370
    40
100
AcDbMText
 10
184.7624212622598
 20
135.1485580837921
 30
0.0
 40
15.0
 41
0.0
 71
     5
 72
     1
  1
\A1;{\H0.7667x;\C256;125}
  7
Binh
 11
0.0000000000000001
 21
1.0
 31
0.0
 73
     1
 44
1.0
1001
ACAD
1000
MTEXTBEGIN
1070
    73
1070
     1
1070
    44
1040
1.0
1070
    74
1070
     0
1000
MTEXTEND
  0
POINT
  5
5A7
330
544
100
AcDbEntity
  8
Defpoints
 62
     0
100
AcDbPoint
 10
133.4034488566697
 20
197.8561268902178
 30
0.0
  0
POINT
  5
5A8
330
544
100
AcDbEntity
  8
Defpoints
 62
     0
100
AcDbPoint
 10
133.4034488566697
 20
72.44098927736636
 30
0.0
  0
POINT
  5
5A9
330
544
100
AcDbEntity
  8
Defpoints
 62
     0
100
AcDbPoint
 10
195.5126712622597
 20
72.44098927736634
 30
0.0
  0
ENDBLK
  5
54F
330
544
100
AcDbEntity
  8
0
100
AcDbBlockEnd
  0
BLOCK
  5
55A
330
550
100
AcDbEntity
  8
0
100
AcDbBlockBegin
  2
*D14
 70
     1
 10
0.0
 20
0.0
 30
0.0
  3
*D14
  1

  0
LINE
  5
5AA
330
550
100
AcDbEntity
  8
0
 62
     8
370
    -2
100
AcDbLine
 10
31.40344885815406
 20
197.8561268902178
 30
0.0
 11
31.40344885815406
 21
218.2677272384385
 31
0.0
  0
LINE
  5
5AB
330
550
100
AcDbEntity
  8
0
 62
     8
370
    -2
100
AcDbLine
 10
133.4034488566697
 20
197.7976406516892
 30
0.0
 11
133.4034488566697
 21
218.2677272384385
 31
0.0
  0
LINE
  5
5AC
330
550
100
AcDbEntity
  8
0
 62
     8
370
    -2
100
AcDbLine
 10
31.40344885815406
 20
208.2677272384386
 30
0.0
 11
133.4034488566697
 21
208.2677272384386
 31
0.0
  0
INSERT
  5
5AD
330
550
100
AcDbEntity
  8
0
 62
     8
370
    -2
100
AcDbBlockReference
  2
_Oblique
 10
31.40344885815406
 20
208.2677272384386
 30
0.0
 41
15.0
 42
15.0
 43
15.0
 50
180.0
  0
INSERT
  5
5AE
330
550
100
AcDbEntity
  8
0
 62
     8
370
    -2
100
AcDbBlockReference
  2
_Oblique
 10
133.4034488566697
 20
208.2677272384386
 30
0.0
 41
15.0
 42
15.0
 43
15.0
  0
MTEXT
  5
5AF
330
550
100
AcDbEntity
  8
0
 62
     3
370
    40
100
AcDbMText
 10
82.40344885741192
 20
219.0179772384385
 30
0.0
 40
15.0
 41
0.0
 71
     5
 72
     1
  1
\A1;{\H0.7667x;\C256;102}
  7
Binh
 73
     1
 44
1.0
1001
ACAD
1000
MTEXTBEGIN
1070
    73
1070
     1
1070
    44
1040
1.0
1070
    74
1070
     0
1000
MTEXTEND
  0
POINT
  5
5B0
330
550
100
AcDbEntity
  8
Defpoints
 62
     0
100
AcDbPoint
 10
31.40344885815406
 20
197.8561268902178
 30
0.0
  0
POINT
  5
5B1
330
550
100
AcDbEntity
  8
Defpoints
 62
     0
100
AcDbPoint
 10
133.4034488566697
 20
197.7976406516892
 30
0.0
  0
POINT
  5
5B2
330
550
100
AcDbEntity
  8
Defpoints
 62
     0
100
AcDbPoint
 10
133.4034488566697
 20
208.2677272384386
 30
0.0
  0
ENDBLK
  5
55B
330
550
100
AcDbEntity
  8
0
100
AcDbBlockEnd
  0
BLOCK
  5
566
330
55C
100
AcDbEntity
  8
0
100
AcDbBlockBegin
  2
*D15
 70
     1
 10
0.0
 20
0.0
 30
0.0
  3
*D15
  1

  0
LINE
  5
5B3
330
55C
100
AcDbEntity
  8
0
 62
     8
370
    -2
100
AcDbLine
 10
23.65344885826681
 20
185.3985580830463
 30
0.0
 11
23.65344885826682
 21
239.2264716660251
 31
0.0
  0
LINE
  5
5B4
330
55C
100
AcDbEntity
  8
0
 62
     8
370
    -2
100
AcDbLine
 10
142.1534488565424
 20
185.3985580830463
 30
0.0
 11
142.1534488565424
 21
239.2264716660251
 31
0.0
  0
LINE
  5
5B5
330
55C
100
AcDbEntity
  8
0
 62
     8
370
    -2
100
AcDbLine
 10
23.65344885826682
 20
229.2264716660252
 30
0.0
 11
142.1534488565424
 21
229.2264716660252
 31
0.0
  0
INSERT
  5
5B6
330
55C
100
AcDbEntity
  8
0
 62
     8
370
    -2
100
AcDbBlockReference
  2
_Oblique
 10
23.65344885826682
 20
229.2264716660252
 30
0.0
 41
15.0
 42
15.0
 43
15.0
 50
180.0
  0
INSERT
  5
5B7
330
55C
100
AcDbEntity
  8
0
 62
     8
370
    -2
100
AcDbBlockReference
  2
_Oblique
 10
142.1534488565424
 20
229.2264716660252
 30
0.0
 41
15.0
 42
15.0
 43
15.0
  0
MTEXT
  5
5B8
330
55C
100
AcDbEntity
  8
0
 62
     3
370
    40
100
AcDbMText
 10
82.90344885740461
 20
239.9767216660252
 30
0.0
 40
15.0
 41
0.0
 71
     5
 72
     1
  1
\A1;{\H0.7667x;\C256;119}
  7
Binh
 73
     1
 44
1.0
1001
ACAD
1000
MTEXTBEGIN
1070
    73
1070
     1
1070
    44
1040
1.0
1070
    74
1070
     0
1000
MTEXTEND
  0
POINT
  5
5B9
330
55C
100
AcDbEntity
  8
Defpoints
 62
     0
100
AcDbPoint
 10
23.65344885826681
 20
185.3985580830463
 30
0.0
  0
POINT
  5
5BA
330
55C
100
AcDbEntity
  8
Defpoints
 62
     0
100
AcDbPoint
 10
142.1534488565424
 20
185.3985580830463
 30
0.0
  0
POINT
  5
5BB
330
55C
100
AcDbEntity
  8
Defpoints
 62
     0
100
AcDbPoint
 10
142.1534488565424
 20
229.2264716660252
 30
0.0
  0
ENDBLK
  5
567
330
55C
100
AcDbEntity
  8
0
100
AcDbBlockEnd
  0
BLOCK
  5
572
330
568
100
AcDbEntity
  8
0
100
AcDbBlockBegin
  2
*D16
 70
     1
 10
0.0
 20
0.0
 30
0.0
  3
*D16
  1

  0
LINE
  5
5BC
330
568
100
AcDbEntity
  8
0
 62
     8
370
    -2
100
AcDbLine
 10
23.65344885826694
 20
25.72732431611078
 30
0.0
 11
23.65344885826694
 21
47.63152262802853
 31
0.0
  0
LINE
  5
5BD
330
568
100
AcDbEntity
  8
0
 62
     8
370
    -2
100
AcDbLine
 10
142.1534488565426
 20
25.72732431611078
 30
0.0
 11
142.1534488565426
 21
47.63152262802853
 31
0.0
  0
LINE
  5
5BE
330
568
100
AcDbEntity
  8
0
 62
     8
370
    -2
100
AcDbLine
 10
23.65344885826694
 20
37.63152262802853
 30
0.0
 11
142.1534488565426
 21
37.63152262802853
 31
0.0
  0
INSERT
  5
5BF
330
568
100
AcDbEntity
  8
0
 62
     8
370
    -2
100
AcDbBlockReference
  2
_Oblique
 10
23.65344885826694
 20
37.63152262802853
 30
0.0
 41
15.0
 42
15.0
 43
15.0
 50
180.0
  0
INSERT
  5
5C0
330
568
100
AcDbEntity
  8
0
 62
     8
370
    -2
100
AcDbBlockReference
  2
_Oblique
 10
142.1534488565426
 20
37.63152262802853
 30
0.0
 41
15.0
 42
15.0
 43
15.0
  0
MTEXT
  5
5C1
330
568
100
AcDbEntity
  8
0
 62
     3
370
    40
100
AcDbMText
 10
82.90344885740479
 20
48.38177262802853
 30
0.0
 40
15.0
 41
0.0
 71
     5
 72
     1
  1
\A1;{\H0.7667x;\C256;119}
  7
Binh
 73
     1
 44
1.0
1001
ACAD
1000
MTEXTBEGIN
1070
    73
1070
     1
1070
    44
1040
1.0
1070
    74
1070
     0
1000
MTEXTEND
  0
POINT
  5
5C2
330
568
100
AcDbEntity
  8
Defpoints
 62
     0
100
AcDbPoint
 10
23.65344885826694
 20
25.72732431611078
 30
0.0
  0
POINT
  5
5C3
330
568
100
AcDbEntity
  8
Defpoints
 62
     0
100
AcDbPoint
 10
142.1534488565426
 20
25.72732431611078
 30
0.0
  0
POINT
  5
5C4
330
568
100
AcDbEntity
  8
Defpoints
 62
     0
100
AcDbPoint
 10
142.1534488565426
 20
37.63152262802853
 30
0.0
  0
ENDBLK
  5
573
330
568
100
AcDbEntity
  8
0
100
AcDbBlockEnd
  0
BLOCK
  5
57E
330
574
100
AcDbEntity
  8
0
100
AcDbBlockBegin
  2
*D17
 70
     1
 10
0.0
 20
0.0
 30
0.0
  3
*D17
  1

  0
LINE
  5
575
330
574
100
AcDbEntity
  8
0
 62
     8
370
    -2
100
AcDbLine
 10
23.65344885826693
 20
-28.27267568388925
 30
0.0
 11
0.4688641828700945
 21
-28.27267568388924
 31
0.0
  0
LINE
  5
576
330
574
100
AcDbEntity
  8
0
 62
     8
370
    -2
100
AcDbLine
 10
24.65344885826692
 20
26.72732431611069
 30
0.0
 11
0.4688641828701042
 21
26.7273243161107
 31
0.0
  0
LINE
  5
577
330
574
100
AcDbEntity
  8
0
 62
     8
370
    -2
100
AcDbLine
 10
10.46886418287009
 20
-28.27267568388925
 30
0.0
 11
10.46886418287011
 21
26.7273243161107
 31
0.0
  0
INSERT
  5
578
330
574
100
AcDbEntity
  8
0
 62
     8
370
    -2
100
AcDbBlockReference
  2
_Oblique
 10
10.46886418287009
 20
-28.27267568388925
 30
0.0
 41
15.0
 42
15.0
 43
15.0
 50
270.0
  0
INSERT
  5
579
330
574
100
AcDbEntity
  8
0
 62
     8
370
    -2
100
AcDbBlockReference
  2
_Oblique
 10
10.46886418287011
 20
26.7273243161107
 30
0.0
 41
15.0
 42
15.0
 43
15.0
 50
90.0
  0
MTEXT
  5
57A
330
574
100
AcDbEntity
  8
0
 62
     3
370
    40
100
AcDbMText
 10
-0.2813858171299
 20
-0.7726756838892712
 30
0.0
 40
15.0
 41
0.0
 71
     5
 72
     1
  1
\A1;{\H0.7667x;\C256;55}
  7
Binh
 11
0.0000000000000001
 21
1.0
 31
0.0
 73
     1
 44
1.0
1001
ACAD
1000
MTEXTBEGIN
1070
    73
1070
     1
1070
    44
1040
1.0
1070
    74
1070
     0
1000
MTEXTEND
  0
POINT
  5
57B
330
574
100
AcDbEntity
  8
Defpoints
 62
     0
100
AcDbPoint
 10
23.65344885826693
 20
-28.27267568388925
 30
0.0
  0
POINT
  5
57C
330
574
100
AcDbEntity
  8
Defpoints
 62
     0
100
AcDbPoint
 10
24.65344885826692
 20
26.72732431611069
 30
0.0
  0
POINT
  5
57D
330
574
100
AcDbEntity
  8
Defpoints
 62
     0
100
AcDbPoint
 10
10.46886418287011
 20
26.7273243161107
 30
0.0
  0
ENDBLK
  5
57F
330
574
100
AcDbEntity
  8
0
100
AcDbBlockEnd
  0
BLOCK
  5
58A
330
580
100
AcDbEntity
  8
0
100
AcDbBlockBegin
  2
*D18
 70
     1
 10
0.0
 20
0.0
 30
0.0
  3
*D18
  1

  0
LINE
  5
581
330
580
100
AcDbEntity
  8
0
 62
     8
370
    -2
100
AcDbLine
 10
167.5420277514633
 20
-18.55923897691446
 30
0.0
 11
167.5420277514633
 21
47.63152262802845
 31
0.0
  0
LINE
  5
582
330
580
100
AcDbEntity
  8
0
 62
     8
370
    -2
100
AcDbLine
 10
291.5420277514634
 20
-18.55923897691446
 30
0.0
 11
291.5420277514634
 21
47.63152262802845
 31
0.0
  0
LINE
  5
583
330
580
100
AcDbEntity
  8
0
 62
     8
370
    -2
100
AcDbLine
 10
167.5420277514633
 20
37.63152262802845
 30
0.0
 11
291.5420277514634
 21
37.63152262802845
 31
0.0
  0
INSERT
  5
584
330
580
100
AcDbEntity
  8
0
 62
     8
370
    -2
100
AcDbBlockReference
  2
_Oblique
 10
167.5420277514633
 20
37.63152262802845
 30
0.0
 41
15.0
 42
15.0
 43
15.0
 50
180.0
  0
INSERT
  5
585
330
580
100
AcDbEntity
  8
0
 62
     8
370
    -2
100
AcDbBlockReference
  2
_Oblique
 10
291.5420277514634
 20
37.63152262802845
 30
0.0
 41
15.0
 42
15.0
 43
15.0
  0
MTEXT
  5
586
330
580
100
AcDbEntity
  8
0
 62
     3
370
    40
100
AcDbMText
 10
229.5420277514633
 20
48.38177262802845
 30
0.0
 40
15.0
 41
0.0
 71
     5
 72
     1
  1
\A1;{\H0.7667x;\C256;124}
  7
Binh
 73
     1
 44
1.0
1001
ACAD
1000
MTEXTBEGIN
1070
    73
1070
     1
1070
    44
1040
1.0
1070
    74
1070
     0
1000
MTEXTEND
  0
POINT
  5
587
330
580
100
AcDbEntity
  8
Defpoints
 62
     0
100
AcDbPoint
 10
167.5420277514633
 20
-18.55923897691446
 30
0.0
  0
POINT
  5
588
330
580
100
AcDbEntity
  8
Defpoints
 62
     0
100
AcDbPoint
 10
291.5420277514634
 20
-18.55923897691446
 30
0.0
  0
POINT
  5
589
330
580
100
AcDbEntity
  8
Defpoints
 62
     0
100
AcDbPoint
 10
291.5420277514634
 20
37.63152262802845
 30
0.0
  0
ENDBLK
  5
58B
330
580
100
AcDbEntity
  8
0
100
AcDbBlockEnd
  0
BLOCK
  5
596
330
58C
100
AcDbEntity
  8
0
100
AcDbBlockBegin
  2
*D19
 70
     1
 10
0.0
 20
0.0
 30
0.0
  3
*D19
  1

  0
LINE
  5
5C5
330
58C
100
AcDbEntity
  8
0
 62
     8
370
    -2
100
AcDbLine
 10
257.5420277514635
 20
26.72732431611063
 30
0.0
 11
327.8252395007281
 21
26.72732431611061
 31
0.0
  0
LINE
  5
5C6
330
58C
100
AcDbEntity
  8
0
 62
     8
370
    -2
100
AcDbLine
 10
257.5420277514635
 20
-28.27267568388926
 30
0.0
 11
327.8252395007281
 21
-28.27267568388928
 31
0.0
  0
LINE
  5
5C7
330
58C
100
AcDbEntity
  8
0
 62
     8
370
    -2
100
AcDbLine
 10
317.8252395007281
 20
26.72732431611061
 30
0.0
 11
317.8252395007281
 21
-28.27267568388928
 31
0.0
  0
INSERT
  5
5C8
330
58C
100
AcDbEntity
  8
0
 62
     8
370
    -2
100
AcDbBlockReference
  2
_Oblique
 10
317.8252395007281
 20
26.72732431611061
 30
0.0
 41
15.0
 42
15.0
 43
15.0
 50
90.0
  0
INSERT
  5
5C9
330
58C
100
AcDbEntity
  8
0
 62
     8
370
    -2
100
AcDbBlockReference
  2
_Oblique
 10
317.8252395007281
 20
-28.27267568388928
 30
0.0
 41
15.0
 42
15.0
 43
15.0
 50
270.0
  0
MTEXT
  5
5CA
330
58C
100
AcDbEntity
  8
0
 62
     3
370
    40
100
AcDbMText
 10
307.0749895007281
 20
-0.7726756838892794
 30
0.0
 40
15.0
 41
0.0
 71
     5
 72
     1
  1
\A1;{\H0.7667x;\C256;55}
  7
Binh
 11
0.0000000000000001
 21
1.0
 31
0.0
 73
     1
 44
1.0
1001
ACAD
1000
MTEXTBEGIN
1070
    73
1070
     1
1070
    44
1040
1.0
1070
    74
1070
     0
1000
MTEXTEND
  0
POINT
  5
5CB
330
58C
100
AcDbEntity
  8
Defpoints
 62
     0
100
AcDbPoint
 10
257.5420277514635
 20
26.72732431611063
 30
0.0
  0
POINT
  5
5CC
330
58C
100
AcDbEntity
  8
Defpoints
 62
     0
100
AcDbPoint
 10
257.5420277514635
 20
-28.27267568388926
 30
0.0
  0
POINT
  5
5CD
330
58C
100
AcDbEntity
  8
Defpoints
 62
     0
100
AcDbPoint
 10
317.8252395007281
 20
-28.27267568388928
 30
0.0
  0
ENDBLK
  5
597
330
58C
100
AcDbEntity
  8
0
100
AcDbBlockEnd
  0
ENDSEC
  0
SECTION
  2
ENTITIES
  0
INSERT
  5
424
102
{ACAD_REACTORS
330
522
330
525
330
528
330
52B
102
}
330
1F
100
AcDbEntity
  8
0
100
AcDbBlockReference
  2
A$C00294823
 10
23.65346617512114
 20
72.44098989163984
 30
0.0
 41
0.0138888888886868
 42
0.0138888888886868
 43
0.0138888888888118
  0
LINE
  5
425
330
1F
100
AcDbEntity
  8
0
100
AcDbLine
 10
23.65344885826693
 20
25.72732431611081
 30
0.0
 11
23.65344885826693
 21
20.7273243161107
 31
0.0
  0
LINE
  5
426
330
1F
100
AcDbEntity
  8
0
100
AcDbLine
 10
23.65344885826693
 20
19.72732431611069
 30
0.0
 11
23.65344885826693
 21
-23.27267568388925
 31
0.0
  0
LINE
  5
427
330
1F
100
AcDbEntity
  8
0
100
AcDbLine
 10
23.65344885826693
 20
-23.27267568388925
 30
0.0
 11
72.297237635496
 21
-23.27267568388925
 31
0.0
  0
LINE
  5
428
330
1F
100
AcDbEntity
  8
0
100
AcDbLine
 10
93.50966007931345
 20
-23.27267568388925
 30
0.0
 11
142.1534488565425
 21
-23.27267568388925
 31
0.0
  0
LINE
  5
429
330
1F
100
AcDbEntity
  8
0
100
AcDbLine
 10
142.1534488565425
 20
-23.27267568388925
 30
0.0
 11
142.1534488565425
 21
25.72732431611081
 31
0.0
  0
LINE
  5
42A
330
1F
100
AcDbEntity
  8
0
100
AcDbLine
 10
141.1534488565426
 20
26.7273243161107
 30
0.0
 11
24.65344885826704
 21
26.7273243161107
 31
0.0
  0
LINE
  5
42B
330
1F
100
AcDbEntity
  8
0
100
AcDbLine
 10
23.65344885826693
 20
20.7273243161107
 30
0.0
 11
142.1534488565425
 21
20.7273243161107
 31
0.0
  0
LINE
  5
42C
330
1F
100
AcDbEntity
  8
0
100
AcDbLine
 10
23.65344885826693
 20
0.7273243161106962
 30
0.0
 11
142.1534488565425
 21
0.7273243161106962
 31
0.0
  0
LINE
  5
42D
330
1F
100
AcDbEntity
  8
0
100
AcDbLine
 10
23.65344885826693
 20
0.7273243161106962
 30
0.0
 11
23.65344885826693
 21
-19.27267568388925
 31
0.0
  0
LINE
  5
42E
330
1F
100
AcDbEntity
  8
0
100
AcDbLine
 10
23.65344885826693
 20
-19.27267568388925
 30
0.0
 11
142.1534488565425
 21
-19.27267568388925
 31
0.0
  0
LINE
  5
42F
330
1F
100
AcDbEntity
  8
0
100
AcDbLine
 10
23.65344885826693
 20
-23.27267568388925
 30
0.0
 11
23.65344885826693
 21
-28.27267568388925
 31
0.0
  0
LINE
  5
430
102
{ACAD_REACTORS
330
531
102
}
330
1F
100
AcDbEntity
  8
0
100
AcDbLine
 10
23.65344885826693
 20
-28.27267568388925
 30
0.0
 11
142.1534488565425
 21
-28.27267568388925
 31
0.0
  0
LINE
  5
431
330
1F
100
AcDbEntity
  8
0
100
AcDbLine
 10
142.1534488565425
 20
-28.27267568388925
 30
0.0
 11
142.1534488565425
 21
-23.27267568388925
 31
0.0
  0
LINE
  5
432
330
1F
100
AcDbEntity
  8
0
100
AcDbLine
 10
23.65344885826693
 20
20.7273243161107
 30
0.0
 11
33.65344885826693
 21
20.7273243161107
 31
0.0
  0
LINE
  5
433
330
1F
100
AcDbEntity
  8
0
100
AcDbLine
 10
23.65344885826693
 20
20.7273243161107
 30
0.0
 11
28.65344885826693
 21
20.7273243161107
 31
0.0
  0
LINE
  5
434
330
1F
100
AcDbEntity
  8
0
100
AcDbLine
 10
31.90344885740473
 20
20.7273243161107
 30
0.0
 11
31.90344885740473
 21
0.7273243161106962
 31
0.0
  0
LWPOLYLINE
  5
435
330
1F
100
AcDbEntity
  8
0
100
AcDbPolyline
 90
        4
 70
     1
 43
0.0
 10
31.90344885740473
 20
0.7273243161106962
 10
33.90344885740473
 20
0.7273243161106962
 10
33.90344885740473
 20
20.7273243161107
 10
31.90344885740473
 20
20.7273243161107
  0
LWPOLYLINE
  5
436
330
1F
100
AcDbEntity
  8
0
100
AcDbPolyline
 90
        4
 70
     1
 43
0.0
 10
33.90344885740473
 20
0.7273243161106962
 10
35.90344885740473
 20
0.7273243161106962
 10
35.90344885740473
 20
20.7273243161107
 10
33.90344885740473
 20
20.7273243161107
  0
LWPOLYLINE
  5
437
330
1F
100
AcDbEntity
  8
0
100
AcDbPolyline
 90
        4
 70
     1
 43
0.0
 10
35.90344885740473
 20
0.7273243161106962
 10
37.90344885740473
 20
0.7273243161106962
 10
37.90344885740473
 20
20.7273243161107
 10
35.90344885740473
 20
20.7273243161107
  0
LWPOLYLINE
  5
438
330
1F
100
AcDbEntity
  8
0
100
AcDbPolyline
 90
        4
 70
     1
 43
0.0
 10
37.90344885740473
 20
0.7273243161106962
 10
39.90344885740473
 20
0.7273243161106962
 10
39.90344885740473
 20
20.7273243161107
 10
37.90344885740473
 20
20.7273243161107
  0
LWPOLYLINE
  5
439
330
1F
100
AcDbEntity
  8
0
100
AcDbPolyline
 90
        4
 70
     1
 43
0.0
 10
39.90344885740473
 20
0.7273243161106962
 10
41.90344885740472
 20
0.7273243161106962
 10
41.90344885740472
 20
20.7273243161107
 10
39.90344885740473
 20
20.7273243161107
  0
LWPOLYLINE
  5
43A
330
1F
100
AcDbEntity
  8
0
100
AcDbPolyline
 90
        4
 70
     1
 43
0.0
 10
41.90344885740472
 20
0.7273243161106962
 10
43.90344885740472
 20
0.7273243161106962
 10
43.90344885740472
 20
20.7273243161107
 10
41.90344885740472
 20
20.7273243161107
  0
LWPOLYLINE
  5
43B
330
1F
100
AcDbEntity
  8
0
100
AcDbPolyline
 90
        4
 70
     1
 43
0.0
 10
43.90344885740472
 20
0.7273243161106962
 10
45.90344885740472
 20
0.7273243161106962
 10
45.90344885740472
 20
20.7273243161107
 10
43.90344885740472
 20
20.7273243161107
  0
LWPOLYLINE
  5
43C
330
1F
100
AcDbEntity
  8
0
100
AcDbPolyline
 90
        4
 70
     1
 43
0.0
 10
45.90344885740472
 20
0.7273243161106962
 10
47.90344885740473
 20
0.7273243161106962
 10
47.90344885740473
 20
20.7273243161107
 10
45.90344885740472
 20
20.7273243161107
  0
LWPOLYLINE
  5
43D
330
1F
100
AcDbEntity
  8
0
100
AcDbPolyline
 90
        4
 70
     1
 43
0.0
 10
47.90344885740473
 20
0.7273243161106962
 10
49.90344885740473
 20
0.7273243161106962
 10
49.90344885740473
 20
20.7273243161107
 10
47.90344885740473
 20
20.7273243161107
  0
LWPOLYLINE
  5
43E
330
1F
100
AcDbEntity
  8
0
100
AcDbPolyline
 90
        4
 70
     1
 43
0.0
 10
49.90344885740473
 20
0.7273243161106962
 10
51.90344885740472
 20
0.7273243161106962
 10
51.90344885740472
 20
20.7273243161107
 10
49.90344885740473
 20
20.7273243161107
  0
LWPOLYLINE
  5
43F
330
1F
100
AcDbEntity
  8
0
100
AcDbPolyline
 90
        4
 70
     1
 43
0.0
 10
51.90344885740472
 20
0.7273243161106962
 10
53.90344885740472
 20
0.7273243161106962
 10
53.90344885740472
 20
20.7273243161107
 10
51.90344885740472
 20
20.7273243161107
  0
LWPOLYLINE
  5
440
330
1F
100
AcDbEntity
  8
0
100
AcDbPolyline
 90
        4
 70
     1
 43
0.0
 10
53.90344885740472
 20
0.7273243161106962
 10
55.90344885740472
 20
0.7273243161106962
 10
55.90344885740472
 20
20.7273243161107
 10
53.90344885740472
 20
20.7273243161107
  0
LWPOLYLINE
  5
441
330
1F
100
AcDbEntity
  8
0
100
AcDbPolyline
 90
        4
 70
     1
 43
0.0
 10
55.90344885740472
 20
0.7273243161106962
 10
57.90344885740473
 20
0.7273243161106962
 10
57.90344885740473
 20
20.7273243161107
 10
55.90344885740472
 20
20.7273243161107
  0
LWPOLYLINE
  5
442
330
1F
100
AcDbEntity
  8
0
100
AcDbPolyline
 90
        4
 70
     1
 43
0.0
 10
57.90344885740473
 20
0.7273243161106962
 10
59.90344885740473
 20
0.7273243161106962
 10
59.90344885740473
 20
20.7273243161107
 10
57.90344885740473
 20
20.7273243161107
  0
LWPOLYLINE
  5
443
330
1F
100
AcDbEntity
  8
0
100
AcDbPolyline
 90
        4
 70
     1
 43
0.0
 10
59.90344885740473
 20
0.7273243161106962
 10
61.90344885740472
 20
0.7273243161106962
 10
61.90344885740472
 20
20.7273243161107
 10
59.90344885740473
 20
20.7273243161107
  0
LWPOLYLINE
  5
444
330
1F
100
AcDbEntity
  8
0
100
AcDbPolyline
 90
        4
 70
     1
 43
0.0
 10
61.90344885740472
 20
0.7273243161106962
 10
63.90344885740472
 20
0.7273243161106962
 10
63.90344885740472
 20
20.7273243161107
 10
61.90344885740472
 20
20.7273243161107
  0
LWPOLYLINE
  5
445
330
1F
100
AcDbEntity
  8
0
100
AcDbPolyline
 90
        4
 70
     1
 43
0.0
 10
63.90344885740472
 20
0.7273243161106962
 10
65.90344885740472
 20
0.7273243161106962
 10
65.90344885740472
 20
20.7273243161107
 10
63.90344885740472
 20
20.7273243161107
  0
LWPOLYLINE
  5
446
330
1F
100
AcDbEntity
  8
0
100
AcDbPolyline
 90
        4
 70
     1
 43
0.0
 10
65.90344885740472
 20
0.7273243161106962
 10
67.90344885740473
 20
0.7273243161106962
 10
67.90344885740473
 20
20.7273243161107
 10
65.90344885740472
 20
20.7273243161107
  0
LWPOLYLINE
  5
447
330
1F
100
AcDbEntity
  8
0
100
AcDbPolyline
 90
        4
 70
     1
 43
0.0
 10
67.90344885740473
 20
0.7273243161106962
 10
69.90344885740473
 20
0.7273243161106962
 10
69.90344885740473
 20
20.7273243161107
 10
67.90344885740473
 20
20.7273243161107
  0
LWPOLYLINE
  5
448
330
1F
100
AcDbEntity
  8
0
100
AcDbPolyline
 90
        4
 70
     1
 43
0.0
 10
69.90344885740473
 20
0.7273243161106962
 10
71.90344885740472
 20
0.7273243161106962
 10
71.90344885740472
 20
20.7273243161107
 10
69.90344885740473
 20
20.7273243161107
  0
LWPOLYLINE
  5
449
330
1F
100
AcDbEntity
  8
0
100
AcDbPolyline
 90
        4
 70
     1
 43
0.0
 10
71.90344885740472
 20
0.7273243161106962
 10
73.90344885740472
 20
0.7273243161106962
 10
73.90344885740472
 20
20.7273243161107
 10
71.90344885740472
 20
20.7273243161107
  0
LWPOLYLINE
  5
44A
330
1F
100
AcDbEntity
  8
0
100
AcDbPolyline
 90
        4
 70
     1
 43
0.0
 10
73.90344885740472
 20
0.7273243161106962
 10
75.90344885740472
 20
0.7273243161106962
 10
75.90344885740472
 20
20.7273243161107
 10
73.90344885740472
 20
20.7273243161107
  0
LWPOLYLINE
  5
44B
330
1F
100
AcDbEntity
  8
0
100
AcDbPolyline
 90
        4
 70
     1
 43
0.0
 10
75.90344885740472
 20
0.7273243161106962
 10
77.90344885740473
 20
0.7273243161106962
 10
77.90344885740473
 20
20.7273243161107
 10
75.90344885740472
 20
20.7273243161107
  0
LWPOLYLINE
  5
44C
330
1F
100
AcDbEntity
  8
0
100
AcDbPolyline
 90
        4
 70
     1
 43
0.0
 10
77.90344885740473
 20
0.7273243161106962
 10
79.90344885740473
 20
0.7273243161106962
 10
79.90344885740473
 20
20.7273243161107
 10
77.90344885740473
 20
20.7273243161107
  0
LWPOLYLINE
  5
44D
330
1F
100
AcDbEntity
  8
0
100
AcDbPolyline
 90
        4
 70
     1
 43
0.0
 10
79.90344885740473
 20
0.7273243161106962
 10
81.90344885740472
 20
0.7273243161106962
 10
81.90344885740472
 20
20.7273243161107
 10
79.90344885740473
 20
20.7273243161107
  0
LWPOLYLINE
  5
44E
330
1F
100
AcDbEntity
  8
0
100
AcDbPolyline
 90
        4
 70
     1
 43
0.0
 10
81.90344885740472
 20
0.7273243161106962
 10
83.90344885740473
 20
0.7273243161106962
 10
83.90344885740473
 20
20.7273243161107
 10
81.90344885740472
 20
20.7273243161107
  0
LWPOLYLINE
  5
44F
330
1F
100
AcDbEntity
  8
0
100
AcDbPolyline
 90
        4
 70
     1
 43
0.0
 10
83.90344885740473
 20
0.7273243161106962
 10
85.90344885740472
 20
0.7273243161106962
 10
85.90344885740472
 20
20.7273243161107
 10
83.90344885740473
 20
20.7273243161107
  0
LWPOLYLINE
  5
450
330
1F
100
AcDbEntity
  8
0
100
AcDbPolyline
 90
        4
 70
     1
 43
0.0
 10
85.90344885740472
 20
0.7273243161106962
 10
87.90344885740472
 20
0.7273243161106962
 10
87.90344885740472
 20
20.7273243161107
 10
85.90344885740472
 20
20.7273243161107
  0
LWPOLYLINE
  5
451
330
1F
100
AcDbEntity
  8
0
100
AcDbPolyline
 90
        4
 70
     1
 43
0.0
 10
87.90344885740472
 20
0.7273243161106962
 10
89.90344885740473
 20
0.7273243161106962
 10
89.90344885740473
 20
20.7273243161107
 10
87.90344885740472
 20
20.7273243161107
  0
LWPOLYLINE
  5
452
330
1F
100
AcDbEntity
  8
0
100
AcDbPolyline
 90
        4
 70
     1
 43
0.0
 10
89.90344885740473
 20
0.7273243161106962
 10
91.90344885740472
 20
0.7273243161106962
 10
91.90344885740472
 20
20.7273243161107
 10
89.90344885740473
 20
20.7273243161107
  0
LWPOLYLINE
  5
453
330
1F
100
AcDbEntity
  8
0
100
AcDbPolyline
 90
        4
 70
     1
 43
0.0
 10
91.90344885740472
 20
0.7273243161106962
 10
93.90344885740473
 20
0.7273243161106962
 10
93.90344885740473
 20
20.7273243161107
 10
91.90344885740472
 20
20.7273243161107
  0
LWPOLYLINE
  5
454
330
1F
100
AcDbEntity
  8
0
100
AcDbPolyline
 90
        4
 70
     1
 43
0.0
 10
93.90344885740473
 20
0.7273243161106962
 10
95.90344885740472
 20
0.7273243161106962
 10
95.90344885740472
 20
20.7273243161107
 10
93.90344885740473
 20
20.7273243161107
  0
LWPOLYLINE
  5
455
330
1F
100
AcDbEntity
  8
0
100
AcDbPolyline
 90
        4
 70
     1
 43
0.0
 10
95.90344885740472
 20
0.7273243161106962
 10
97.90344885740474
 20
0.7273243161106962
 10
97.90344885740474
 20
20.7273243161107
 10
95.90344885740472
 20
20.7273243161107
  0
LWPOLYLINE
  5
456
330
1F
100
AcDbEntity
  8
0
100
AcDbPolyline
 90
        4
 70
     1
 43
0.0
 10
97.90344885740474
 20
0.7273243161106962
 10
99.90344885740473
 20
0.7273243161106962
 10
99.90344885740473
 20
20.7273243161107
 10
97.90344885740474
 20
20.7273243161107
  0
LWPOLYLINE
  5
457
330
1F
100
AcDbEntity
  8
0
100
AcDbPolyline
 90
        4
 70
     1
 43
0.0
 10
99.90344885740473
 20
0.7273243161106962
 10
101.9034488574047
 20
0.7273243161106962
 10
101.9034488574047
 20
20.7273243161107
 10
99.90344885740473
 20
20.7273243161107
  0
LWPOLYLINE
  5
458
330
1F
100
AcDbEntity
  8
0
100
AcDbPolyline
 90
        4
 70
     1
 43
0.0
 10
101.9034488574047
 20
0.7273243161106962
 10
103.9034488574047
 20
0.7273243161106962
 10
103.9034488574047
 20
20.7273243161107
 10
101.9034488574047
 20
20.7273243161107
  0
LWPOLYLINE
  5
459
330
1F
100
AcDbEntity
  8
0
100
AcDbPolyline
 90
        4
 70
     1
 43
0.0
 10
103.9034488574047
 20
0.7273243161106962
 10
105.9034488574047
 20
0.7273243161106962
 10
105.9034488574047
 20
20.7273243161107
 10
103.9034488574047
 20
20.7273243161107
  0
LWPOLYLINE
  5
45A
330
1F
100
AcDbEntity
  8
0
100
AcDbPolyline
 90
        4
 70
     1
 43
0.0
 10
105.9034488574047
 20
0.7273243161106962
 10
107.9034488574047
 20
0.7273243161106962
 10
107.9034488574047
 20
20.7273243161107
 10
105.9034488574047
 20
20.7273243161107
  0
LWPOLYLINE
  5
45B
330
1F
100
AcDbEntity
  8
0
100
AcDbPolyline
 90
        4
 70
     1
 43
0.0
 10
107.9034488574047
 20
0.7273243161106962
 10
109.9034488574047
 20
0.7273243161106962
 10
109.9034488574047
 20
20.7273243161107
 10
107.9034488574047
 20
20.7273243161107
  0
LWPOLYLINE
  5
45C
330
1F
100
AcDbEntity
  8
0
100
AcDbPolyline
 90
        4
 70
     1
 43
0.0
 10
109.9034488574047
 20
0.7273243161106962
 10
111.9034488574047
 20
0.7273243161106962
 10
111.9034488574047
 20
20.7273243161107
 10
109.9034488574047
 20
20.7273243161107
  0
LWPOLYLINE
  5
45D
330
1F
100
AcDbEntity
  8
0
100
AcDbPolyline
 90
        4
 70
     1
 43
0.0
 10
111.9034488574047
 20
0.7273243161106962
 10
113.9034488574047
 20
0.7273243161106962
 10
113.9034488574047
 20
20.7273243161107
 10
111.9034488574047
 20
20.7273243161107
  0
LWPOLYLINE
  5
45E
330
1F
100
AcDbEntity
  8
0
100
AcDbPolyline
 90
        4
 70
     1
 43
0.0
 10
113.9034488574047
 20
0.7273243161106962
 10
115.9034488574047
 20
0.7273243161106962
 10
115.9034488574047
 20
20.7273243161107
 10
113.9034488574047
 20
20.7273243161107
  0
LWPOLYLINE
  5
45F
330
1F
100
AcDbEntity
  8
0
100
AcDbPolyline
 90
        4
 70
     1
 43
0.0
 10
115.9034488574047
 20
0.7273243161106962
 10
117.9034488574047
 20
0.7273243161106962
 10
117.9034488574047
 20
20.7273243161107
 10
115.9034488574047
 20
20.7273243161107
  0
LWPOLYLINE
  5
460
330
1F
100
AcDbEntity
  8
0
100
AcDbPolyline
 90
        4
 70
     1
 43
0.0
 10
117.9034488574047
 20
0.7273243161106962
 10
119.9034488574047
 20
0.7273243161106962
 10
119.9034488574047
 20
20.7273243161107
 10
117.9034488574047
 20
20.7273243161107
  0
LWPOLYLINE
  5
461
330
1F
100
AcDbEntity
  8
0
100
AcDbPolyline
 90
        4
 70
     1
 43
0.0
 10
119.9034488574047
 20
0.7273243161106962
 10
121.9034488574047
 20
0.7273243161106962
 10
121.9034488574047
 20
20.7273243161107
 10
119.9034488574047
 20
20.7273243161107
  0
LWPOLYLINE
  5
462
330
1F
100
AcDbEntity
  8
0
100
AcDbPolyline
 90
        4
 70
     1
 43
0.0
 10
121.9034488574047
 20
0.7273243161106962
 10
123.9034488574047
 20
0.7273243161106962
 10
123.9034488574047
 20
20.7273243161107
 10
121.9034488574047
 20
20.7273243161107
  0
LWPOLYLINE
  5
463
330
1F
100
AcDbEntity
  8
0
100
AcDbPolyline
 90
        4
 70
     1
 43
0.0
 10
123.9034488574047
 20
0.7273243161106962
 10
125.9034488574047
 20
0.7273243161106962
 10
125.9034488574047
 20
20.7273243161107
 10
123.9034488574047
 20
20.7273243161107
  0
LWPOLYLINE
  5
464
330
1F
100
AcDbEntity
  8
0
100
AcDbPolyline
 90
        4
 70
     1
 43
0.0
 10
125.9034488574047
 20
0.7273243161106962
 10
127.9034488574047
 20
0.7273243161106962
 10
127.9034488574047
 20
20.7273243161107
 10
125.9034488574047
 20
20.7273243161107
  0
LWPOLYLINE
  5
465
330
1F
100
AcDbEntity
  8
0
100
AcDbPolyline
 90
        4
 70
     1
 43
0.0
 10
127.9034488574047
 20
0.7273243161106962
 10
129.9034488574047
 20
0.7273243161106962
 10
129.9034488574047
 20
20.7273243161107
 10
127.9034488574047
 20
20.7273243161107
  0
LWPOLYLINE
  5
466
330
1F
100
AcDbEntity
  8
0
100
AcDbPolyline
 90
        4
 70
     1
 43
0.0
 10
129.9034488574047
 20
0.7273243161106962
 10
131.9034488574047
 20
0.7273243161106962
 10
131.9034488574047
 20
20.7273243161107
 10
129.9034488574047
 20
20.7273243161107
  0
LWPOLYLINE
  5
467
330
1F
100
AcDbEntity
  8
0
100
AcDbPolyline
 90
        4
 70
     1
 43
0.0
 10
131.9034488574047
 20
0.7273243161106962
 10
133.9034488574047
 20
0.7273243161106962
 10
133.9034488574047
 20
20.7273243161107
 10
131.9034488574047
 20
20.7273243161107
  0
LWPOLYLINE
  5
468
330
1F
100
AcDbEntity
  8
0
100
AcDbPolyline
 90
        4
 70
     1
 43
0.0
 10
72.297237635496
 20
-22.33337009655293
 10
93.50966007931345
 20
-22.33337009655293
 10
93.50966007931345
 20
-25.57893049671111
 10
72.297237635496
 20
-25.57893049671111
  0
LWPOLYLINE
  5
469
330
1F
100
AcDbEntity
  8
0
100
AcDbPolyline
 90
        4
 70
     1
 43
0.0
 10
79.77218135955772
 20
-25.57893049671111
 10
85.98002878124423
 20
-25.57893049671111
 10
85.98002878124423
 20
-28.27267568388925
 10
79.77218135955772
 20
-28.27267568388925
  0
LINE
  5
46A
330
1F
100
AcDbEntity
  8
0
100
AcDbLine
 10
79.27218135955772
 20
-25.57893049671111
 30
0.0
 11
79.27218135955772
 21
-28.27267568388925
 31
0.0
  0
LINE
  5
46B
330
1F
100
AcDbEntity
  8
0
100
AcDbLine
 10
85.98002878124423
 20
-25.57893049671111
 30
0.0
 11
86.48002878124424
 21
-25.57893049671111
 31
0.0
  0
LINE
  5
46C
330
1F
100
AcDbEntity
  8
0
100
AcDbLine
 10
86.48002878124424
 20
-25.57893049671111
 30
0.0
 11
86.48002878124424
 21
-28.27267568388925
 31
0.0
  0
LINE
  5
46D
330
1F
100
AcDbEntity
  8
0
100
AcDbLine
 10
31.90344885740473
 20
-1.272675683889303
 30
0.0
 11
31.90344885740473
 21
-19.27267568388925
 31
0.0
  0
LINE
  5
46E
330
1F
100
AcDbEntity
  8
0
100
AcDbLine
 10
133.9034488574047
 20
-1.272675683889303
 30
0.0
 11
133.9034488574047
 21
-19.27267568388925
 31
0.0
  0
LINE
  5
46F
330
1F
100
AcDbEntity
  8
0
100
AcDbLine
 10
133.9034488574047
 20
-1.272675683889303
 30
0.0
 11
31.90344885740473
 21
-1.272675683889303
 31
0.0
  0
LWPOLYLINE
  5
470
330
1F
100
AcDbEntity
  8
0
 62
     4
100
AcDbPolyline
 90
        4
 70
     0
 43
0.0
 10
52.90344885740461
 20
-2.5592389769144
 10
32.90344885740456
 20
-2.5592389769144
 10
32.90344885740456
 20
-18.55923897691446
 10
52.90344885740461
 20
-18.55923897691446
  0
LWPOLYLINE
  5
471
330
1F
100
AcDbEntity
  8
0
 62
     4
100
AcDbPolyline
 90
        2
 70
     0
 43
0.0
 10
52.90344885740461
 20
-17.05923897691446
 10
52.90344885740461
 20
-10.55923897691446
  0
LINE
  5
472
330
1F
100
AcDbEntity
  8
0
 62
     4
100
AcDbLine
 10
42.90344885740461
 20
-17.05923897691446
 30
0.0
 11
42.90344885740461
 21
-10.55923897691446
 31
0.0
  0
LINE
  5
473
330
1F
100
AcDbEntity
  8
0
 62
     4
100
AcDbLine
 10
52.90344885740461
 20
-10.55923897691446
 30
0.0
 11
32.90344885740456
 21
-10.55923897691446
 31
0.0
  0
LINE
  5
474
330
1F
100
AcDbEntity
  8
0
 62
     4
100
AcDbLine
 10
47.90344885740461
 20
-17.05923897691446
 30
0.0
 11
47.90344885740461
 21
-10.55923897691446
 31
0.0
  0
LINE
  5
475
330
1F
100
AcDbEntity
  8
0
 62
     4
100
AcDbLine
 10
37.90344885740462
 20
-17.05923897691446
 30
0.0
 11
37.90344885740462
 21
-10.55923897691446
 31
0.0
  0
LINE
  5
476
330
1F
100
AcDbEntity
  8
0
 62
     4
100
AcDbLine
 10
52.90344885740461
 20
-17.05923897691446
 30
0.0
 11
32.90344885740456
 21
-17.05923897691446
 31
0.0
  0
LWPOLYLINE
  5
477
330
1F
100
AcDbEntity
  8
0
 62
     4
100
AcDbPolyline
 90
        4
 70
     1
 43
0.0
 10
52.52754935762545
 20
-16.08109076524101
 10
48.27882324655258
 20
-16.08109076524101
 10
48.27882324655258
 20
-10.78654650839644
 10
52.52754935762545
 20
-10.78654650839644
  0
LWPOLYLINE
  5
478
330
1F
100
AcDbEntity
  8
0
 62
     4
100
AcDbPolyline
 90
        4
 70
     1
 43
0.0
 10
47.52702424699435
 20
-16.08109076524101
 10
43.27829813592148
 20
-16.08109076524101
 10
43.27829813592148
 20
-10.78654650839644
 10
47.52702424699435
 20
-10.78654650839644
  0
LWPOLYLINE
  5
479
330
1F
100
AcDbEntity
  8
0
 62
     4
100
AcDbPolyline
 90
        4
 70
     1
 43
0.0
 10
42.53912591029058
 20
-16.08109076524101
 10
38.29039979921771
 20
-16.08109076524101
 10
38.29039979921771
 20
-10.78654650839644
 10
42.53912591029058
 20
-10.78654650839644
  0
LWPOLYLINE
  5
47A
330
1F
100
AcDbEntity
  8
0
 62
     4
100
AcDbPolyline
 90
        4
 70
     1
 43
0.0
 10
37.52095851274333
 20
-16.08109076524101
 10
33.27223240167041
 20
-16.08109076524101
 10
33.27223240167041
 20
-10.78654650839644
 10
37.52095851274333
 20
-10.78654650839644
  0
LINE
  5
47B
330
1F
100
AcDbEntity
  8
0
 62
     0
100
AcDbLine
 10
52.52754935762545
 20
-12.58272099410351
 30
0.0
 11
48.27882324655258
 21
-12.58272099410351
 31
0.0
  0
LINE
  5
47C
330
1F
100
AcDbEntity
  8
0
 62
     0
100
AcDbLine
 10
47.52702424699435
 20
-12.58272099410351
 30
0.0
 11
43.27829813592148
 21
-12.58272099410351
 31
0.0
  0
LINE
  5
47D
330
1F
100
AcDbEntity
  8
0
 62
     0
100
AcDbLine
 10
42.53912591029058
 20
-12.58272099410351
 30
0.0
 11
38.29039979921771
 21
-12.58272099410351
 31
0.0
  0
LINE
  5
47E
330
1F
100
AcDbEntity
  8
0
 62
     0
100
AcDbLine
 10
37.52095851274333
 20
-12.58272099410351
 30
0.0
 11
33.27223240167041
 21
-12.58272099410351
 31
0.0
  0
LINE
  5
47F
330
1F
100
AcDbEntity
  8
0
 62
     4
100
AcDbLine
 10
52.90344885740461
 20
-3.0592389769144
 30
0.0
 11
32.90344885740456
 21
-3.0592389769144
 31
0.0
  0
LWPOLYLINE
  5
480
330
1F
100
AcDbEntity
  8
0
 62
     4
100
AcDbPolyline
 90
        2
 70
     0
 43
0.0
 10
52.90344885740461
 20
-10.55923897691446
 10
52.90344885740461
 20
-17.05923897691446
  0
LWPOLYLINE
  5
481
330
1F
100
AcDbEntity
  8
0
 62
     4
100
AcDbPolyline
 90
        2
 70
     0
 43
0.0
 10
52.90344885740461
 20
-18.55923897691446
 10
72.90344885740466
 20
-18.55923897691446
  0
LWPOLYLINE
  5
482
330
1F
100
AcDbEntity
  8
0
 62
     4
100
AcDbPolyline
 90
        2
 70
     0
 43
0.0
 10
72.90344885740466
 20
-17.05923897691446
 10
72.90344885740466
 20
-10.55923897691446
  0
LWPOLYLINE
  5
483
330
1F
100
AcDbEntity
  8
0
 62
     4
100
AcDbPolyline
 90
        2
 70
     0
 43
0.0
 10
72.90344885740466
 20
-2.5592389769144
 10
52.90344885740461
 20
-2.5592389769144
  0
LINE
  5
484
330
1F
100
AcDbEntity
  8
0
 62
     4
100
AcDbLine
 10
62.9034488574047
 20
-17.05923897691446
 30
0.0
 11
62.90344885740466
 21
-10.55923897691446
 31
0.0
  0
LINE
  5
485
330
1F
100
AcDbEntity
  8
0
 62
     4
100
AcDbLine
 10
72.90344885740466
 20
-10.55923897691446
 30
0.0
 11
52.90344885740461
 21
-10.55923897691446
 31
0.0
  0
LINE
  5
486
330
1F
100
AcDbEntity
  8
0
 62
     4
100
AcDbLine
 10
67.90344885740466
 20
-17.05923897691446
 30
0.0
 11
67.90344885740466
 21
-10.55923897691446
 31
0.0
  0
LINE
  5
487
330
1F
100
AcDbEntity
  8
0
 62
     4
100
AcDbLine
 10
57.90344885740466
 20
-17.05923897691446
 30
0.0
 11
57.90344885740466
 21
-10.55923897691446
 31
0.0
  0
LINE
  5
488
330
1F
100
AcDbEntity
  8
0
 62
     4
100
AcDbLine
 10
72.90344885740466
 20
-17.05923897691446
 30
0.0
 11
52.90344885740461
 21
-17.05923897691446
 31
0.0
  0
LWPOLYLINE
  5
489
330
1F
100
AcDbEntity
  8
0
 62
     4
100
AcDbPolyline
 90
        4
 70
     1
 43
0.0
 10
72.5275493576255
 20
-16.08109076524101
 10
68.27882324655263
 20
-16.08109076524101
 10
68.27882324655263
 20
-10.78654650839644
 10
72.5275493576255
 20
-10.78654650839644
  0
LWPOLYLINE
  5
48A
330
1F
100
AcDbEntity
  8
0
 62
     4
100
AcDbPolyline
 90
        4
 70
     1
 43
0.0
 10
67.52702424699442
 20
-16.08109076524101
 10
63.27829813592154
 20
-16.08109076524101
 10
63.27829813592154
 20
-10.78654650839644
 10
67.52702424699442
 20
-10.78654650839644
  0
LWPOLYLINE
  5
48B
330
1F
100
AcDbEntity
  8
0
 62
     4
100
AcDbPolyline
 90
        4
 70
     1
 43
0.0
 10
62.53912591029063
 20
-16.08109076524101
 10
58.29039979921777
 20
-16.08109076524101
 10
58.29039979921777
 20
-10.78654650839644
 10
62.53912591029063
 20
-10.78654650839644
  0
LWPOLYLINE
  5
48C
330
1F
100
AcDbEntity
  8
0
 62
     4
100
AcDbPolyline
 90
        4
 70
     1
 43
0.0
 10
57.52095851274339
 20
-16.08109076524101
 10
53.27223240167047
 20
-16.08109076524101
 10
53.27223240167047
 20
-10.78654650839644
 10
57.52095851274339
 20
-10.78654650839644
  0
LINE
  5
48D
330
1F
100
AcDbEntity
  8
0
 62
     0
100
AcDbLine
 10
72.5275493576255
 20
-12.58272099410351
 30
0.0
 11
68.27882324655263
 21
-12.58272099410351
 31
0.0
  0
LINE
  5
48E
330
1F
100
AcDbEntity
  8
0
 62
     0
100
AcDbLine
 10
67.52702424699442
 20
-12.58272099410351
 30
0.0
 11
63.27829813592154
 21
-12.58272099410351
 31
0.0
  0
LINE
  5
48F
330
1F
100
AcDbEntity
  8
0
 62
     0
100
AcDbLine
 10
62.53912591029063
 20
-12.58272099410351
 30
0.0
 11
58.29039979921777
 21
-12.58272099410351
 31
0.0
  0
LINE
  5
490
330
1F
100
AcDbEntity
  8
0
 62
     0
100
AcDbLine
 10
57.52095851274339
 20
-12.58272099410351
 30
0.0
 11
53.27223240167047
 21
-12.58272099410351
 31
0.0
  0
LINE
  5
491
330
1F
100
AcDbEntity
  8
0
 62
     4
100
AcDbLine
 10
72.90344885740466
 20
-3.0592389769144
 30
0.0
 11
52.90344885740461
 21
-3.0592389769144
 31
0.0
  0
LWPOLYLINE
  5
492
330
1F
100
AcDbEntity
  8
0
 62
     4
100
AcDbPolyline
 90
        2
 70
     0
 43
0.0
 10
72.90344885740466
 20
-10.55923897691446
 10
72.90344885740466
 20
-17.05923897691446
  0
LWPOLYLINE
  5
493
330
1F
100
AcDbEntity
  8
0
 62
     4
100
AcDbPolyline
 90
        2
 70
     0
 43
0.0
 10
72.90344885740466
 20
-18.55923897691446
 10
92.90344885740472
 20
-18.55923897691446
  0
LWPOLYLINE
  5
494
330
1F
100
AcDbEntity
  8
0
 62
     4
100
AcDbPolyline
 90
        2
 70
     0
 43
0.0
 10
92.90344885740472
 20
-17.05923897691446
 10
92.90344885740472
 20
-10.55923897691446
  0
LWPOLYLINE
  5
495
330
1F
100
AcDbEntity
  8
0
 62
     4
100
AcDbPolyline
 90
        2
 70
     0
 43
0.0
 10
92.90344885740472
 20
-2.5592389769144
 10
72.90344885740466
 20
-2.5592389769144
  0
LINE
  5
496
330
1F
100
AcDbEntity
  8
0
 62
     4
100
AcDbLine
 10
82.90344885740472
 20
-18.55923897691446
 30
0.0
 11
82.90344885740472
 21
-2.5592389769144
 31
0.0
  0
LINE
  5
497
330
1F
100
AcDbEntity
  8
0
 62
     4
100
AcDbLine
 10
92.90344885740472
 20
-10.55923897691446
 30
0.0
 11
72.90344885740466
 21
-10.55923897691446
 31
0.0
  0
LINE
  5
498
330
1F
100
AcDbEntity
  8
0
 62
     4
100
AcDbLine
 10
87.90344885740472
 20
-17.05923897691446
 30
0.0
 11
87.90344885740472
 21
-10.55923897691446
 31
0.0
  0
LINE
  5
499
330
1F
100
AcDbEntity
  8
0
 62
     4
100
AcDbLine
 10
77.90344885740473
 20
-17.05923897691446
 30
0.0
 11
77.90344885740473
 21
-10.55923897691446
 31
0.0
  0
LINE
  5
49A
330
1F
100
AcDbEntity
  8
0
 62
     4
100
AcDbLine
 10
92.90344885740472
 20
-17.05923897691446
 30
0.0
 11
72.90344885740466
 21
-17.05923897691446
 31
0.0
  0
LWPOLYLINE
  5
49B
330
1F
100
AcDbEntity
  8
0
 62
     4
100
AcDbPolyline
 90
        4
 70
     1
 43
0.0
 10
92.52754935762556
 20
-16.08109076524101
 10
88.27882324655268
 20
-16.08109076524101
 10
88.27882324655268
 20
-10.78654650839644
 10
92.52754935762556
 20
-10.78654650839644
  0
LWPOLYLINE
  5
49C
330
1F
100
AcDbEntity
  8
0
 62
     4
100
AcDbPolyline
 90
        4
 70
     1
 43
0.0
 10
87.52702424699448
 20
-16.08109076524101
 10
83.2782981359216
 20
-16.08109076524101
 10
83.2782981359216
 20
-10.78654650839644
 10
87.52702424699448
 20
-10.78654650839644
  0
LWPOLYLINE
  5
49D
330
1F
100
AcDbEntity
  8
0
 62
     4
100
AcDbPolyline
 90
        4
 70
     1
 43
0.0
 10
82.53912591029068
 20
-16.08109076524101
 10
78.29039979921782
 20
-16.08109076524101
 10
78.29039979921782
 20
-10.78654650839644
 10
82.53912591029068
 20
-10.78654650839644
  0
LWPOLYLINE
  5
49E
330
1F
100
AcDbEntity
  8
0
 62
     4
100
AcDbPolyline
 90
        4
 70
     1
 43
0.0
 10
77.52095851274344
 20
-16.08109076524101
 10
73.27223240167052
 20
-16.08109076524101
 10
73.27223240167052
 20
-10.78654650839644
 10
77.52095851274344
 20
-10.78654650839644
  0
LINE
  5
49F
330
1F
100
AcDbEntity
  8
0
 62
     0
100
AcDbLine
 10
92.52754935762556
 20
-12.58272099410351
 30
0.0
 11
88.27882324655268
 21
-12.58272099410351
 31
0.0
  0
LINE
  5
4A0
330
1F
100
AcDbEntity
  8
0
 62
     0
100
AcDbLine
 10
87.52702424699448
 20
-12.58272099410351
 30
0.0
 11
83.2782981359216
 21
-12.58272099410351
 31
0.0
  0
LINE
  5
4A1
330
1F
100
AcDbEntity
  8
0
 62
     0
100
AcDbLine
 10
82.53912591029068
 20
-12.58272099410351
 30
0.0
 11
78.29039979921782
 21
-12.58272099410351
 31
0.0
  0
LINE
  5
4A2
330
1F
100
AcDbEntity
  8
0
 62
     0
100
AcDbLine
 10
77.52095851274344
 20
-12.58272099410351
 30
0.0
 11
73.27223240167052
 21
-12.58272099410351
 31
0.0
  0
LINE
  5
4A3
330
1F
100
AcDbEntity
  8
0
 62
     4
100
AcDbLine
 10
92.90344885740472
 20
-3.0592389769144
 30
0.0
 11
72.90344885740466
 21
-3.0592389769144
 31
0.0
  0
LWPOLYLINE
  5
4A4
330
1F
100
AcDbEntity
  8
0
 62
     4
100
AcDbPolyline
 90
        2
 70
     0
 43
0.0
 10
92.90344885740472
 20
-10.55923897691446
 10
92.90344885740472
 20
-17.05923897691446
  0
LWPOLYLINE
  5
4A5
330
1F
100
AcDbEntity
  8
0
 62
     4
100
AcDbPolyline
 90
        2
 70
     0
 43
0.0
 10
92.90344885740472
 20
-18.55923897691446
 10
112.9034488574047
 20
-18.55923897691446
  0
LWPOLYLINE
  5
4A6
330
1F
100
AcDbEntity
  8
0
 62
     4
100
AcDbPolyline
 90
        2
 70
     0
 43
0.0
 10
112.9034488574047
 20
-17.05923897691446
 10
112.9034488574047
 20
-10.55923897691446
  0
LWPOLYLINE
  5
4A7
330
1F
100
AcDbEntity
  8
0
 62
     4
100
AcDbPolyline
 90
        2
 70
     0
 43
0.0
 10
112.9034488574047
 20
-2.5592389769144
 10
92.90344885740472
 20
-2.5592389769144
  0
LINE
  5
4A8
330
1F
100
AcDbEntity
  8
0
 62
     4
100
AcDbLine
 10
102.9034488574048
 20
-17.05923897691446
 30
0.0
 11
102.9034488574048
 21
-10.55923897691446
 31
0.0
  0
LINE
  5
4A9
330
1F
100
AcDbEntity
  8
0
 62
     4
100
AcDbLine
 10
112.9034488574047
 20
-10.55923897691446
 30
0.0
 11
92.90344885740472
 21
-10.55923897691446
 31
0.0
  0
LINE
  5
4AA
330
1F
100
AcDbEntity
  8
0
 62
     4
100
AcDbLine
 10
107.9034488574048
 20
-17.05923897691446
 30
0.0
 11
107.9034488574048
 21
-10.55923897691446
 31
0.0
  0
LINE
  5
4AB
330
1F
100
AcDbEntity
  8
0
 62
     4
100
AcDbLine
 10
97.90344885740479
 20
-17.05923897691446
 30
0.0
 11
97.90344885740479
 21
-10.55923897691446
 31
0.0
  0
LINE
  5
4AC
330
1F
100
AcDbEntity
  8
0
 62
     4
100
AcDbLine
 10
112.9034488574047
 20
-17.05923897691446
 30
0.0
 11
92.90344885740472
 21
-17.05923897691446
 31
0.0
  0
LWPOLYLINE
  5
4AD
330
1F
100
AcDbEntity
  8
0
 62
     4
100
AcDbPolyline
 90
        4
 70
     1
 43
0.0
 10
112.5275493576256
 20
-16.08109076524101
 10
108.2788232465527
 20
-16.08109076524101
 10
108.2788232465527
 20
-10.78654650839644
 10
112.5275493576256
 20
-10.78654650839644
  0
LWPOLYLINE
  5
4AE
330
1F
100
AcDbEntity
  8
0
 62
     4
100
AcDbPolyline
 90
        4
 70
     1
 43
0.0
 10
107.5270242469945
 20
-16.08109076524101
 10
103.2782981359216
 20
-16.08109076524101
 10
103.2782981359216
 20
-10.78654650839644
 10
107.5270242469945
 20
-10.78654650839644
  0
LWPOLYLINE
  5
4AF
330
1F
100
AcDbEntity
  8
0
 62
     4
100
AcDbPolyline
 90
        4
 70
     1
 43
0.0
 10
102.5391259102907
 20
-16.08109076524101
 10
98.29039979921788
 20
-16.08109076524101
 10
98.29039979921788
 20
-10.78654650839644
 10
102.5391259102907
 20
-10.78654650839644
  0
LWPOLYLINE
  5
4B0
330
1F
100
AcDbEntity
  8
0
 62
     4
100
AcDbPolyline
 90
        4
 70
     1
 43
0.0
 10
97.52095851274351
 20
-16.08109076524101
 10
93.27223240167057
 20
-16.08109076524101
 10
93.27223240167057
 20
-10.78654650839644
 10
97.52095851274351
 20
-10.78654650839644
  0
LINE
  5
4B1
330
1F
100
AcDbEntity
  8
0
 62
     0
100
AcDbLine
 10
112.5275493576256
 20
-12.58272099410351
 30
0.0
 11
108.2788232465527
 21
-12.58272099410351
 31
0.0
  0
LINE
  5
4B2
330
1F
100
AcDbEntity
  8
0
 62
     0
100
AcDbLine
 10
107.5270242469945
 20
-12.58272099410351
 30
0.0
 11
103.2782981359216
 21
-12.58272099410351
 31
0.0
  0
LINE
  5
4B3
330
1F
100
AcDbEntity
  8
0
 62
     0
100
AcDbLine
 10
102.5391259102907
 20
-12.58272099410351
 30
0.0
 11
98.29039979921788
 21
-12.58272099410351
 31
0.0
  0
LINE
  5
4B4
330
1F
100
AcDbEntity
  8
0
 62
     0
100
AcDbLine
 10
97.52095851274351
 20
-12.58272099410351
 30
0.0
 11
93.27223240167057
 21
-12.58272099410351
 31
0.0
  0
LINE
  5
4B5
330
1F
100
AcDbEntity
  8
0
 62
     4
100
AcDbLine
 10
112.9034488574047
 20
-3.0592389769144
 30
0.0
 11
92.90344885740472
 21
-3.0592389769144
 31
0.0
  0
LWPOLYLINE
  5
4B6
330
1F
100
AcDbEntity
  8
0
 62
     4
100
AcDbPolyline
 90
        2
 70
     0
 43
0.0
 10
112.9034488574047
 20
-10.55923897691446
 10
112.9034488574047
 20
-17.05923897691446
  0
LWPOLYLINE
  5
4B7
330
1F
100
AcDbEntity
  8
0
 62
     4
100
AcDbPolyline
 90
        4
 70
     0
 43
0.0
 10
112.9034488574047
 20
-18.55923897691446
 10
132.9034488574048
 20
-18.55923897691446
 10
132.9034488574048
 20
-2.5592389769144
 10
112.9034488574047
 20
-2.5592389769144
  0
LINE
  5
4B8
330
1F
100
AcDbEntity
  8
0
 62
     4
100
AcDbLine
 10
122.9034488574048
 20
-17.05923897691446
 30
0.0
 11
122.9034488574048
 21
-10.55923897691446
 31
0.0
  0
LINE
  5
4B9
330
1F
100
AcDbEntity
  8
0
 62
     4
100
AcDbLine
 10
132.9034488574048
 20
-10.55923897691446
 30
0.0
 11
112.9034488574047
 21
-10.55923897691446
 31
0.0
  0
LINE
  5
4BA
330
1F
100
AcDbEntity
  8
0
 62
     4
100
AcDbLine
 10
127.9034488574048
 20
-17.05923897691446
 30
0.0
 11
127.9034488574048
 21
-10.55923897691446
 31
0.0
  0
LINE
  5
4BB
330
1F
100
AcDbEntity
  8
0
 62
     4
100
AcDbLine
 10
132.9034488574048
 20
-18.55923897691446
 30
0.0
 11
132.9034488574048
 21
-17.05923897691446
 31
0.0
  0
LINE
  5
4BC
330
1F
100
AcDbEntity
  8
0
 62
     4
100
AcDbLine
 10
117.9034488574048
 20
-17.05923897691446
 30
0.0
 11
117.9034488574048
 21
-10.55923897691446
 31
0.0
  0
LINE
  5
4BD
330
1F
100
AcDbEntity
  8
0
 62
     4
100
AcDbLine
 10
132.9034488574048
 20
-17.05923897691446
 30
0.0
 11
112.9034488574047
 21
-17.05923897691446
 31
0.0
  0
LWPOLYLINE
  5
4BE
330
1F
100
AcDbEntity
  8
0
 62
     4
100
AcDbPolyline
 90
        4
 70
     1
 43
0.0
 10
132.5275493576256
 20
-16.08109076524101
 10
128.2788232465528
 20
-16.08109076524101
 10
128.2788232465528
 20
-10.78654650839644
 10
132.5275493576256
 20
-10.78654650839644
  0
LWPOLYLINE
  5
4BF
330
1F
100
AcDbEntity
  8
0
 62
     4
100
AcDbPolyline
 90
        4
 70
     1
 43
0.0
 10
127.5270242469946
 20
-16.08109076524101
 10
123.2782981359217
 20
-16.08109076524101
 10
123.2782981359217
 20
-10.78654650839644
 10
127.5270242469946
 20
-10.78654650839644
  0
LWPOLYLINE
  5
4C0
330
1F
100
AcDbEntity
  8
0
 62
     4
100
AcDbPolyline
 90
        4
 70
     1
 43
0.0
 10
122.5391259102908
 20
-16.08109076524101
 10
118.2903997992179
 20
-16.08109076524101
 10
118.2903997992179
 20
-10.78654650839644
 10
122.5391259102908
 20
-10.78654650839644
  0
LWPOLYLINE
  5
4C1
330
1F
100
AcDbEntity
  8
0
 62
     4
100
AcDbPolyline
 90
        4
 70
     1
 43
0.0
 10
117.5209585127435
 20
-16.08109076524101
 10
113.2722324016706
 20
-16.08109076524101
 10
113.2722324016706
 20
-10.78654650839644
 10
117.5209585127435
 20
-10.78654650839644
  0
LINE
  5
4C2
330
1F
100
AcDbEntity
  8
0
 62
     0
100
AcDbLine
 10
132.5275493576256
 20
-12.58272099410351
 30
0.0
 11
128.2788232465528
 21
-12.58272099410351
 31
0.0
  0
LINE
  5
4C3
330
1F
100
AcDbEntity
  8
0
 62
     0
100
AcDbLine
 10
127.5270242469946
 20
-12.58272099410351
 30
0.0
 11
123.2782981359217
 21
-12.58272099410351
 31
0.0
  0
LINE
  5
4C4
330
1F
100
AcDbEntity
  8
0
 62
     0
100
AcDbLine
 10
122.5391259102908
 20
-12.58272099410351
 30
0.0
 11
118.2903997992179
 21
-12.58272099410351
 31
0.0
  0
LINE
  5
4C5
330
1F
100
AcDbEntity
  8
0
 62
     0
100
AcDbLine
 10
117.5209585127435
 20
-12.58272099410351
 30
0.0
 11
113.2722324016706
 21
-12.58272099410351
 31
0.0
  0
LINE
  5
4C6
330
1F
100
AcDbEntity
  8
0
 62
     4
100
AcDbLine
 10
132.9034488574048
 20
-2.5592389769144
 30
0.0
 11
132.9034488574048
 21
-3.0592389769144
 31
0.0
  0
LINE
  5
4C7
330
1F
100
AcDbEntity
  8
0
 62
     4
100
AcDbLine
 10
132.9034488574048
 20
-3.0592389769144
 30
0.0
 11
112.9034488574047
 21
-3.0592389769144
 31
0.0
  0
ARC
  5
4C8
102
{ACAD_REACTORS
330
52E
330
531
102
}
330
1F
100
AcDbEntity
  8
0
100
AcDbCircle
 10
24.93377894415659
 20
25.44699423022104
 30
0.0
 40
1.310660171779521
100
AcDbArc
 50
102.3501001262013
 51
167.6498998737953
  0
ARC
  5
4C9
330
1F
100
AcDbEntity
  8
0
100
AcDbCircle
 10
24.93377894415659
 20
19.44699423022103
 30
0.0
 40
1.310660171779521
100
AcDbArc
 50
102.3501001262013
 51
167.6498998737953
  0
LINE
  5
4CA
330
1F
100
AcDbEntity
  8
0
100
AcDbLine
 10
23.65344885826693
 20
20.7273243161107
 30
0.0
 11
23.65344885826693
 21
19.72732431611069
 31
0.0
  0
ARC
  5
4CB
330
1F
100
AcDbEntity
  8
0
100
AcDbCircle
 10
24.93377894415659
 20
-0.553005769778963
 30
0.0
 40
1.310660171779521
100
AcDbArc
 50
102.3501001262013
 51
167.6498998737953
  0
ARC
  5
4CC
102
{ACAD_REACTORS
330
52E
102
}
330
1F
100
AcDbEntity
  8
0
100
AcDbCircle
 10
140.8787942872485
 20
25.45266974681664
 30
0.0
 40
1.303909277310461
100
AcDbArc
 50
12.15982091124316
 51
77.84017908876053
  0
ARC
  5
4CD
330
1F
100
AcDbEntity
  8
0
100
AcDbCircle
 10
140.8787942872485
 20
19.45266974681664
 30
0.0
 40
1.303909277310461
100
AcDbArc
 50
12.15982091124316
 51
77.84017908876053
  0
ARC
  5
4CE
330
1F
100
AcDbEntity
  8
0
100
AcDbCircle
 10
140.8787942872485
 20
-0.5473302531833611
 30
0.0
 40
1.303909277310461
100
AcDbArc
 50
12.15982091124316
 51
77.84017908876053
  0
HATCH
  5
4CF
330
1F
100
AcDbEntity
  8
0
100
AcDbHatch
 10
0.0
 20
0.0
 30
0.0
210
0.0
220
0.0
230
1.0
  2
SOLID
 70
     1
 71
     1
 91
        1
 92
        1
 93
        4
 72
     1
 10
120.2698023133168
 20
26.7273243161107
 11
124.1754362696929
 21
26.7273243161107
 72
     1
 10
124.1754362696929
 20
26.7273243161107
 11
124.1754362696929
 21
28.20804487308641
 72
     1
 10
124.1754362696929
 20
28.20804487308641
 11
120.2698023133168
 21
28.20804487308641
 72
     1
 10
120.2698023133168
 20
28.20804487308641
 11
120.2698023133168
 21
26.7273243161107
 97
        1
330
4D0
 75
     0
 76
     1
 98
        1
 10
309.4329826454717
 20
584.7330747301255
1001
ACAD
1010
0.0
1020
0.0
1030
0.0
  0
LWPOLYLINE
  5
4D0
102
{ACAD_REACTORS
330
4CF
102
}
330
1F
100
AcDbEntity
  8
0
100
AcDbPolyline
 90
        4
 70
     1
 43
0.0
 10
120.2698023133168
 20
26.7273243161107
 10
124.1754362696929
 20
26.7273243161107
 10
124.1754362696929
 20
28.20804487308641
 10
120.2698023133168
 20
28.20804487308641
  0
LINE
  5
4D1
330
1F
100
AcDbEntity
  8
0
100
AcDbLine
 10
179.5420277514633
 20
-28.27267568388925
 30
0.0
 11
212.2449270341041
 21
-28.27267568388925
 31
0.0
  0
LINE
  5
4D2
330
1F
100
AcDbEntity
  8
0
100
AcDbLine
 10
242.2102233837491
 20
-28.27267568388925
 30
0.0
 11
279.5420277514633
 21
-28.27267568388925
 31
0.0
  0
LINE
  5
4D3
330
1F
100
AcDbEntity
  8
0
100
AcDbLine
 10
279.5420277514633
 20
-28.27267568388925
 30
0.0
 11
279.5420277514633
 21
-0.2726756838893038
 31
0.0
  0
LINE
  5
4D4
330
1F
100
AcDbEntity
  8
0
100
AcDbLine
 10
179.5420277514633
 20
-0.2726756838893038
 30
0.0
 11
179.5420277514633
 21
-28.27267568388925
 31
0.0
  0
LINE
  5
4D5
330
1F
100
AcDbEntity
  8
0
100
AcDbLine
 10
179.5420277514633
 20
-23.27267568388925
 30
0.0
 11
279.5420277514633
 21
-23.27267568388925
 31
0.0
  0
LINE
  5
4D6
330
1F
100
AcDbEntity
  8
0
100
AcDbLine
 10
179.5420277514633
 20
-19.27267568388925
 30
0.0
 11
279.5420277514633
 21
-19.27267568388925
 31
0.0
  0
LINE
  5
4D7
330
1F
100
AcDbEntity
  8
0
100
AcDbLine
 10
249.5420277514634
 20
-23.27267568388925
 30
0.0
 11
229.5420277514633
 21
-23.27267568388925
 31
0.0
  0
LINE
  5
4D8
330
1F
100
AcDbEntity
  8
0
100
AcDbLine
 10
209.5420277514634
 20
-23.27267568388925
 30
0.0
 11
209.5420277514634
 21
-28.27267568388925
 31
0.0
  0
LINE
  5
4D9
330
1F
100
AcDbEntity
  8
0
100
AcDbLine
 10
249.5420277514634
 20
-23.27267568388925
 30
0.0
 11
249.5420277514634
 21
-28.27267568388925
 31
0.0
  0
LINE
  5
4DA
330
1F
100
AcDbEntity
  8
0
100
AcDbLine
 10
249.5420277514634
 20
-25.22726147998628
 30
0.0
 11
242.2102233837491
 21
-26.74996858193777
 31
0.0
  0
LINE
  5
4DB
330
1F
100
AcDbEntity
  8
0
100
AcDbLine
 10
242.2102233837491
 20
-26.74996858193777
 30
0.0
 11
242.2102233837491
 21
-28.27267568388925
 31
0.0
  0
LINE
  5
4DC
330
1F
100
AcDbEntity
  8
0
100
AcDbLine
 10
209.5420277514634
 20
-28.27267568388925
 30
0.0
 11
212.244927034104
 21
-28.27267568388925
 31
0.0
  0
LINE
  5
4DD
330
1F
100
AcDbEntity
  8
0
100
AcDbLine
 10
212.244927034104
 20
-28.27267568388925
 30
0.0
 11
216.8420277514634
 21
-25.77267568388925
 31
0.0
  0
LINE
  5
4DE
330
1F
100
AcDbEntity
  8
0
100
AcDbLine
 10
216.8420277514634
 20
-25.77267568388925
 30
0.0
 11
216.8420277514634
 21
-25.15483663590817
 31
0.0
  0
LINE
  5
4DF
330
1F
100
AcDbEntity
  8
0
100
AcDbLine
 10
215.9625387144026
 20
-24.53699758792709
 30
0.0
 11
209.5420277514634
 21
-24.53699758792709
 31
0.0
  0
LINE
  5
4E0
330
1F
100
AcDbEntity
  8
0
100
AcDbLine
 10
216.8420277514634
 20
-25.15483663590817
 30
0.0
 11
215.9625387144025
 21
-24.53699758792709
 31
0.0
  0
LWPOLYLINE
  5
4E1
330
1F
100
AcDbEntity
  8
0
100
AcDbPolyline
 90
        4
 70
     1
 43
0.0
 10
225.1969768281172
 20
-17.62234935623087
 10
233.5669661307849
 20
-17.62234935623087
 10
233.5669661307849
 20
-13.29070985022008
 10
225.1969768281172
 20
-13.29070985022008
  0
LINE
  5
4E2
330
1F
100
AcDbEntity
  8
0
100
AcDbLine
 10
225.1969768281172
 20
-14.18944229246767
 30
0.0
 11
233.5669661307849
 21
-14.18944229246767
 31
0.0
  0
LINE
  5
4E3
330
1F
100
AcDbEntity
  8
0
100
AcDbLine
 10
179.5420277514633
 20
-19.27267568388925
 30
0.0
 11
179.5420277514633
 21
-0.2726756838893038
 31
0.0
  0
LINE
  5
4E4
330
1F
100
AcDbEntity
  8
0
100
AcDbLine
 10
180.5420277514635
 20
0.7273243161106962
 30
0.0
 11
192.5420277514633
 21
0.7273243161106962
 31
0.0
  0
LINE
  5
4E5
330
1F
100
AcDbEntity
  8
0
100
AcDbLine
 10
266.5420277514634
 20
0.7273243161106962
 30
0.0
 11
278.5420277514634
 21
0.7273243161106962
 31
0.0
  0
LINE
  5
4E6
330
1F
100
AcDbEntity
  8
0
100
AcDbLine
 10
192.4664573277358
 20
20.72732431611081
 30
0.0
 11
200.5420277514633
 21
20.72732431611092
 31
0.0
  0
LINE
  5
4E7
330
1F
100
AcDbEntity
  8
0
100
AcDbLine
 10
258.5420277514633
 20
20.72732431611081
 30
0.0
 11
266.5420277514634
 21
20.7273243161107
 31
0.0
  0
LINE
  5
4E8
330
1F
100
AcDbEntity
  8
0
100
AcDbLine
 10
192.5420277514633
 20
0.7273243161106962
 30
0.0
 11
192.5420277514633
 21
19.74624054717589
 31
0.0
  0
LINE
  5
4E9
330
1F
100
AcDbEntity
  8
0
100
AcDbLine
 10
278.5420277514632
 20
0.7273243161106962
 30
0.0
 11
266.5420277514634
 21
0.7273243161106962
 31
0.0
  0
LINE
  5
4EA
330
1F
100
AcDbEntity
  8
0
100
AcDbLine
 10
266.5420277514634
 20
0.7273243161106962
 30
0.0
 11
266.5420277514634
 21
19.72732431611069
 31
0.0
  0
LINE
  5
4EB
330
1F
100
AcDbEntity
  8
0
100
AcDbLine
 10
192.5420277514633
 20
20.7273243161107
 30
0.0
 11
200.5420277514633
 21
20.7273243161107
 31
0.0
  0
LINE
  5
4EC
330
1F
100
AcDbEntity
  8
0
100
AcDbLine
 10
200.5420277514633
 20
20.7273243161107
 30
0.0
 11
200.5420277514633
 21
25.72732431611081
 31
0.0
  0
LINE
  5
4ED
330
1F
100
AcDbEntity
  8
0
100
AcDbLine
 10
266.5420277514634
 20
20.7273243161107
 30
0.0
 11
258.5420277514633
 21
20.7273243161107
 31
0.0
  0
LINE
  5
4EE
330
1F
100
AcDbEntity
  8
0
100
AcDbLine
 10
258.5420277514633
 20
20.7273243161107
 30
0.0
 11
258.5420277514633
 21
25.72732431611081
 31
0.0
  0
LINE
  5
4EF
330
1F
100
AcDbEntity
  8
0
100
AcDbLine
 10
192.5420277514633
 20
20.7273243161107
 30
0.0
 11
192.4664573277355
 21
20.7273243161107
 31
0.0
  0
LINE
  5
4F0
330
1F
100
AcDbEntity
  8
0
100
AcDbLine
 10
191.5420277514633
 20
19.74624054717589
 30
0.0
 11
191.5420277514633
 21
0.7273243161106962
 31
0.0
  0
LINE
  5
4F1
330
1F
100
AcDbEntity
  8
0
100
AcDbLine
 10
266.5420277514634
 20
0.7273243161106962
 30
0.0
 11
267.5420277514634
 21
0.7273243161106962
 31
0.0
  0
LINE
  5
4F2
330
1F
100
AcDbEntity
  8
0
100
AcDbLine
 10
267.5420277514634
 20
0.7273243161106962
 30
0.0
 11
267.5420277514634
 21
19.72732431611058
 31
0.0
  0
HATCH
  5
4F3
330
1F
100
AcDbEntity
  8
0
100
AcDbHatch
 10
0.0
 20
0.0
 30
0.0
210
0.0
220
0.0
230
1.0
  2
SOLID
 70
     1
 71
     1
 91
        1
 92
        1
 93
        4
 72
     1
 10
224.0420277514634
 20
26.7273243161107
 11
227.9476617078394
 21
26.7273243161107
 72
     1
 10
227.9476617078394
 20
26.7273243161107
 11
227.9476617078394
 21
28.20804487308641
 72
     1
 10
227.9476617078394
 20
28.20804487308641
 11
224.0420277514634
 21
28.20804487308641
 72
     1
 10
224.0420277514634
 20
28.20804487308641
 11
224.0420277514634
 21
26.7273243161107
 97
        1
330
4F4
 75
     0
 76
     1
 98
        1
 10
413.2052080836182
 20
584.7330747301255
1001
ACAD
1010
0.0
1020
0.0
1030
0.0
  0
LWPOLYLINE
  5
4F4
102
{ACAD_REACTORS
330
4F3
102
}
330
1F
100
AcDbEntity
  8
0
100
AcDbPolyline
 90
        4
 70
     1
 43
0.0
 10
224.0420277514634
 20
26.7273243161107
 10
227.9476617078394
 20
26.7273243161107
 10
227.9476617078394
 20
28.20804487308641
 10
224.0420277514634
 20
28.20804487308641
  0
LINE
  5
4F5
330
1F
100
AcDbEntity
  8
0
100
AcDbLine
 10
229.5420277514633
 20
26.7273243161107
 30
0.0
 11
227.0420277514634
 21
26.7273243161107
 31
0.0
  0
LINE
  5
4F6
330
1F
100
AcDbEntity
  8
0
100
AcDbLine
 10
229.5420277514633
 20
26.7273243161107
 30
0.0
 11
232.0420277514634
 21
26.7273243161107
 31
0.0
  0
HATCH
  5
4F7
330
1F
100
AcDbEntity
  8
0
100
AcDbHatch
 10
0.0
 20
0.0
 30
0.0
210
0.0
220
0.0
230
1.0
  2
SOLID
 70
     1
 71
     1
 91
        1
 92
        1
 93
        4
 72
     1
 10
230.5892107732753
 20
26.7273243161107
 11
234.4948447296514
 21
26.7273243161107
 72
     1
 10
234.4948447296514
 20
26.7273243161107
 11
234.4948447296514
 21
28.20804487308641
 72
     1
 10
234.4948447296514
 20
28.20804487308641
 11
230.5892107732753
 21
28.20804487308641
 72
     1
 10
230.5892107732753
 20
28.20804487308641
 11
230.5892107732753
 21
26.7273243161107
 97
        1
330
4F8
 75
     0
 76
     1
 98
        1
 10
419.7523911054302
 20
584.7330747301255
1001
ACAD
1010
0.0
1020
0.0
1030
0.0
  0
LWPOLYLINE
  5
4F8
102
{ACAD_REACTORS
330
4F7
102
}
330
1F
100
AcDbEntity
  8
0
100
AcDbPolyline
 90
        4
 70
     1
 43
0.0
 10
230.5892107732753
 20
26.7273243161107
 10
234.4948447296514
 20
26.7273243161107
 10
234.4948447296514
 20
28.20804487308641
 10
230.5892107732753
 20
28.20804487308641
  0
LINE
  5
4F9
330
1F
100
AcDbEntity
  8
0
100
AcDbLine
 10
227.9476617078394
 20
26.7273243161107
 30
0.0
 11
224.9476617078395
 21
26.7273243161107
 31
0.0
  0
LINE
  5
4FA
330
1F
100
AcDbEntity
  8
0
100
AcDbLine
 10
229.5420277514633
 20
26.7273243161107
 30
0.0
 11
232.5420277514634
 21
26.7273243161107
 31
0.0
  0
LINE
  5
4FB
330
1F
100
AcDbEntity
  8
0
100
AcDbLine
 10
201.5420277514635
 20
26.7273243161107
 30
0.0
 11
227.9476617078394
 21
26.7273243161107
 31
0.0
  0
LINE
  5
4FC
102
{ACAD_REACTORS
330
537
102
}
330
1F
100
AcDbEntity
  8
0
100
AcDbLine
 10
230.5892107732753
 20
26.7273243161107
 30
0.0
 11
257.5420277514633
 21
26.7273243161107
 31
0.0
  0
ARC
  5
4FD
330
1F
100
AcDbEntity
  8
0
100
AcDbCircle
 10
201.822357837353
 20
25.44699423022104
 30
0.0
 40
1.310660171779521
100
AcDbArc
 50
102.3501001262013
 51
167.6498998737953
  0
ARC
  5
4FE
330
1F
100
AcDbEntity
  8
0
100
AcDbCircle
 10
192.822357837353
 20
19.46591046128623
 30
0.0
 40
1.310660171779521
100
AcDbArc
 50
105.7561011091574
 51
167.6498998737953
  0
ARC
  5
4FF
330
1F
100
AcDbEntity
  8
0
100
AcDbCircle
 10
180.822357837353
 20
-0.553005769778963
 30
0.0
 40
1.310660171779521
100
AcDbArc
 50
102.3501001262013
 51
167.6498998737953
  0
ARC
  5
500
330
1F
100
AcDbEntity
  8
0
100
AcDbCircle
 10
193.822357837353
 20
19.46591046128623
 30
0.0
 40
1.310660171779521
100
AcDbArc
 50
105.7561011091574
 51
167.6498998737953
  0
ARC
  5
501
102
{ACAD_REACTORS
330
537
102
}
330
1F
100
AcDbEntity
  8
0
100
AcDbCircle
 10
257.2673731821693
 20
25.45266974681664
 30
0.0
 40
1.303909277310461
100
AcDbArc
 50
12.15982091124316
 51
77.84017908876053
  0
ARC
  5
502
330
1F
100
AcDbEntity
  8
0
100
AcDbCircle
 10
266.2673731821693
 20
19.45266974681664
 30
0.0
 40
1.303909277310461
100
AcDbArc
 50
12.15982091124316
 51
77.84017908876053
  0
ARC
  5
503
330
1F
100
AcDbEntity
  8
0
100
AcDbCircle
 10
278.2673731821693
 20
-0.5473302531833611
 30
0.0
 40
1.303909277310461
100
AcDbArc
 50
12.15982091124316
 51
77.84017908876053
  0
ARC
  5
504
330
1F
100
AcDbEntity
  8
0
100
AcDbCircle
 10
265.2673731821693
 20
19.45266974681664
 30
0.0
 40
1.303909277310461
100
AcDbArc
 50
12.15982091124316
 51
77.84017908876053
  0
LINE
  5
505
330
1F
100
AcDbEntity
  8
0
100
AcDbLine
 10
179.5420277514633
 20
-18.55923897691446
 30
0.0
 11
279.5420277514633
 21
-18.55923897691446
 31
0.0
  0
LINE
  5
506
330
1F
100
AcDbEntity
  8
0
 62
     4
100
AcDbLine
 10
279.5420277514633
 20
-18.55923897691446
 30
0.0
 11
291.5420277514634
 21
-18.55923897691446
 31
0.0
  0
LINE
  5
507
330
1F
100
AcDbEntity
  8
0
 62
     4
100
AcDbLine
 10
291.5420277514634
 20
-18.55923897691446
 30
0.0
 11
291.5420277514634
 21
-2.5592389769144
 31
0.0
  0
LINE
  5
508
330
1F
100
AcDbEntity
  8
0
 62
     4
100
AcDbLine
 10
291.5420277514634
 20
-2.5592389769144
 30
0.0
 11
285.0420277514634
 21
-2.5592389769144
 31
0.0
  0
LINE
  5
509
330
1F
100
AcDbEntity
  8
0
 62
     4
100
AcDbLine
 10
283.5420277514633
 20
-8.048403841231674
 30
0.0
 11
283.5420277514633
 21
-18.55923897691446
 31
0.0
  0
LINE
  5
50A
330
1F
100
AcDbEntity
  8
0
 62
     4
100
AcDbLine
 10
283.5420277514633
 20
-10.55923897691446
 30
0.0
 11
279.5420277514633
 21
-10.55923897691446
 31
0.0
  0
LINE
  5
50B
330
1F
100
AcDbEntity
  8
0
 62
     4
100
AcDbLine
 10
285.0420277514634
 20
-2.5592389769144
 30
0.0
 11
283.5420277514633
 21
-8.048403841231674
 31
0.0
  0
LINE
  5
50C
330
1F
100
AcDbEntity
  8
0
 62
     4
100
AcDbLine
 10
283.5420277514633
 20
-9.653547348960273
 30
0.0
 11
281.2177506555065
 21
-10.10639316293736
 31
0.0
  0
LINE
  5
50D
330
1F
100
AcDbEntity
  8
0
 62
     4
100
AcDbLine
 10
281.2177506555065
 20
-10.10639316293736
 30
0.0
 11
281.2177506555065
 21
-10.55923897691446
 31
0.0
  0
LINE
  5
50E
330
1F
100
AcDbEntity
  8
0
 62
     4
100
AcDbLine
 10
291.5420277514634
 20
-2.5592389769144
 30
0.0
 11
290.7420277514634
 21
-2.5592389769144
 31
0.0
  0
LINE
  5
50F
330
1F
100
AcDbEntity
  8
0
 62
     4
100
AcDbLine
 10
179.5420277514633
 20
-18.55923897691446
 30
0.0
 11
167.5420277514633
 21
-18.55923897691446
 31
0.0
  0
LINE
  5
510
330
1F
100
AcDbEntity
  8
0
 62
     4
100
AcDbLine
 10
167.5420277514633
 20
-18.55923897691446
 30
0.0
 11
167.5420277514633
 21
-2.5592389769144
 31
0.0
  0
LINE
  5
511
330
1F
100
AcDbEntity
  8
0
 62
     4
100
AcDbLine
 10
167.5420277514633
 20
-2.5592389769144
 30
0.0
 11
174.0420277514633
 21
-2.5592389769144
 31
0.0
  0
LINE
  5
512
330
1F
100
AcDbEntity
  8
0
 62
     4
100
AcDbLine
 10
167.5420277514633
 20
-18.55923897691446
 30
0.0
 11
175.5420277514633
 21
-18.55923897691446
 31
0.0
  0
LINE
  5
513
330
1F
100
AcDbEntity
  8
0
 62
     4
100
AcDbLine
 10
175.5420277514633
 20
-18.55923897691446
 30
0.0
 11
175.5420277514633
 21
-8.048403841231674
 31
0.0
  0
LINE
  5
514
330
1F
100
AcDbEntity
  8
0
 62
     4
100
AcDbLine
 10
175.5420277514633
 20
-10.55923897691446
 30
0.0
 11
179.5420277514633
 21
-10.55923897691446
 31
0.0
  0
LINE
  5
515
330
1F
100
AcDbEntity
  8
0
 62
     4
100
AcDbLine
 10
179.5420277514633
 20
-10.55923897691446
 30
0.0
 11
177.8420277514634
 21
-10.55923897691446
 31
0.0
  0
LINE
  5
516
330
1F
100
AcDbEntity
  8
0
 62
     4
100
AcDbLine
 10
177.8420277514634
 20
-10.55923897691446
 30
0.0
 11
177.8420277514634
 21
-10.05923897691445
 31
0.0
  0
LINE
  5
517
330
1F
100
AcDbEntity
  8
0
 62
     4
100
AcDbLine
 10
175.5420277514633
 20
-9.653547348960273
 30
0.0
 11
177.8420277514634
 21
-10.05923897691445
 31
0.0
  0
LINE
  5
518
330
1F
100
AcDbEntity
  8
0
 62
     4
100
AcDbLine
 10
167.5420277514633
 20
-2.5592389769144
 30
0.0
 11
174.0420277514634
 21
-2.5592389769144
 31
0.0
  0
LINE
  5
519
330
1F
100
AcDbEntity
  8
0
 62
     4
100
AcDbLine
 10
174.0420277514634
 20
-2.5592389769144
 30
0.0
 11
175.5420277514633
 21
-8.048403841231674
 31
0.0
  0
LINE
  5
51A
330
1F
100
AcDbEntity
  8
0
 62
     4
100
AcDbLine
 10
167.5420277514633
 20
-18.55923897691446
 30
0.0
 11
168.3420277514634
 21
-18.55923897691446
 31
0.0
  0
LWPOLYLINE
  5
51B
330
1F
100
AcDbEntity
  8
0
100
AcDbPolyline
 90
        4
 70
     1
 43
0.0
 10
179.5420277514633
 20
-28.27267568388925
 10
175.9617797689782
 20
-28.27267568388925
 10
175.9617797689782
 20
-25.57893049671111
 10
179.5420277514633
 20
-25.57893049671111
  0
LINE
  5
51C
102
{ACAD_REACTORS
330
534
102
}
330
1F
100
AcDbEntity
  8
0
 62
     4
100
AcDbLine
 10
167.5420277514633
 20
-18.55923897691446
 30
0.0
 11
168.0419195064607
 21
-18.56964249966881
 31
0.0
  0
LINE
  5
51D
330
1F
100
AcDbEntity
  8
0
 62
     4
100
AcDbLine
 10
168.0419195064607
 20
-18.56964249966881
 30
0.0
 11
168.0419195064607
 21
-2.5592389769144
 31
0.0
  0
LINE
  5
51E
102
{ACAD_REACTORS
330
534
102
}
330
1F
100
AcDbEntity
  8
0
 62
     4
100
AcDbLine
 10
291.5420277514634
 20
-18.55923897691446
 30
0.0
 11
291.0420277514634
 21
-18.55923897691446
 31
0.0
  0
LINE
  5
51F
330
1F
100
AcDbEntity
  8
0
 62
     4
100
AcDbLine
 10
291.0420277514634
 20
-18.55923897691446
 30
0.0
 11
291.0420277514634
 21
-2.5592389769144
 31
0.0
  0
DIMENSION
  5
520
102
{ACAD_XDICTIONARY
360
521
102
}
102
{ACAD_REACTORS
330
522
102
}
330
1F
100
AcDbEntity
  8
0
370
    40
100
AcDbDimension
  2
*D12
 10
167.5420277514634
 20
84.89855808450871
 30
0.0
 11
156.7917777514634
 21
135.1485580837775
 31
0.0
 70
    32
  1
{\H0.7667x;\C256;101}
 71
     5
 42
100.4999999985375
  3
TRIEU
100
AcDbAlignedDimension
 13
142.1534488565424
 23
185.3985580830462
 33
0.0
 14
142.1534488565424
 24
84.89855808450872
 34
0.0
 50
90.0
100
AcDbRotatedDimension
  0
DIMENSION
  5
523
102
{ACAD_XDICTIONARY
360
524
102
}
102
{ACAD_REACTORS
330
525
102
}
330
1F
100
AcDbEntity
  8
0
370
    40
100
AcDbDimension
  2
*D13
 10
195.5126712622597
 20
72.44098927736634
 30
0.0
 11
184.7624212622598
 21
135.1485580837921
 31
0.0
 70
    32
  1
{\H0.7667x;\C256;125}
 71
     5
 42
125.4151376128514
  3
TRIEU
100
AcDbAlignedDimension
 13
133.4034488566697
 23
197.8561268902178
 33
0.0
 14
133.4034488566697
 24
72.44098927736636
 34
0.0
 50
90.0
100
AcDbRotatedDimension
  0
DIMENSION
  5
526
102
{ACAD_XDICTIONARY
360
527
102
}
102
{ACAD_REACTORS
330
528
102
}
330
1F
100
AcDbEntity
  8
0
370
    40
100
AcDbDimension
  2
*D14
 10
133.4034488566697
 20
208.2677272384386
 30
0.0
 11
82.40344885741192
 21
219.0179772384385
 31
0.0
 70
    32
  1
{\H0.7667x;\C256;102}
 71
     5
 42
101.9999999985157
  3
TRIEU
100
AcDbAlignedDimension
 13
31.40344885815406
 23
197.8561268902178
 33
0.0
 14
133.4034488566697
 24
197.7976406516892
 34
0.0
100
AcDbRotatedDimension
  0
DIMENSION
  5
529
102
{ACAD_XDICTIONARY
360
52A
102
}
102
{ACAD_REACTORS
330
52B
102
}
330
1F
100
AcDbEntity
  8
0
370
    40
100
AcDbDimension
  2
*D15
 10
142.1534488565424
 20
229.2264716660252
 30
0.0
 11
82.90344885740461
 21
239.9767216660252
 31
0.0
 70
    32
  1
{\H0.7667x;\C256;119}
 71
     5
 42
118.4999999982756
  3
TRIEU
100
AcDbAlignedDimension
 13
23.65344885826681
 23
185.3985580830463
 33
0.0
 14
142.1534488565424
 24
185.3985580830463
 34
0.0
100
AcDbRotatedDimension
  0
DIMENSION
  5
52C
102
{ACAD_XDICTIONARY
360
52D
102
}
102
{ACAD_REACTORS
330
52E
102
}
330
1F
100
AcDbEntity
  8
0
370
    40
100
AcDbDimension
  2
*D16
 10
142.1534488565426
 20
37.63152262802853
 30
0.0
 11
82.90344885740479
 21
48.38177262802853
 31
0.0
 70
    32
  1
{\H0.7667x;\C256;119}
 71
     5
 42
118.4999999982756
  3
TRIEU
100
AcDbAlignedDimension
 13
23.65344885826694
 23
25.72732431611078
 33
0.0
 14
142.1534488565426
 24
25.72732431611078
 34
0.0
100
AcDbRotatedDimension
  0
DIMENSION
  5
52F
102
{ACAD_XDICTIONARY
360
530
102
}
102
{ACAD_REACTORS
330
531
102
}
330
1F
100
AcDbEntity
  8
0
370
    40
100
AcDbDimension
  2
*D17
 10
10.46886418287011
 20
26.7273243161107
 30
0.0
 11
-0.2813858171299
 21
-0.7726756838892712
 31
0.0
 70
    32
  1
{\H0.7667x;\C256;55}
 71
     5
 42
54.99999999999994
  3
TRIEU
100
AcDbAlignedDimension
 13
23.65344885826693
 23
-28.27267568388925
 33
0.0
 14
24.65344885826693
 24
26.7273243161107
 34
0.0
 50
90.0
100
AcDbRotatedDimension
  0
DIMENSION
  5
532
102
{ACAD_XDICTIONARY
360
533
102
}
102
{ACAD_REACTORS
330
534
102
}
330
1F
100
AcDbEntity
  8
0
370
    40
100
AcDbDimension
  2
*D18
 10
291.5420277514634
 20
37.63152262802845
 30
0.0
 11
229.5420277514633
 21
48.38177262802845
 31
0.0
 70
    32
  1
{\H0.7667x;\C256;124}
 71
     5
 42
124.0
  3
TRIEU
100
AcDbAlignedDimension
 13
167.5420277514633
 23
-18.55923897691446
 33
0.0
 14
291.5420277514634
 24
-18.55923897691446
 34
0.0
100
AcDbRotatedDimension
  0
DIMENSION
  5
535
102
{ACAD_XDICTIONARY
360
536
102
}
102
{ACAD_REACTORS
330
537
102
}
330
1F
100
AcDbEntity
  8
0
370
    40
100
AcDbDimension
  2
*D19
 10
317.8252395007281
 20
-28.27267568388928
 30
0.0
 11
307.0749895007281
 21
-0.7726756838892794
 31
0.0
 70
    32
  1
{\H0.7667x;\C256;55}
 71
     5
 42
54.99999999999989
  3
TRIEU
100
AcDbAlignedDimension
 13
257.5420277514635
 23
26.72732431611064
 33
0.0
 14
257.5420277514635
 24
-28.27267568388925
 34
0.0
 50
90.0
100
AcDbRotatedDimension
  0
ENDSEC
  0
SECTION
  2
OBJECTS
  0
DICTIONARY
  5
C
330
0
100
AcDbDictionary
281
     1
  3
ACAD_COLOR
350
73
  3
ACAD_GROUP
350
D
  3
ACAD_LAYOUT
350
1A
  3
ACAD_MATERIAL
350
72
  3
ACAD_MLINESTYLE
350
17
  3
ACAD_PLOTSETTINGS
350
19
  3
ACAD_PLOTSTYLENAME
350
E
  3
ACAD_TABLESTYLE
350
86
  3
ACAD_VISUALSTYLE
350
99
  3
AcDbVariableDictionary
350
66
  3
DWGPROPS
350
5D0
  0
DICTIONARY
  5
306
330
2
100
AcDbDictionary
280
     1
281
     1
  3
ACAD_LAYERSTATES
360
307
  0
DICTIONARY
  5
2FA
330
2F9
100
AcDbDictionary
280
     1
281
     1
  0
DICTIONARY
  5
2FC
330
2FB
100
AcDbDictionary
280
     1
281
     1
  0
DICTIONARY
  5
BE
330
BD
100
AcDbDictionary
280
     1
281
     1
  3
ACAD_SORTENTS
360
BF
  0
DICTIONARY
  5
521
330
520
100
AcDbDictionary
280
     1
281
     1
  3
ACAD_DIMASSOC
360
522
  0
DICTIONARY
  5
524
330
523
100
AcDbDictionary
280
     1
281
     1
  3
ACAD_DIMASSOC
360
525
  0
DICTIONARY
  5
527
330
526
100
AcDbDictionary
280
     1
281
     1
  3
ACAD_DIMASSOC
360
528
  0
DICTIONARY
  5
52A
330
529
100
AcDbDictionary
280
     1
281
     1
  3
ACAD_DIMASSOC
360
52B
  0
DICTIONARY
  5
52D
330
52C
100
AcDbDictionary
280
     1
281
     1
  3
ACAD_DIMASSOC
360
52E
  0
DICTIONARY
  5
530
330
52F
100
AcDbDictionary
280
     1
281
     1
  3
ACAD_DIMASSOC
360
531
  0
DICTIONARY
  5
533
330
532
100
AcDbDictionary
280
     1
281
     1
  3
ACAD_DIMASSOC
360
534
  0
DICTIONARY
  5
536
330
535
100
AcDbDictionary
280
     1
281
     1
  3
ACAD_DIMASSOC
360
537
  0
DICTIONARY
  5
73
102
{ACAD_REACTORS
330
C
102
}
330
C
100
AcDbDictionary
281
     1
  0
DICTIONARY
  5
D
102
{ACAD_REACTORS
330
C
102
}
330
C
100
AcDbDictionary
281
     1
  0
DICTIONARY
  5
1A
102
{ACAD_REACTORS
330
C
102
}
330
C
100
AcDbDictionary
281
     1
  3
Layout1
350
59
  3
Layout2
350
5E
  3
Model
350
22
  0
DICTIONARY
  5
72
102
{ACAD_REACTORS
330
C
102
}
330
C
100
AcDbDictionary
281
     1
  3
ByBlock
350
97
  3
ByLayer
350
96
  3
Global
350
98
  0
DICTIONARY
  5
17
102
{ACAD_REACTORS
330
C
102
}
330
C
100
AcDbDictionary
281
     1
  3
Standard
350
18
  0
DICTIONARY
  5
19
102
{ACAD_REACTORS
330
C
102
}
330
C
100
AcDbDictionary
281
     1
  0
ACDBDICTIONARYWDFLT
  5
E
102
{ACAD_REACTORS
330
C
102
}
330
C
100
AcDbDictionary
281
     1
  3
Normal
350
F
100
AcDbDictionaryWithDefault
340
F
  0
DICTIONARY
  5
86
102
{ACAD_REACTORS
330
C
102
}
330
C
100
AcDbDictionary
281
     1
  3
Standard
350
87
  0
DICTIONARY
  5
99
102
{ACAD_REACTORS
330
C
102
}
330
C
100
AcDbDictionary
281
     1
  3
2dWireframe
350
9F
  3
3D Hidden
350
A1
  3
3dWireframe
350
A0
  3
Basic
350
9E
  3
Brighten
350
A5
  3
ColorChange
350
A9
  3
Conceptual
350
A2
  3
Dim
350
A4
  3
Facepattern
350
A8
  3
Flat
350
9A
  3
FlatWithEdges
350
9B
  3
Gouraud
350
9C
  3
GouraudWithEdges
350
9D
  3
Linepattern
350
A7
  3
Realistic
350
A3
  3
Thicken
350
A6
  0
DICTIONARY
  5
66
102
{ACAD_REACTORS
330
C
102
}
330
C
100
AcDbDictionary
281
     1
  3
CTABLESTYLE
350
89
  3
DIMASSOC
350
67
  3
HIDETEXT
350
6B
  3
INDEXCTL
350
5CF
  3
SORTENTS
350
5CE
  0
XRECORD
  5
5D0
102
{ACAD_REACTORS
330
C
102
}
330
C
100
AcDbXrecord
280
     1
  1
DWGPROPS COOKIE
  2

  3

  4

  6

  7

  8
Administrator
  9

300
=
301
=
302
=
303
=
304
=
305
=
306
=
307
=
308
=
309
=
 40
0.0005946527777778
 41
2458472.39128463
 42
2458472.391876863
  1

 90
        0
  0
DICTIONARY
  5
307
102
{ACAD_REACTORS
330
306
102
}
330
306
100
AcDbDictionary
281
     1
  0
SORTENTSTABLE
  5
BF
102
{ACAD_REACTORS
330
BE
102
}
330
BE
100
AcDbSortentsTable
330
BD
  0
DIMASSOC
  5
522
102
{ACAD_REACTORS
330
521
102
}
330
521
100
AcDbDimAssoc
330
520
 90
        3
 70
     0
 71
     0
  1
AcDbOsnapPointRef
 72
    13
331
424
331
C3
 73
     2
 91
        1
 40
0.0
 10
0.0
 20
0.0
 30
2.000000000000000E+50
 75
     0
  1
AcDbOsnapPointRef
 72
     1
331
424
331
C3
 73
     2
 91
        1
 40
1.0
 10
0.0
 20
0.0
 30
2.000000000000000E+50
 75
     0
  0
DIMASSOC
  5
525
102
{ACAD_REACTORS
330
524
102
}
330
524
100
AcDbDimAssoc
330
523
 90
        3
 70
     0
 71
     0
  1
AcDbOsnapPointRef
 72
     1
331
424
331
DF
 73
     2
 91
        2
 40
1.0
 10
0.0
 20
0.0
 30
2.000000000000000E+50
 75
     0
  1
AcDbOsnapPointRef
 72
     1
331
424
331
11C
 73
     2
 91
        2
 40
1.0
 10
0.0
 20
0.0
 30
2.000000000000000E+50
 75
     0
  0
DIMASSOC
  5
528
102
{ACAD_REACTORS
330
527
102
}
330
527
100
AcDbDimAssoc
330
526
 90
        3
 70
     0
 71
     0
  1
AcDbOsnapPointRef
 72
     1
331
424
331
DF
 73
     2
 91
        1
 40
1.0
 10
0.0
 20
0.0
 30
2.000000000000000E+50
 75
     0
  1
AcDbOsnapPointRef
 72
     1
331
424
331
C4
 73
     2
 91
        2
 40
1.0
 10
0.0
 20
0.0
 30
2.000000000000000E+50
 75
     0
  0
DIMASSOC
  5
52B
102
{ACAD_REACTORS
330
52A
102
}
330
52A
100
AcDbDimAssoc
330
529
 90
        1
 70
     0
 71
     0
  1
AcDbOsnapPointRef
 72
     1
331
424
331
C2
 73
     2
 91
        1
 40
1.0
 10
0.0
 20
0.0
 30
2.000000000000000E+50
 75
     0
  0
DIMASSOC
  5
52E
102
{ACAD_REACTORS
330
52D
102
}
330
52D
100
AcDbDimAssoc
330
52C
 90
        3
 70
     0
 71
     0
  1
AcDbOsnapPointRef
 72
     1
331
4C8
 73
     2
 91
        0
 40
2.926042743436616
 10
0.0
 20
0.0
 30
2.000000000000000E+50
 75
     0
  1
AcDbOsnapPointRef
 72
    13
331
4CC
 73
     2
 91
        0
 40
0.2122289113540576
 10
0.0
 20
0.0
 30
2.000000000000000E+50
 75
     0
  0
DIMASSOC
  5
531
102
{ACAD_REACTORS
330
530
102
}
330
530
100
AcDbDimAssoc
330
52F
 90
        3
 70
     0
 71
     0
  1
AcDbOsnapPointRef
 72
    13
331
430
 73
     2
 91
        0
 40
0.0
 10
0.0
 20
0.0
 30
2.000000000000000E+50
 75
     0
  1
AcDbOsnapPointRef
 72
    13
331
4C8
 73
     2
 91
        0
 40
1.786346236948073
 10
0.0
 20
0.0
 30
2.000000000000000E+50
 75
     0
  0
DIMASSOC
  5
534
102
{ACAD_REACTORS
330
533
102
}
330
533
100
AcDbDimAssoc
330
532
 90
        3
 70
     0
 71
     0
  1
AcDbOsnapPointRef
 72
    13
331
51C
 73
     2
 91
        0
 40
0.0
 10
0.0
 20
0.0
 30
2.000000000000000E+50
 75
     0
  1
AcDbOsnapPointRef
 72
    13
331
51E
 73
     2
 91
        0
 40
0.0
 10
0.0
 20
0.0
 30
2.000000000000000E+50
 75
     0
  0
DIMASSOC
  5
537
102
{ACAD_REACTORS
330
536
102
}
330
536
100
AcDbDimAssoc
330
535
 90
        1
 70
     0
 71
     0
  1
AcDbOsnapPointRef
 72
     6
331
4FC
 73
     2
 91
        0
 40
1.0
 10
0.0
 20
0.0
 30
0.0
332
501
 74
     2
 92
        0
 75
     0
  0
LAYOUT
  5
59
102
{ACAD_XDICTIONARY
360
5D3
102
}
102
{ACAD_REACTORS
330
1A
102
}
330
1A
100
AcDbPlotSettings
  1

  2
None
  4

  6

 40
0.0
 41
0.0
 42
0.0
 43
0.0
 44
0.0
 45
0.0
 46
0.0
 47
0.0
 48
0.0
 49
0.0
140
0.0
141
0.0
142
1.0
143
1.0
 70
   688
 72
     0
 73
     0
 74
     5
  7

 75
    16
147
1.0
148
0.0
149
0.0
100
AcDbLayout
  1
Layout1
 70
     1
 71
     1
 10
0.0
 20
0.0
 11
12.0
 21
9.0
 12
0.0
 22
0.0
 32
0.0
 14
0.0
 24
0.0
 34
0.0
 15
0.0
 25
0.0
 35
0.0
146
0.0
 13
0.0
 23
0.0
 33
0.0
 16
1.0
 26
0.0
 36
0.0
 17
0.0
 27
1.0
 37
0.0
 76
     0
330
58
  0
LAYOUT
  5
5E
102
{ACAD_XDICTIONARY
360
5D5
102
}
102
{ACAD_REACTORS
330
1A
102
}
330
1A
100
AcDbPlotSettings
  1

  2
None
  4

  6

 40
0.0
 41
0.0
 42
0.0
 43
0.0
 44
0.0
 45
0.0
 46
0.0
 47
0.0
 48
0.0
 49
0.0
140
0.0
141
0.0
142
1.0
143
1.0
 70
   688
 72
     0
 73
     0
 74
     5
  7

 75
    16
147
1.0
148
0.0
149
0.0
100
AcDbLayout
  1
Layout2
 70
     1
 71
     2
 10
0.0
 20
0.0
 11
12.0
 21
9.0
 12
0.0
 22
0.0
 32
0.0
 14
0.0
 24
0.0
 34
0.0
 15
0.0
 25
0.0
 35
0.0
146
0.0
 13
0.0
 23
0.0
 33
0.0
 16
1.0
 26
0.0
 36
0.0
 17
0.0
 27
1.0
 37
0.0
 76
     0
330
5D
  0
LAYOUT
  5
22
102
{ACAD_XDICTIONARY
360
5D1
102
}
102
{ACAD_REACTORS
330
1A
102
}
330
1A
100
AcDbPlotSettings
  1

  2
none_device
  4
ANSI_A_(8.50_x_11.00_Inches)
  6

 40
6.349999904632568
 41
19.04999923706055
 42
6.350006103515625
 43
19.04998779296875
 44
215.8999938964844
 45
279.3999938964844
 46
0.0
 47
0.0
 48
0.0
 49
0.0
140
0.0
141
0.0
142
1.0
143
2.584895464708373
 70
 11952
 72
     0
 73
     1
 74
     0
  7

 75
     0
147
0.3868628397755418
148
0.0
149
0.0
100
AcDbLayout
  1
Model
 70
     1
 71
     0
 10
0.0
 20
0.0
 11
12.0
 21
9.0
 12
0.0
 22
0.0
 32
0.0
 14
0.0
 24
0.0
 34
0.0
 15
0.0
 25
0.0
 35
0.0
146
0.0
 13
0.0
 23
0.0
 33
0.0
 16
1.0
 26
0.0
 36
0.0
 17
0.0
 27
1.0
 37
0.0
 76
     0
330
1F
331
94
  0
MATERIAL
  5
97
102
{ACAD_XDICTIONARY
360
5DB
102
}
102
{ACAD_REACTORS
330
72
102
}
330
72
100
AcDbMaterial
  1
ByBlock
  0
MATERIAL
  5
96
102
{ACAD_XDICTIONARY
360
5D9
102
}
102
{ACAD_REACTORS
330
72
102
}
330
72
100
AcDbMaterial
  1
ByLayer
  0
MATERIAL
  5
98
102
{ACAD_XDICTIONARY
360
5DD
102
}
102
{ACAD_REACTORS
330
72
102
}
330
72
100
AcDbMaterial
  1
Global
  0
MLINESTYLE
  5
18
102
{ACAD_REACTORS
330
17
102
}
330
17
100
AcDbMlineStyle
  2
STANDARD
 70
     0
  3

 62
   256
 51
90.0
 52
90.0
 71
     2
 49
0.5
 62
   256
  6
BYLAYER
 49
-0.5
 62
   256
  6
BYLAYER
  0
ACDBPLACEHOLDER
  5
F
102
{ACAD_REACTORS
330
E
102
}
330
E
  0
TABLESTYLE
  5
87
102
{ACAD_XDICTIONARY
360
5D7
102
}
102
{ACAD_REACTORS
330
86
102
}
330
86
100
AcDbTableStyle
  3
Standard
 70
     0
 71
     0
 40
0.06
 41
0.06
280
     0
281
     0
  7
Standard
140
0.18
170
     2
 62
     0
 63
     7
283
     0
274
    -2
284
     1
 64
     0
275
    -2
285
     1
 65
     0
276
    -2
286
     1
 66
     0
277
    -2
287
     1
 67
     0
278
    -2
288
     1
 68
     0
279
    -2
289
     1
 69
     0
  7
Standard
140
0.25
170
     5
 62
     0
 63
     7
283
     0
274
    -2
284
     1
 64
     0
275
    -2
285
     1
 65
     0
276
    -2
286
     1
 66
     0
277
    -2
287
     1
 67
     0
278
    -2
288
     1
 68
     0
279
    -2
289
     1
 69
     0
  7
Standard
140
0.18
170
     5
 62
     0
 63
     7
283
     0
274
    -2
284
     1
 64
     0
275
    -2
285
     1
 65
     0
276
    -2
286
     1
 66
     0
277
    -2
287
     1
 67
     0
278
    -2
288
     1
 68
     0
279
    -2
289
     1
 69
     0
  0
VISUALSTYLE
  5
9F
102
{ACAD_REACTORS
330
99
102
}
330
99
100
AcDbVisualStyle
  2
2dWireframe
 70
     4
 71
     0
 72
     2
 73
     1
 90
        0
 40
-0.6
 41
-30.0
 62
     5
 63
     7
 74
     1
 91
        4
 64
     7
 65
   257
 75
     1
175
     1
 42
1.0
 92
        0
 66
   257
 43
1.0
 76
     1
 77
     6
 78
     2
 67
     7
 79
     5
170
     0
171
     0
290
     0
174
     0
 93
        1
 44
0.0
173
     0
291
     0
 45
0.0
1001
ACAD
1000
AcDbSavedByObjectVersion
1070
     0
  0
VISUALSTYLE
  5
A1
102
{ACAD_REACTORS
330
99
102
}
330
99
100
AcDbVisualStyle
  2
3D Hidden
 70
     6
 71
     1
 72
     2
 73
     2
 90
        0
 40
-0.6
 41
-30.0
 62
     5
 63
     7
 74
     2
 91
        2
 64
     7
 65
   257
 75
     2
175
     1
 42
40.0
 92
        0
 66
   257
 43
1.0
 76
     1
 77
     6
 78
     2
 67
     7
 79
     3
170
     0
171
     0
290
     0
174
     0
 93
        1
 44
0.0
173
     0
291
     0
 45
0.0
1001
ACAD
1000
AcDbSavedByObjectVersion
1070
     0
  0
VISUALSTYLE
  5
A0
102
{ACAD_REACTORS
330
99
102
}
330
99
100
AcDbVisualStyle
  2
3dWireframe
 70
     5
 71
     0
 72
     2
 73
     1
 90
        0
 40
-0.6
 41
-30.0
 62
     5
 63
     7
 74
     1
 91
        4
 64
     7
 65
   257
 75
     1
175
     1
 42
1.0
 92
        0
 66
   257
 43
1.0
 76
     1
 77
     6
 78
     2
 67
     7
 79
     5
170
     0
171
     0
290
     0
174
     0
 93
        1
 44
0.0
173
     0
291
     0
 45
0.0
1001
ACAD
1000
AcDbSavedByObjectVersion
1070
     0
  0
VISUALSTYLE
  5
9E
102
{ACAD_REACTORS
330
99
102
}
330
99
100
AcDbVisualStyle
  2
Basic
 70
     7
 71
     1
 72
     0
 73
     1
 90
        0
 40
-0.6
 41
-30.0
 62
     5
 63
     7
 74
     0
 91
        4
 64
     7
 65
   257
 75
     1
175
     1
 42
1.0
 92
        8
 66
     7
 43
1.0
 76
     1
 77
     6
 78
     2
 67
     7
 79
     5
170
     0
171
     0
290
     0
174
     0
 93
        1
 44
0.0
173
     0
291
     1
 45
0.0
1001
ACAD
1000
AcDbSavedByObjectVersion
1070
     0
  0
VISUALSTYLE
  5
A5
102
{ACAD_REACTORS
330
99
102
}
330
99
100
AcDbVisualStyle
  2
Brighten
 70
    12
 71
     2
 72
     2
 73
     1
 90
        0
 40
-0.6
 41
-30.0
 62
     5
 63
     7
 74
     1
 91
        4
 64
     7
 65
   257
 75
     1
175
     1
 42
1.0
 92
        8
 66
     7
 43
1.0
 76
     1
 77
     6
 78
     2
 67
     7
 79
     5
170
     0
171
     0
290
     0
174
     0
 93
        1
 44
50.0
173
     0
291
     1
 45
0.0
1001
ACAD
1000
AcDbSavedByObjectVersion
1070
     0
  0
VISUALSTYLE
  5
A9
102
{ACAD_REACTORS
330
99
102
}
330
99
100
AcDbVisualStyle
  2
ColorChange
 70
    16
 71
     2
 72
     2
 73
     3
 90
        0
 40
-0.6
 41
-30.0
 62
     5
 63
     8
 74
     1
 91
        4
 64
     7
 65
   257
 75
     1
175
     1
 42
1.0
 92
        8
 66
     8
 43
1.0
 76
     1
 77
     6
 78
     2
 67
     7
 79
     5
170
     0
171
     0
290
     0
174
     0
 93
        1
 44
0.0
173
     0
291
     1
 45
0.0
1001
ACAD
1000
AcDbSavedByObjectVersion
1070
     0
  0
VISUALSTYLE
  5
A2
102
{ACAD_REACTORS
330
99
102
}
330
99
100
AcDbVisualStyle
  2
Conceptual
 70
     9
 71
     3
 72
     2
 73
     1
 90
        0
 40
-0.6
 41
-30.0
 62
     5
 63
     7
 74
     2
 91
        2
 64
     7
 65
   257
 75
     1
175
     1
 42
40.0
 92
        8
 66
     7
 43
1.0
 76
     1
 77
     6
 78
     2
 67
     7
 79
     3
170
     0
171
     0
290
     0
174
     0
 93
        1
 44
0.0
173
     0
291
     0
 45
0.0
1001
ACAD
1000
AcDbSavedByObjectVersion
1070
     0
  0
VISUALSTYLE
  5
A4
102
{ACAD_REACTORS
330
99
102
}
330
99
100
AcDbVisualStyle
  2
Dim
 70
    11
 71
     2
 72
     2
 73
     1
 90
        0
 40
-0.6
 41
-30.0
 62
     5
 63
     7
 74
     1
 91
        4
 64
     7
 65
   257
 75
     1
175
     1
 42
1.0
 92
        8
 66
     7
 43
1.0
 76
     1
 77
     6
 78
     2
 67
     7
 79
     5
170
     0
171
     0
290
     0
174
     0
 93
        1
 44
-50.0
173
     0
291
     1
 45
0.0
1001
ACAD
1000
AcDbSavedByObjectVersion
1070
     0
  0
VISUALSTYLE
  5
A8
102
{ACAD_REACTORS
330
99
102
}
330
99
100
AcDbVisualStyle
  2
Facepattern
 70
    15
 71
     2
 72
     2
 73
     1
 90
        0
 40
-0.6
 41
-30.0
 62
     5
 63
     7
 74
     1
 91
        4
 64
     7
 65
   257
 75
     1
175
     1
 42
1.0
 92
        8
 66
     7
 43
1.0
 76
     1
 77
     6
 78
     2
 67
     7
 79
     5
170
     0
171
     0
290
     0
174
     0
 93
        1
 44
0.0
173
     0
291
     1
 45
0.0
1001
ACAD
1000
AcDbSavedByObjectVersion
1070
     0
  0
VISUALSTYLE
  5
9A
102
{ACAD_REACTORS
330
99
102
}
330
99
100
AcDbVisualStyle
  2
Flat
 70
     0
 71
     2
 72
     1
 73
     1
 90
        2
 40
-0.6
 41
30.0
 62
     5
 63
     7
 74
     0
 91
        4
 64
     7
 65
   257
 75
     1
175
     1
 42
1.0
 92
        8
 66
     7
 43
1.0
 76
     1
 77
     6
 78
     2
 67
     7
 79
     5
170
     0
171
     0
290
     0
174
     0
 93
        1
 44
0.0
173
     0
291
     1
 45
0.0
1001
ACAD
1000
AcDbSavedByObjectVersion
1070
     0
  0
VISUALSTYLE
  5
9B
102
{ACAD_REACTORS
330
99
102
}
330
99
100
AcDbVisualStyle
  2
FlatWithEdges
 70
     1
 71
     2
 72
     1
 73
     1
 90
        2
 40
-0.6
 41
30.0
 62
     5
 63
     7
 74
     1
 91
        4
 64
     7
 65
   257
 75
     1
175
     1
 42
1.0
 92
        0
 66
   257
 43
1.0
 76
     1
 77
     6
 78
     2
 67
     7
 79
     5
170
     0
171
     0
290
     0
174
     0
 93
        1
 44
0.0
173
     0
291
     1
 45
0.0
1001
ACAD
1000
AcDbSavedByObjectVersion
1070
     0
  0
VISUALSTYLE
  5
9C
102
{ACAD_REACTORS
330
99
102
}
330
99
100
AcDbVisualStyle
  2
Gouraud
 70
     2
 71
     2
 72
     2
 73
     1
 90
        2
 40
-0.6
 41
30.0
 62
     5
 63
     7
 74
     0
 91
        4
 64
     7
 65
   257
 75
     1
175
     1
 42
1.0
 92
        0
 66
     7
 43
1.0
 76
     1
 77
     6
 78
     2
 67
     7
 79
     5
170
     0
171
     0
290
     0
174
     0
 93
        1
 44
0.0
173
     0
291
     1
 45
0.0
1001
ACAD
1000
AcDbSavedByObjectVersion
1070
     0
  0
VISUALSTYLE
  5
9D
102
{ACAD_REACTORS
330
99
102
}
330
99
100
AcDbVisualStyle
  2
GouraudWithEdges
 70
     3
 71
     2
 72
     2
 73
     1
 90
        2
 40
-0.6
 41
30.0
 62
     5
 63
     7
 74
     1
 91
        4
 64
     7
 65
   257
 75
     1
175
     1
 42
1.0
 92
        0
 66
   257
 43
1.0
 76
     1
 77
     6
 78
     2
 67
     7
 79
     5
170
     0
171
     0
290
     0
174
     0
 93
        1
 44
0.0
173
     0
291
     1
 45
0.0
1001
ACAD
1000
AcDbSavedByObjectVersion
1070
     0
  0
VISUALSTYLE
  5
A7
102
{ACAD_REACTORS
330
99
102
}
330
99
100
AcDbVisualStyle
  2
Linepattern
 70
    14
 71
     2
 72
     2
 73
     1
 90
        0
 40
-0.6
 41
-30.0
 62
     5
 63
     7
 74
     1
 91
        4
 64
     7
 65
   257
 75
     7
175
     7
 42
1.0
 92
        8
 66
     7
 43
1.0
 76
     1
 77
     6
 78
     2
 67
     7
 79
     5
170
     0
171
     0
290
     0
174
     0
 93
        1
 44
0.0
173
     0
291
     1
 45
0.0
1001
ACAD
1000
AcDbSavedByObjectVersion
1070
     0
  0
VISUALSTYLE
  5
A3
102
{ACAD_REACTORS
330
99
102
}
330
99
100
AcDbVisualStyle
  2
Realistic
 70
     8
 71
     2
 72
     2
 73
     1
 90
        0
 40
-0.6
 41
-30.0
 62
     5
 63
     7
 74
     1
 91
        0
 64
     7
 65
   257
 75
     1
175
     1
 42
1.0
 92
        8
 66
     8
 43
1.0
 76
     1
 77
     6
 78
     2
 67
     7
 79
     5
170
     0
171
     0
290
     0
174
     0
 93
       13
 44
0.0
173
     0
291
     0
 45
0.0
1001
ACAD
1000
AcDbSavedByObjectVersion
1070
     0
  0
VISUALSTYLE
  5
A6
102
{ACAD_REACTORS
330
99
102
}
330
99
100
AcDbVisualStyle
  2
Thicken
 70
    13
 71
     2
 72
     2
 73
     1
 90
        0
 40
-0.6
 41
-30.0
 62
     5
 63
     7
 74
     1
 91
        4
 64
     7
 65
   257
 75
     1
175
     1
 42
1.0
 92
       12
 66
     7
 43
1.0
 76
     1
 77
     6
 78
     2
 67
     7
 79
     5
170
     0
171
     0
290
     0
174
     0
 93
        1
 44
0.0
173
     0
291
     1
 45
0.0
1001
ACAD
1000
AcDbSavedByObjectVersion
1070
     0
  0
DICTIONARYVAR
  5
89
102
{ACAD_REACTORS
330
66
102
}
330
66
100
DictionaryVariables
280
     0
  1
STANDARD
  0
DICTIONARYVAR
  5
67
102
{ACAD_REACTORS
330
66
102
}
330
66
100
DictionaryVariables
280
     0
  1
2
  0
DICTIONARYVAR
  5
6B
102
{ACAD_REACTORS
330
66
102
}
330
66
100
DictionaryVariables
280
     0
  1
1
  0
DICTIONARYVAR
  5
5CF
102
{ACAD_REACTORS
330
66
102
}
330
66
100
DictionaryVariables
280
     0
  1
0
  0
DICTIONARYVAR
  5
5CE
102
{ACAD_REACTORS
330
66
102
}
330
66
100
DictionaryVariables
280
     0
  1
127
  0
DICTIONARY
  5
5D3
330
59
100
AcDbDictionary
280
     1
281
     1
  3
ACAD_XREC_ROUNDTRIP
360
5D4
  0
DICTIONARY
  5
5D5
330
5E
100
AcDbDictionary
280
     1
281
     1
  3
ACAD_XREC_ROUNDTRIP
360
5D6
  0
DICTIONARY
  5
5D1
330
22
100
AcDbDictionary
280
     1
281
     1
  3
ACAD_XREC_ROUNDTRIP
360
5D2
  0
DICTIONARY
  5
5DB
330
97
100
AcDbDictionary
280
     1
281
     1
  3
ACAD_XREC_ROUNDTRIP
360
5DC
  0
DICTIONARY
  5
5D9
330
96
100
AcDbDictionary
280
     1
281
     1
  3
ACAD_XREC_ROUNDTRIP
360
5DA
  0
DICTIONARY
  5
5DD
330
98
100
AcDbDictionary
280
     1
281
     1
  3
ACAD_XREC_ROUNDTRIP
360
5DE
  0
DICTIONARY
  5
5D7
330
87
100
AcDbDictionary
280
     1
281
     1
  3
ACAD_XREC_ROUNDTRIP
360
5D8
  0
XRECORD
  5
5D4
102
{ACAD_REACTORS
330
5D3
102
}
330
5D3
100
AcDbXrecord
280
     1
102
SHADEPLOT
 70
     0
102
SHADEPLOTRESLEVEL
 70
     2
102
SHADEPLOTCUSTOMDPI
 70
   300
  0
XRECORD
  5
5D6
102
{ACAD_REACTORS
330
5D5
102
}
330
5D5
100
AcDbXrecord
280
     1
102
SHADEPLOT
 70
     0
102
SHADEPLOTRESLEVEL
 70
     2
102
SHADEPLOTCUSTOMDPI
 70
   300
  0
XRECORD
  5
5D2
102
{ACAD_REACTORS
330
5D1
102
}
330
5D1
100
AcDbXrecord
280
     1
102
SHADEPLOT
 70
     0
102
SHADEPLOTRESLEVEL
 70
     2
102
SHADEPLOTCUSTOMDPI
 70
   300
  0
XRECORD
  5
5DC
102
{ACAD_REACTORS
330
5DB
102
}
330
5DB
100
AcDbXrecord
280
     1
102
MATERIAL
148
0.0
149
0.0
149
0.0
 93
        0
 94
       63
282
     0
 72
     1
 77
     1
171
     1
175
     1
179
     1
273
     0
  0
XRECORD
  5
5DA
102
{ACAD_REACTORS
330
5D9
102
}
330
5D9
100
AcDbXrecord
280
     1
102
MATERIAL
148
0.0
149
0.0
149
0.0
 93
        0
 94
       63
282
     0
 72
     1
 77
     1
171
     1
175
     1
179
     1
273
     0
  0
XRECORD
  5
5DE
102
{ACAD_REACTORS
330
5DD
102
}
330
5DD
100
AcDbXrecord
280
     1
102
MATERIAL
148
0.0
149
0.0
149
0.0
 93
        0
 94
       63
282
     0
 72
     1
 77
     1
171
     1
175
     1
179
     1
273
     0
  0
XRECORD
  5
5D8
102
{ACAD_REACTORS
330
5D7
102
}
330
5D7
100
AcDbXrecord
280
     1
102
ACAD_ROUNDTRIP_PRE2007_TABLESTYLE
 90
      512
 91
        0
  1

 92
      512
 93
        0
  2

 94
      512
 95
        0
  3

  0
ENDSEC
  0
EOF
